  0
SECTION
  2
HEADER
  9
$ACADVER
  1
AC1006
  9
$DWGCODEPAGE
  3
ansi_932
  9
$INSBASE
 10
0.0
 20
0.0
 30
0.0
  9
$EXTMIN
 10
0.0
 20
0.0
  9
$EXTMAX
 10
390.0
 20
272.0
  9
$LIMMIN
 10
0.0
 20
0.0
  9
$LIMMAX
 10
420.0
 20
297.0
  9
$ORTHOMODE
 70
     1
  9
$REGENMODE
 70
     1
  9
$FILLMODE
 70
     1
  9
$QTEXTMODE
 70
     0
  9
$MIRRTEXT
 70
     0
  9
$DRAGMODE
 70
     2
  9
$LTSCALE
 40
1.0
  9
$OSMODE
 70
    37
  9
$ATTMODE
 70
     1
  9
$TEXTSIZE
 40
3.5
  9
$TRACEWID
 40
0.05
  9
$TEXTSTYLE
  7
STANDARD
  9
$CLAYER
  8
0
  9
$CELTYPE
  6
BYLAYER
  9
$CECOLOR
 62
   256
  9
$DIMSCALE
 40
1.0
  9
$DIMASZ
 40
3.0
  9
$DIMEXO
 40
2.0
  9
$DIMDLI
 40
10.0
  9
$DIMRND
 40
0.0
  9
$DIMDLE
 40
0.0
  9
$DIMEXE
 40
2.0
  9
$DIMTP
 40
0.0
  9
$DIMTM
 40
0.0
  9
$DIMTXT
 40
3.2
  9
$DIMCEN
 40
0.09
  9
$DIMTSZ
 40
0.0
  9
$DIMTOL
 70
     0
  9
$DIMLIM
 70
     0
  9
$DIMTIH
 70
     0
  9
$DIMTOH
 70
     0
  9
$DIMSE1
 70
     0
  9
$DIMSE2
 70
     0
  9
$DIMTAD
 70
     1
  9
$DIMZIN
 70
     0
  9
$DIMBLK
  1

  9
$DIMASO
 70
     1
  9
$DIMSHO
 70
     0
  9
$DIMPOST
  1

  9
$DIMAPOST
  1

  9
$DIMALT
 70
     0
  9
$DIMALTD
 70
     2
  9
$DIMALTF
 40
25.4
  9
$DIMLFAC
 40
1.0
  9
$DIMTOFL
 70
     1
  9
$DIMTVP
 40
0.0
  9
$DIMTIX
 70
     1
  9
$DIMSOXD
 70
     0
  9
$DIMSAH
 70
     1
  9
$DIMBLK1
  1
OPEN
  9
$DIMBLK2
  1
OPEN
  9
$LUNITS
 70
     2
  9
$LUPREC
 70
     2
  9
$SKETCHINC
 40
0.1
  9
$FILLETRAD
 40
1.0
  9
$AUNITS
 70
     0
  9
$AUPREC
 70
     2
  9
$MENU
  1
dash
  9
$ELEVATION
 40
0.0
  9
$THICKNESS
 40
0.0
  9
$LIMCHECK
 70
     0
  9
$CHAMFERA
 40
0.0
  9
$CHAMFERB
 40
0.0
  9
$SKPOLY
 70
     0
  9
$TDCREATE
 40
2451025.359548611
  9
$TDUPDATE
 40
2459449.749919456
  9
$TDINDWG
 40
0.1949502662
  9
$TDUSRTIMER
 40
0.1949502662
  9
$USRTIMER
 70
     1
  9
$ANGBASE
 50
0.0
  9
$ANGDIR
 70
     0
  9
$PDMODE
 70
    35
  9
$PDSIZE
 40
1.0
  9
$PLINEWID
 40
0.0
  9
$COORDS
 70
     1
  9
$SPLFRAME
 70
     0
  9
$SPLINETYPE
 70
     6
  9
$SPLINESEGS
 70
     8
  9
$ATTDIA
 70
     0
  9
$ATTREQ
 70
     1
  9
$HANDLING
 70
     1
  9
$HANDSEED
  5
189D599
  9
$SURFTAB1
 70
     6
  9
$SURFTAB2
 70
     6
  9
$SURFTYPE
 70
     6
  9
$SURFU
 70
     6
  9
$SURFV
 70
     6
  9
$UCSNAME
  2

  9
$UCSORG
 10
0.0
 20
0.0
 30
0.0
  9
$UCSXDIR
 10
1.0
 20
0.0
 30
0.0
  9
$UCSYDIR
 10
0.0
 20
1.0
 30
0.0
  9
$USERI1
 70
     0
  9
$USERI2
 70
     0
  9
$USERI3
 70
     0
  9
$USERI4
 70
     0
  9
$USERI5
 70
     0
  9
$USERR1
 40
0.0
  9
$USERR2
 40
0.0
  9
$USERR3
 40
0.0
  9
$USERR4
 40
0.0
  9
$USERR5
 40
0.0
  9
$WORLDVIEW
 70
     1
  0
ENDSEC
  0
SECTION
  2
TABLES
  0
TABLE
  2
VPORT
 70
     1
  0
VPORT
  2
*ACTIVE
 70
     0
 10
0.0
 20
0.0
 11
1.0
 21
1.0
 12
190.4051491205176
 22
62.10485325399918
 13
0.0
 23
0.0
 14
1.0
 24
1.0
 15
0.0
 25
0.0
 16
0.0
 26
0.0
 36
1.0
 17
0.0
 27
0.0
 37
0.0
 40
232.9646062468751
 41
1.825270347182698
 42
50.0
 43
0.0
 44
0.0
 50
0.0
 51
0.0
 71
     0
 72
   500
 73
     1
 74
     3
 75
     0
 76
     0
 77
     0
 78
     0
  0
ENDTAB
  0
TABLE
  2
LTYPE
 70
     3
  0
LTYPE
  2
CONTINUOUS
 70
     0
  3
Solid line
 72
    65
 73
     0
 40
0.0
  0
LTYPE
  2
DASHED
 70
     0
  3
__ __ __ __ __ __ __ __ __ __ __ __ __ __ __
 72
    65
 73
     2
 40
3.0
 49
2.0
 49
-1.0
  0
LTYPE
  2
CENTER
 70
     0
  3
____ _ ____ _ ____ _ ____ _ ____ _ ____ _ ____
 72
    65
 73
     4
 40
12.0
 49
9.0
 49
-1.0
 49
1.0
 49
-1.0
  0
ENDTAB
  0
TABLE
  2
LAYER
 70
    12
  0
LAYER
  2
0
 70
     0
 62
     7
  6
CONTINUOUS
  0
LAYER
  2
THN
 70
     0
 62
    -4
  6
CONTINUOUS
  0
LAYER
  2
CEN
 70
     0
 62
     4
  6
CENTER
  0
LAYER
  2
HID
 70
     0
 62
     3
  6
DASHED
  0
LAYER
  2
DIM
 70
     0
 62
     2
  6
CONTINUOUS
  0
LAYER
  2
WAKU
 70
     0
 62
    10
  6
CONTINUOUS
  0
LAYER
  2
HOJO
 70
     0
 62
     5
  6
CONTINUOUS
  0
LAYER
  2
HATCH
 70
     0
 62
     6
  6
CONTINUOUS
  0
LAYER
  2
DIMTEXT
 70
     0
 62
     1
  6
CONTINUOUS
  0
LAYER
  2
1
 70
     0
 62
     7
  6
CONTINUOUS
  0
LAYER
  2
2
 70
     0
 62
     7
  6
CONTINUOUS
  0
LAYER
  2
DEFPOINTS
 70
     0
 62
     7
  6
CONTINUOUS
  0
ENDTAB
  0
TABLE
  2
STYLE
 70
     3
  0
STYLE
  2
STANDARD
 70
     0
 40
0.0
 41
0.8
 50
0.0
 71
     0
 42
3.5
  3
TXT
  4
bigfont
  0
STYLE
  2
KANJI1
 70
     0
 40
0.0
 41
1.0
 50
0.0
 71
     0
 42
2.0
  3
ROMANS
  4
EXTFONT
  0
STYLE
  2
KANJI2
 70
     0
 40
0.0
 41
1.0
 50
0.0
 71
     0
 42
10.0
  3
ROMANS
  4
EXTFONT
  0
ENDTAB
  0
TABLE
  2
VIEW
 70
     0
  0
ENDTAB
  0
TABLE
  2
UCS
 70
     0
  0
ENDTAB
  0
ENDSEC
  0
SECTION
  2
BLOCKS
  0
BLOCK
  8
0
  2
WK_A3Y0
 70
     0
 10
0.0
 20
0.0
 30
0.0
  0
LINE
  5
189D03D
  8
WAKU
 10
390.0
 20
272.0
 30
0.0
 11
0.0000000000000568
 21
272.0
 31
0.0
  0
LINE
  5
189D03E
  8
WAKU
 10
389.9999999999999
 20
0.0
 30
0.0
 11
389.9999999999999
 21
272.0
 31
0.0
  0
TEXT
  5
189D03F
  8
WAKU
 62
     6
 10
327.3307147859031
 20
268.0703844795598
 30
0.0
 40
3.0
  1
図　面　来　歴
  7
KANJI1
 72
     1
 11
339.6307147859031
 21
269.5703844795598
 31
0.0
  0
TEXT
  5
189D040
  8
WAKU
 62
     6
 10
332.659572288814
 20
264.5803800559038
 30
0.0
 40
2.5
  1
CAREER
  7
KANJI2
 72
     1
 11
339.7429056221473
 21
265.8303800559038
 31
0.0
  0
LINE
  5
189D041
  8
WAKU
 10
390.0
 20
263.4999999999999
 30
0.0
 11
290.0
 21
263.4999999999999
 31
0.0
  0
LINE
  5
189D042
  8
WAKU
 10
390.0
 20
254.9999999999999
 30
0.0
 11
290.0
 21
254.9999999999999
 31
0.0
  0
LINE
  5
189D043
  8
WAKU
 10
390.0
 20
246.4999999999999
 30
0.0
 11
290.0
 21
246.4999999999999
 31
0.0
  0
LINE
  5
189D044
  8
WAKU
 10
390.0
 20
237.9999999999999
 30
0.0
 11
290.0
 21
237.9999999999999
 31
0.0
  0
LINE
  5
189D045
  8
WAKU
 10
305.0
 20
237.9999999999999
 30
0.0
 11
305.0
 21
263.5
 31
0.0
  0
LINE
  5
189D046
  8
WAKU
 10
322.0
 20
237.9999999999999
 30
0.0
 11
322.0
 21
263.5
 31
0.0
  0
LINE
  5
189D047
  8
WAKU
 10
290.0
 20
237.9999999999999
 30
0.0
 11
290.0
 21
272.0
 31
0.0
  0
TEXT
  5
189D048
  8
WAKU
 62
     6
 10
293.0708350650743
 20
255.750947451817
 30
0.0
 40
2.5
  1
MARK
  7
KANJI2
  0
TEXT
  5
189D049
  8
WAKU
 62
     6
 10
294.5486203294193
 20
259.3696918904864
 30
0.0
 40
3.0
  1
記号
  7
KANJI1
 72
     1
 11
297.7486203294193
 21
260.8696918904864
 31
0.0
  0
TEXT
  5
189D04A
  8
WAKU
 62
     6
 10
308.6915347592192
 20
259.5181394579755
 30
0.0
 40
3.0
  1
年月日
  7
KANJI1
 72
     1
 11
313.4915347592192
 21
261.0181394579755
 31
0.0
  0
TEXT
  5
189D04B
  8
WAKU
 62
     6
 10
308.974136542129
 20
255.5347361087015
 30
0.0
 40
2.5
  1
DATE
  7
KANJI2
 72
     1
 11
313.4979460659385
 21
256.7847361087015
 31
0.0
  0
TEXT
  5
189D04C
  8
WAKU
 62
     6
 10
342.4488221121451
 20
259.5181394579755
 30
0.0
 40
3.0
  1
記　　　　事
  7
KANJI1
 72
     1
 11
352.8488221121451
 21
261.0181394579755
 31
0.0
  0
TEXT
  5
189D04D
  8
WAKU
 62
     6
 10
340.9759790736705
 20
255.7931828195535
 30
0.0
 40
2.5
  1
EXPLANATION
  7
KANJI2
 72
     1
 11
353.0593124070038
 21
257.0431828195535
 31
0.0
  0
LINE
  5
189D04E
  8
WAKU
 10
389.9999999999999
 20
0.0
 30
0.0
 11
0.0
 21
0.0
 31
0.0
  0
LINE
  5
189D04F
  8
WAKU
 10
389.9999999999999
 20
25.96560095650418
 30
0.0
 11
269.4999999999999
 21
25.96560095650418
 31
0.0
  0
LINE
  5
189D050
  8
WAKU
 10
389.9999999999999
 20
16.96560095650415
 30
0.0
 11
269.5
 21
16.96560095650415
 31
0.0
  0
LINE
  5
189D051
  8
WAKU
 10
389.9999999999999
 20
25.96560095650418
 30
0.0
 11
269.4999999999999
 21
25.96560095650418
 31
0.0
  0
LINE
  5
189D052
  8
WAKU
 10
389.9999999999999
 20
40.96560095650418
 30
0.0
 11
269.4999999999999
 21
40.96560095650418
 31
0.0
  0
LINE
  5
189D053
  8
WAKU
 10
389.9999999999999
 20
50.46560095650418
 30
0.0
 11
269.4999999999999
 21
50.46560095650418
 31
0.0
  0
TEXT
  5
189D054
  8
WAKU
 62
     6
 10
330.5254792130129
 20
42.54507345808153
 30
0.0
 40
2.0
  1
NO.REQ'D
  7
KANJI2
 72
     1
 11
337.573098260632
 21
43.54507345808153
 31
0.0
  0
TEXT
  5
189D055
  8
WAKU
 10
290.3608414812278
 20
3.018918169471476
 30
0.0
 40
3.0
  1
OHJI RUBBER & CHEMICALS CO.,LTD.
  7
KANJI1
 72
     1
 11
330.7465557669421
 21
4.518918169471476
 31
0.0
  0
TEXT
  5
189D056
  8
WAKU
 10
290.6368794421599
 20
8.435898150440751
 30
0.0
 40
5.0
  1
王子ゴム化成株式会社
  7
KANJI1
  0
LINE
  5
189D057
  8
WAKU
 10
269.4999999999999
 20
0.2775261612657403
 30
0.0
 11
269.4999999999999
 21
50.46560095650418
 31
0.0
  0
TEXT
  5
189D058
  8
WAKU
 62
     6
 10
274.4302862977678
 20
34.49938230180913
 30
0.0
 40
3.0
  1
名称
  7
KANJI1
 72
     1
 11
277.6302862977678
 21
35.99938230180913
 31
0.0
  0
TEXT
  5
189D059
  8
WAKU
 62
     6
 10
274.3750642144256
 20
21.97352750024902
 30
0.0
 40
3.0
  1
日付
  7
KANJI1
 72
     1
 11
277.7750642144256
 21
23.47352750024902
 31
0.0
  0
TEXT
  5
189D05A
  8
WAKU
 62
     6
 10
273.1030160745985
 20
17.98745289994386
 30
0.0
 40
2.5
  1
DATE
  7
KANJI2
 72
     1
 11
277.6268255984081
 21
19.23745289994386
 31
0.0
  0
TEXT
  5
189D05B
  8
WAKU
 62
     6
 10
272.9814329339567
 20
29.08063670589539
 30
0.0
 40
2.5
  1
TITLE
  7
KANJI2
 72
     1
 11
277.4457186482424
 21
30.33063670589539
 31
0.0
  0
ARC
  5
189D05C
  8
WAKU
 10
280.5297613168935
 20
4.23879501804371
 30
0.0
 40
8.339568020092239
 50
50.42889192608803
 51
129.571108073912
  0
ARC
  5
189D05D
  8
WAKU
 10
280.5297613168935
 20
12.4220516779968
 30
0.0
 40
8.30220306308398
 50
230.0944008649057
 51
309.9055991350943
  0
INSERT
  5
189D05E
  8
WAKU
  2
*X1
 10
-4.569770156038373
 20
12.16099840676171
 30
0.0
  0
ARC
  5
189D05F
  8
WAKU
 10
277.1282676259526
 20
8.354718646062203
 30
0.0
 40
3.0
 50
129.571108073912
 51
230.0944008649059
  0
TEXT
  5
189D060
  8
WAKU
 10
277.0585403240342
 20
6.849167749767538
 30
0.0
 40
3.0
  1
OJI
  7
KANJI1
 72
     1
 11
280.2728260383199
 21
8.349167749767538
 31
0.0
  0
CIRCLE
  5
189D061
  8
WAKU
 10
280.4331570707386
 20
8.329794039836123
 30
0.0
 40
3.98009326329651
  0
ARC
  5
189D062
  8
WAKU
 10
283.9312550078345
 20
8.354718646062203
 30
0.0
 40
3.0
 50
309.9055991350942
 51
50.42889192608803
  0
LINE
  5
189D063
  8
WAKU
 10
347.75
 20
25.96560095650412
 30
0.0
 11
347.75
 21
16.96560095650415
 31
0.0
  0
LINE
  5
189D064
  8
WAKU
 10
329.75
 20
25.96560095650412
 30
0.0
 11
329.75
 21
16.96560095650415
 31
0.0
  0
TEXT
  5
189D065
  8
WAKU
 62
     6
 10
335.4690291190192
 20
22.29925509968402
 30
0.0
 40
3.0
  1
尺度
  7
KANJI1
 72
     1
 11
338.6690291190192
 21
23.79925509968402
 31
0.0
  0
TEXT
  5
189D066
  8
WAKU
 62
     6
 10
332.9470076486102
 20
18.34949264807071
 30
0.0
 40
2.5
  1
SCALE
  7
KANJI2
 72
     1
 11
338.6612933628959
 21
19.59949264807071
 31
0.0
  0
TEXT
  5
189D067
  8
WAKU
 62
     6
 10
270.4741355076006
 20
42.7260928787758
 30
0.0
 40
2.0
  1
PART NO.
  7
KANJI2
 72
     1
 11
277.2646116980767
 21
43.7260928787758
 31
0.0
  0
TEXT
  5
189D068
  8
WAKU
 62
     6
 10
274.306087205489
 20
46.03925385519743
 30
0.0
 40
3.0
  1
部番
  7
KANJI1
 72
     1
 11
277.5060872054889
 21
47.53925385519743
 31
0.0
  0
TEXT
  5
189D069
  8
WAKU
 62
     6
 10
298.8752169493111
 20
46.11187543236623
 30
0.0
 40
3.0
  1
名　　　称
  7
KANJI1
 72
     1
 11
307.4752169493111
 21
47.61187543236623
 31
0.0
  0
TEXT
  5
189D06A
  8
WAKU
 62
     6
 10
294.1667046023672
 20
42.29507345808153
 30
0.0
 40
2.5
  1
NAME OF PART
  7
KANJI2
 72
     1
 11
307.6905141261768
 21
43.54507345808153
 31
0.0
  0
LINE
  5
189D06B
  8
WAKU
 10
329.8
 20
50.46560095650418
 30
0.0
 11
329.8
 21
40.89921495727378
 31
0.0
  0
TEXT
  5
189D06C
  8
WAKU
 62
     6
 10
334.6786817215328
 20
46.40129360332428
 30
0.0
 40
3.0
  1
数量
  7
KANJI1
 72
     1
 11
337.8786817215328
 21
47.90129360332428
 31
0.0
  0
TEXT
  5
189D06D
  8
WAKU
 62
     6
 10
367.8800570676003
 20
42.4760928787758
 30
0.0
 40
2.5
  1
REMARKS
  7
KANJI2
 72
     1
 11
376.5110094485527
 21
43.7260928787758
 31
0.0
  0
TEXT
  5
189D06E
  8
WAKU
 62
     6
 10
369.4449600353063
 20
46.76333244471282
 30
0.0
 40
3.0
  1
備　　考
  7
KANJI1
 72
     1
 11
376.2449600353063
 21
48.26333244471282
 31
0.0
  0
TEXT
  5
189D06F
  8
WAKU
 62
     6
 10
351.3281983879257
 20
46.40129360332428
 30
0.0
 40
3.0
  1
材質
  7
KANJI1
 72
     1
 11
354.5281983879257
 21
47.90129360332428
 31
0.0
  0
TEXT
  5
189D070
  8
WAKU
 62
     6
 10
347.3777590227992
 20
42.7260928787758
 30
0.0
 40
2.0
  1
MATERIAL
  7
KANJI2
 72
     1
 11
354.234901879942
 21
43.7260928787758
 31
0.0
  0
LINE
  5
189D071
  8
WAKU
 10
345.8
 20
50.46560095650418
 30
0.0
 11
345.8
 21
40.96560095650418
 31
0.0
  0
LINE
  5
189D072
  8
WAKU
 10
362.8
 20
50.46560095650418
 30
0.0
 11
362.8
 21
40.96560095650418
 31
0.0
  0
LINE
  5
189D073
  8
WAKU
 10
0.0000000000000002
 20
272.0
 30
0.0
 11
0.0
 21
0.0
 31
0.0
  0
LINE
  5
189D088
  8
WAKU
 10
286.8772637348418
 20
50.46560095650418
 30
0.0
 11
286.8772637348418
 21
16.96560095650415
 31
0.0
  0
ENDBLK
  8
0
  0
BLOCK
  8
0
  2
*X1
 70
     1
 10
0.0
 20
0.0
 30
0.0
  0
LINE
  5
1493710
  8
0
 62
     0
 10
278.6985657303572
 20
-3.75
 30
0.0
 11
281.0236624409996
 21
-3.75
 31
0.0
  0
LINE
  5
1493711
  8
0
 62
     0
 10
288.9821920125545
 20
-3.75
 30
0.0
 11
291.5004972155068
 21
-3.75
 31
0.0
  0
LINE
  5
1493712
  8
0
 62
     0
 10
278.7443377717706
 20
-3.28125
 30
0.0
 11
281.0610123901988
 21
-3.28125
 31
0.0
  0
LINE
  5
1493713
  8
0
 62
     0
 10
288.9448420633553
 20
-3.28125
 30
0.0
 11
291.4547251740934
 21
-3.28125
 31
0.0
  0
LINE
  5
1493714
  8
0
 62
     0
 10
278.8674191592831
 20
-2.8125
 30
0.0
 11
281.1554106514596
 21
-2.8125
 31
0.0
  0
LINE
  5
1493715
  8
0
 62
     0
 10
288.8504438020945
 20
-2.8125
 30
0.0
 11
291.3316437865809
 21
-2.8125
 31
0.0
  0
LINE
  5
1493716
  8
0
 62
     0
 10
279.0786854385548
 20
-2.34375
 30
0.0
 11
281.3112308835156
 21
-2.34375
 31
0.0
  0
LINE
  5
1493717
  8
0
 62
     0
 10
288.6946235700385
 20
-2.34375
 30
0.0
 11
291.1203775073092
 21
-2.34375
 31
0.0
  0
LINE
  5
1493718
  8
0
 62
     0
 10
279.4023552068276
 20
-1.875
 30
0.0
 11
281.5367467843654
 21
-1.875
 31
0.0
  0
LINE
  5
1493719
  8
0
 62
     0
 10
288.4691076691887
 20
-1.875
 30
0.0
 11
290.7967077390364
 21
-1.875
 31
0.0
  0
LINE
  5
149371A
  8
0
 62
     0
 10
279.8946543180132
 20
-1.40625
 30
0.0
 11
281.8468634278553
 21
-1.40625
 31
0.0
  0
LINE
  5
149371B
  8
0
 62
     0
 10
288.1589910256988
 20
-1.40625
 30
0.0
 11
290.3044086278508
 21
-1.40625
 31
0.0
  0
LINE
  5
149371C
  8
0
 62
     0
 10
280.5429633198838
 20
-0.9375
 30
0.0
 11
282.2702330577615
 21
-0.9375
 31
0.0
  0
LINE
  5
149371D
  8
0
 62
     0
 10
287.7356213957926
 20
-0.9375
 30
0.0
 11
289.6560996259801
 21
-0.9375
 31
0.0
  0
LINE
  5
149371E
  8
0
 62
     0
 10
281.3586188377653
 20
-0.46875
 30
0.0
 11
282.8733631833919
 21
-0.46875
 31
0.0
  0
LINE
  5
149371F
  8
0
 62
     0
 10
287.1324912701622
 20
-0.46875
 30
0.0
 11
288.8404441080986
 21
-0.46875
 31
0.0
  0
LINE
  5
1493720
  8
0
 62
     0
 10
282.4943274061598
 20
0.0
 30
0.0
 11
283.9244952709328
 21
0.0
 31
0.0
  0
LINE
  5
1493721
  8
0
 62
     0
 10
286.0813591826213
 20
0.0
 30
0.0
 11
287.7047355397042
 21
0.0
 31
0.0
  0
LINE
  5
1493722
  8
0
 62
     0
 10
278.7265283504583
 20
-4.21875
 30
0.0
 11
281.0417467503507
 21
-4.21875
 31
0.0
  0
LINE
  5
1493723
  8
0
 62
     0
 10
288.9641077032034
 20
-4.21875
 30
0.0
 11
291.4725345954057
 21
-4.21875
 31
0.0
  0
LINE
  5
1493724
  8
0
 62
     0
 10
278.8303817897486
 20
-4.6875
 30
0.0
 11
281.1160389889557
 21
-4.6875
 31
0.0
  0
LINE
  5
1493725
  8
0
 62
     0
 10
288.8898154645984
 20
-4.6875
 30
0.0
 11
291.3686811561154
 21
-4.6875
 31
0.0
  0
LINE
  5
1493726
  8
0
 62
     0
 10
279.0189371207617
 20
-5.15625
 30
0.0
 11
281.2498756077866
 21
-5.15625
 31
0.0
  0
LINE
  5
1493727
  8
0
 62
     0
 10
288.7559788457675
 20
-5.15625
 30
0.0
 11
291.1801258251023
 21
-5.15625
 31
0.0
  0
LINE
  5
1493728
  8
0
 62
     0
 10
279.3121927134345
 20
-5.625
 30
0.0
 11
281.4499792098059
 21
-5.625
 31
0.0
  0
LINE
  5
1493729
  8
0
 62
     0
 10
288.5558752437482
 20
-5.625
 30
0.0
 11
290.8868702324295
 21
-5.625
 31
0.0
  0
LINE
  5
149372A
  8
0
 62
     0
 10
279.7570380642396
 20
-6.09375
 30
0.0
 11
281.7284761822824
 21
-6.09375
 31
0.0
  0
LINE
  5
149372B
  8
0
 62
     0
 10
288.2773782712717
 20
-6.09375
 30
0.0
 11
290.4420248816244
 21
-6.09375
 31
0.0
  0
LINE
  5
149372C
  8
0
 62
     0
 10
280.3702930083053
 20
-6.5625
 30
0.0
 11
282.1079027796808
 21
-6.5625
 31
0.0
  0
LINE
  5
149372D
  8
0
 62
     0
 10
287.8979516738733
 20
-6.5625
 30
0.0
 11
289.8287699375586
 21
-6.5625
 31
0.0
  0
LINE
  5
149372E
  8
0
 62
     0
 10
281.1310445193159
 20
-7.03125
 30
0.0
 11
282.6363156551883
 21
-7.03125
 31
0.0
  0
LINE
  5
149372F
  8
0
 62
     0
 10
287.3695387983658
 20
-7.03125
 30
0.0
 11
289.0680184265481
 21
-7.03125
 31
0.0
  0
LINE
  5
1493730
  8
0
 62
     0
 10
282.151205198291
 20
-7.5
 30
0.0
 11
283.4598520545089
 21
-7.5
 31
0.0
  0
LINE
  5
1493731
  8
0
 62
     0
 10
286.5460023990452
 20
-7.5
 30
0.0
 11
288.0478577475729
 21
-7.5
 31
0.0
  0
LINE
  5
1493732
  8
0
 62
     0
 10
284.0054959079454
 20
-7.96875
 30
0.0
 11
286.1935670379185
 21
-7.96875
 31
0.0
  0
LINE
  5
1493733
  8
0
 62
     0
 10
285.0
 20
-8.040553150812588
 30
0.0
 11
285.0
 21
-7.811296553782535
 31
0.0
  0
LINE
  5
1493734
  8
0
 62
     0
 10
285.0
 20
0.1488878199312955
 30
0.0
 11
285.0
 21
0.4167706637441677
 31
0.0
  0
LINE
  5
1493735
  8
0
 62
     0
 10
283.125
 20
-7.80292844768568
 30
0.0
 11
283.125
 21
-7.340411074354741
 31
0.0
  0
LINE
  5
1493736
  8
0
 62
     0
 10
283.125
 20
-0.3219976594964984
 30
0.0
 11
283.125
 21
0.1802419350186826
 31
0.0
  0
LINE
  5
1493737
  8
0
 62
     0
 10
281.25
 20
-7.094739217653751
 30
0.0
 11
281.25
 21
-5.156602275122101
 31
0.0
  0
LINE
  5
1493738
  8
0
 62
     0
 10
281.25
 20
-2.505806458729138
 30
0.0
 11
281.25
 21
-0.524264337830413
 31
0.0
  0
LINE
  5
1493739
  8
0
 62
     0
 10
279.375
 20
-5.704567268807491
 30
0.0
 11
279.375
 21
-1.907992252591516
 31
0.0
  0
LINE
  5
149373A
  8
0
 62
     0
 10
286.875
 20
-7.849081574134509
 30
0.0
 11
286.875
 21
-7.343537767429249
 31
0.0
  0
LINE
  5
149373B
  8
0
 62
     0
 10
286.875
 20
-0.3188709664219913
 30
0.0
 11
286.875
 21
0.2261772032237017
 31
0.0
  0
LINE
  5
149373C
  8
0
 62
     0
 10
288.75
 20
-7.195531418391459
 30
0.0
 11
288.75
 21
-5.173064276419643
 31
0.0
  0
LINE
  5
149373D
  8
0
 62
     0
 10
288.75
 20
-2.489344457431597
 30
0.0
 11
288.75
 21
-0.424038660290976
 31
0.0
  0
LINE
  5
149373E
  8
0
 62
     0
 10
290.625
 20
-5.924942285854444
 30
0.0
 11
290.625
 21
-1.687617235544558
 31
0.0
  0
ENDBLK
  8
0
  0
BLOCK
  8
0
  2
DIMSTAT
 70
     2
 10
0.0
 20
0.0
 30
0.0
  0
ATTDEF
  5
189C7F4
  8
0
 10
0.0
 20
1.0
 30
0.0
 40
1.0
  1

 41
0.7
 51
15.0
  3

  2
DIMEXT
 70
     1
  0
ATTDEF
  5
189C7F5
  8
0
 10
0.0
 20
0.0
 30
0.0
 40
1.0
  1

 41
0.7
 51
15.0
  3

  2
DIMBAL
 70
     1
  0
ATTDEF
  5
189C7F6
  8
0
 10
-0.4428095427696519
 20
-0.911649989012119
 30
0.0
 40
1.0
  1

 41
0.7
 51
15.0
 72
     1
 11
1.507190457230351
 21
-0.911649989012119
 31
0.0
  3

  2
SYMSCL
 70
     1
  0
ENDBLK
  8
0
  0
BLOCK
  8
0
  2
DIMSTAT2
 70
     2
 10
0.0
 20
0.0
 30
0.0
  0
ATTDEF
  5
189C7FF
  8
0
 10
0.0
 20
0.0
 30
0.0
 40
1.0
  1

 41
0.7
  3

  2
DIMSIZ
 70
     1
  0
ENDBLK
  8
0
  0
BLOCK
  8
0
  2
_OPEN
 70
     0
 10
0.0
 20
0.0
 30
0.0
  0
LINE
  5
189C983
  8
0
  6
BYBLOCK
 62
     0
 10
-1.0
 20
0.1666666666666667
 30
0.0
 11
0.0
 21
0.0
 31
0.0
  0
LINE
  5
189C984
  8
0
  6
BYBLOCK
 62
     0
 10
0.0
 20
0.0
 30
0.0
 11
-1.0
 21
-0.1666666666666667
 31
0.0
  0
LINE
  5
189C985
  8
0
  6
BYBLOCK
 62
     0
 10
0.0
 20
0.0
 30
0.0
 11
-1.0
 21
0.0
 31
0.0
  0
ENDBLK
  8
0
  0
BLOCK
  8
0
  2
*D5
 70
     1
 10
0.0
 20
0.0
 30
0.0
  0
LINE
  5
189D508
  8
DIM
 62
     0
 10
87.15721905596911
 20
50.5320597073483
 30
0.0
 11
87.15721905596911
 21
31.07481062227268
 31
0.0
  0
LINE
  5
189D509
  8
DIM
 62
     0
 10
107.1572190559691
 20
50.53195306451148
 30
0.0
 11
107.1572190559691
 21
31.07481062227268
 31
0.0
  0
LINE
  5
189D50A
  8
DIM
 62
     0
 10
90.15721905596911
 20
33.07481062227268
 30
0.0
 11
104.1572190559691
 21
33.07481062227268
 31
0.0
  0
INSERT
  5
189D50B
  8
DIM
 62
     0
  2
_OPEN
 10
87.15721905596911
 20
33.07481062227268
 30
0.0
 41
3.0
 42
3.0
 43
3.0
 50
180.0
  0
INSERT
  5
189D50C
  8
DIM
 62
     0
  2
_OPEN
 10
107.1572190559691
 20
33.07481062227268
 30
0.0
 41
3.0
 42
3.0
 43
3.0
  0
TEXT
  5
189D50D
  8
DIM
  6
CONTINUOUS
 62
     0
 10
93.42388572263577
 20
35.07481062227268
 30
0.0
 40
4.0
  1
φ20
 41
0.8
  0
POINT
  5
189D50E
  8
DEFPOINTS
 62
     0
 10
87.15721905596911
 20
52.5320597073483
 30
0.0
  0
POINT
  5
189D50F
  8
DEFPOINTS
 62
     0
 10
107.1572190559691
 20
52.53195306451148
 30
0.0
  0
POINT
  5
189D510
  8
DEFPOINTS
 62
     0
 10
107.1572190559691
 20
33.07481062227268
 30
0.0
  0
ENDBLK
  8
0
  0
BLOCK
  8
0
  2
*D6
 70
     1
 10
0.0
 20
0.0
 30
0.0
  0
LINE
  5
189D563
  8
DIM
 62
     0
 10
101.7413776923432
 20
101.9319530645116
 30
0.0
 11
143.2854936798753
 21
101.9319530645116
 31
0.0
  0
LINE
  5
189D564
  8
DIM
 62
     0
 10
124.1572190559692
 20
51.9319530645115
 30
0.0
 11
143.2854936798753
 21
51.9319530645115
 31
0.0
  0
LINE
  5
189D565
  8
DIM
 62
     0
 10
141.2854936798753
 20
98.93195306451159
 30
0.0
 11
141.2854936798753
 21
54.9319530645115
 31
0.0
  0
INSERT
  5
189D566
  8
DIM
 62
     0
  2
_OPEN
 10
141.2854936798753
 20
101.9319530645116
 30
0.0
 41
3.0
 42
3.0
 43
3.0
 50
90.0
  0
INSERT
  5
189D567
  8
DIM
 62
     0
  2
_OPEN
 10
141.2854936798753
 20
51.9319530645115
 30
0.0
 41
3.0
 42
3.0
 43
3.0
 50
270.0
  0
TEXT
  5
189D568
  8
DIM
  6
CONTINUOUS
 62
     0
 10
139.2854936798753
 20
74.53195306451148
 30
0.0
 40
4.0
  1
50
 50
90.0
 41
0.8
  0
POINT
  5
189D569
  8
DEFPOINTS
 62
     0
 10
99.74137769234318
 20
101.9319530645116
 30
0.0
  0
POINT
  5
189D56A
  8
DEFPOINTS
 62
     0
 10
122.1572190559692
 20
51.9319530645115
 30
0.0
  0
POINT
  5
189D56B
  8
DEFPOINTS
 62
     0
 10
141.2854936798753
 20
51.9319530645115
 30
0.0
  0
ENDBLK
  8
0
  0
BLOCK
  8
0
  2
*D7
 70
     1
 10
0.0
 20
0.0
 30
0.0
  0
LINE
  5
189D51A
  8
DIM
 62
     0
 10
84.65721905596911
 20
100.5825881591225
 30
0.0
 11
84.65721905596911
 21
118.8581598157038
 31
0.0
  0
LINE
  5
189D51B
  8
DIM
 62
     0
 10
109.6572190559691
 20
100.5825881591225
 30
0.0
 11
109.6572190559691
 21
118.8581598157038
 31
0.0
  0
LINE
  5
189D51C
  8
DIM
 62
     0
 10
87.65721905596911
 20
116.8581598157038
 30
0.0
 11
106.6572190559691
 21
116.8581598157038
 31
0.0
  0
INSERT
  5
189D51D
  8
DIM
 62
     0
  2
_OPEN
 10
84.65721905596911
 20
116.8581598157038
 30
0.0
 41
3.0
 42
3.0
 43
3.0
 50
180.0
  0
INSERT
  5
189D51E
  8
DIM
 62
     0
  2
_OPEN
 10
109.6572190559691
 20
116.8581598157038
 30
0.0
 41
3.0
 42
3.0
 43
3.0
  0
TEXT
  5
189D51F
  8
DIM
  6
CONTINUOUS
 62
     0
 10
93.15721905596911
 20
118.8581598157038
 30
0.0
 40
4.0
  1
φ25
 41
0.8
  0
POINT
  5
189D520
  8
DEFPOINTS
 62
     0
 10
84.65721905596911
 20
98.58258815912245
 30
0.0
  0
POINT
  5
189D521
  8
DEFPOINTS
 62
     0
 10
109.6572190559691
 20
98.58258815912245
 30
0.0
  0
POINT
  5
189D522
  8
DEFPOINTS
 62
     0
 10
109.6572190559691
 20
116.8581598157038
 30
0.0
  0
ENDBLK
  8
0
  0
BLOCK
  8
0
  2
*D8
 70
     1
 10
0.0
 20
0.0
 30
0.0
  0
LINE
  5
189D52C
  8
DIM
 62
     0
 10
81.74626461303819
 20
81.27948581361704
 30
0.0
 11
81.45192741393916
 21
80.4570695408192
 31
0.0
  0
LINE
  5
189D52D
  8
DIM
 62
     0
 10
73.26400278675521
 20
84.31522971916898
 30
0.0
 11
72.96966558765618
 21
83.49281344637114
 31
0.0
  0
LINE
  5
189D52E
  8
DIM
 62
     0
 10
84.95040696725422
 20
81.3292167847157
 30
0.0
 11
87.77496077057845
 21
80.3183281597294
 31
0.0
  0
LINE
  5
189D52F
  8
DIM
 62
     0
 10
70.81903753432283
 20
86.38673794024024
 30
0.0
 11
67.99448373099861
 21
87.39762656522655
 31
0.0
  0
LINE
  5
189D530
  8
DIM
 62
     0
 10
82.12585316393002
 20
82.340105409702
 30
0.0
 11
73.64359133764705
 21
85.37584931525394
 31
0.0
  0
INSERT
  5
189D531
  8
DIM
 62
     0
  2
_OPEN
 10
82.12585316393002
 20
82.340105409702
 30
0.0
 41
3.0
 42
3.0
 43
3.0
 50
160.3080563548346
  0
INSERT
  5
189D532
  8
DIM
 62
     0
  2
_OPEN
 10
73.64359133764705
 20
85.37584931525394
 30
0.0
 41
3.0
 42
3.0
 43
3.0
 50
340.3080563548345
  0
TEXT
  5
189D533
  8
DIM
  6
CONTINUOUS
 62
     0
 10
75.54579061056691
 20
86.81929443134618
 30
0.0
 40
4.0
  1
(9)
 50
340.3080563548345
 41
0.8
  0
POINT
  5
189D534
  8
DEFPOINTS
 62
     0
 10
82.42019036302906
 20
83.16252168249986
 30
0.0
  0
POINT
  5
189D535
  8
DEFPOINTS
 62
     0
 10
73.93792853674609
 20
86.1982655880518
 30
0.0
  0
POINT
  5
189D536
  8
DEFPOINTS
 62
     0
 10
73.64359133764705
 20
85.37584931525394
 30
0.0
  0
ENDBLK
  8
0
  0
BLOCK
  8
0
  2
*D9
 70
     1
 10
0.0
 20
0.0
 30
0.0
  0
LINE
  5
189D4C7
  8
DIM
 62
     0
 10
205.369733465693
 20
45.90475959934328
 30
0.0
 11
193.5618821488065
 21
45.90475959934328
 31
0.0
  0
LINE
  5
189D4C8
  8
DIM
 62
     0
 10
205.369733465693
 20
65.90475959934375
 30
0.0
 11
193.5618821488064
 21
65.90475959934375
 31
0.0
  0
LINE
  5
189D4C9
  8
DIM
 62
     0
 10
195.5618821488065
 20
48.90475959934329
 30
0.0
 11
195.5618821488065
 21
62.90475959934375
 31
0.0
  0
INSERT
  5
189D4CA
  8
DIM
 62
     0
  2
_OPEN
 10
195.5618821488065
 20
45.90475959934328
 30
0.0
 41
3.0
 42
3.0
 43
3.0
 50
270.0
  0
INSERT
  5
189D4CB
  8
DIM
 62
     0
  2
_OPEN
 10
195.5618821488064
 20
65.90475959934375
 30
0.0
 41
3.0
 42
3.0
 43
3.0
 50
90.0
  0
TEXT
  5
189D4CC
  8
DIM
  6
CONTINUOUS
 62
     0
 10
193.5618821488064
 20
53.50475959934346
 30
0.0
 40
4.0
  1
20
 50
90.0
 41
0.8
  0
POINT
  5
189D4CD
  8
DEFPOINTS
 62
     0
 10
207.369733465693
 20
45.90475959934328
 30
0.0
  0
POINT
  5
189D4CE
  8
DEFPOINTS
 62
     0
 10
207.369733465693
 20
65.90475959934375
 30
0.0
  0
POINT
  5
189D4CF
  8
DEFPOINTS
 62
     0
 10
195.5618821488064
 20
65.90475959934375
 30
0.0
  0
ENDBLK
  8
0
  0
BLOCK
  8
0
  2
*D10
 70
     1
 10
0.0
 20
0.0
 30
0.0
  0
LINE
  5
189D577
  8
DIM
 62
     0
 10
203.3697334656929
 20
47.90475959934323
 30
0.0
 11
203.3697334656929
 21
33.10400323819351
 31
0.0
  0
LINE
  5
189D578
  8
DIM
 62
     0
 10
211.3697334656929
 20
47.90475959934327
 30
0.0
 11
211.3697334656929
 21
33.10400323819351
 31
0.0
  0
LINE
  5
189D579
  8
DIM
 62
     0
 10
200.3697334656929
 20
35.10400323819351
 30
0.0
 11
197.3697334656929
 21
35.10400323819351
 31
0.0
  0
LINE
  5
189D57A
  8
DIM
 62
     0
 10
214.3697334656929
 20
35.10400323819351
 30
0.0
 11
217.3697334656929
 21
35.10400323819351
 31
0.0
  0
LINE
  5
189D57B
  8
DIM
 62
     0
 10
203.3697334656929
 20
35.10400323819351
 30
0.0
 11
211.3697334656929
 21
35.10400323819351
 31
0.0
  0
INSERT
  5
189D57C
  8
DIM
 62
     0
  2
_OPEN
 10
203.3697334656929
 20
35.10400323819351
 30
0.0
 41
3.0
 42
3.0
 43
3.0
  0
INSERT
  5
189D57D
  8
DIM
 62
     0
  2
_OPEN
 10
211.3697334656929
 20
35.10400323819351
 30
0.0
 41
3.0
 42
3.0
 43
3.0
 50
180.0
  0
TEXT
  5
189D57E
  8
DIM
  6
CONTINUOUS
 62
     0
 10
206.3030667990262
 20
37.10400323819351
 30
0.0
 40
4.0
  1
8
 41
0.8
  0
POINT
  5
189D57F
  8
DEFPOINTS
 62
     0
 10
203.3697334656929
 20
49.90475959934323
 30
0.0
  0
POINT
  5
189D580
  8
DEFPOINTS
 62
     0
 10
211.3697334656929
 20
49.90475959934327
 30
0.0
  0
POINT
  5
189D581
  8
DEFPOINTS
 62
     0
 10
211.3697334656929
 20
35.10400323819351
 30
0.0
  0
ENDBLK
  8
0
  0
BLOCK
  8
0
  2
*D11
 70
     1
 10
0.0
 20
0.0
 30
0.0
  0
LINE
  5
189D4FF
  8
DIM
 62
     0
 10
72.15721905596911
 20
50.97300826140182
 30
0.0
 11
72.15721905596911
 21
21.85128300896858
 31
0.0
  0
LINE
  5
189D500
  8
DIM
 62
     0
 10
122.1572190559691
 20
50.97275274476723
 30
0.0
 11
122.1572190559691
 21
21.85128300896858
 31
0.0
  0
LINE
  5
189D501
  8
DIM
 62
     0
 10
75.15721905596911
 20
23.85128300896858
 30
0.0
 11
119.1572190559691
 21
23.85128300896858
 31
0.0
  0
INSERT
  5
189D502
  8
DIM
 62
     0
  2
_OPEN
 10
72.15721905596911
 20
23.85128300896858
 30
0.0
 41
3.0
 42
3.0
 43
3.0
 50
180.0
  0
INSERT
  5
189D503
  8
DIM
 62
     0
  2
_OPEN
 10
122.1572190559691
 20
23.85128300896858
 30
0.0
 41
3.0
 42
3.0
 43
3.0
  0
TEXT
  5
189D504
  8
DIM
  6
CONTINUOUS
 62
     0
 10
94.7572190559691
 20
25.85128300896858
 30
0.0
 40
4.0
  1
50
 41
0.8
  0
POINT
  5
189D505
  8
DEFPOINTS
 62
     0
 10
72.15721905596911
 20
52.97300826140182
 30
0.0
  0
POINT
  5
189D506
  8
DEFPOINTS
 62
     0
 10
122.1572190559691
 20
52.97275274476723
 30
0.0
  0
POINT
  5
189D507
  8
DEFPOINTS
 62
     0
 10
122.1572190559691
 20
23.85128300896858
 30
0.0
  0
ENDBLK
  8
0
  0
BLOCK
  8
0
  2
*D12
 70
     1
 10
0.0
 20
0.0
 30
0.0
  0
LINE
  5
189D492
  8
DIM
 62
     0
 10
27.18782992697078
 20
147.6959709630282
 30
0.0
 11
27.18782992697078
 21
135.7155582679552
 31
0.0
  0
LINE
  5
189D493
  8
DIM
 62
     0
 10
41.68782992697078
 20
147.6959709630282
 30
0.0
 11
41.68782992697078
 21
135.7155582679552
 31
0.0
  0
LINE
  5
189D494
  8
DIM
 62
     0
 10
30.18782992697078
 20
137.7155582679552
 30
0.0
 11
38.68782992697078
 21
137.7155582679552
 31
0.0
  0
INSERT
  5
189D495
  8
DIM
 62
     0
  2
_OPEN
 10
27.18782992697078
 20
137.7155582679552
 30
0.0
 41
3.0
 42
3.0
 43
3.0
 50
180.0
  0
INSERT
  5
189D496
  8
DIM
 62
     0
  2
_OPEN
 10
41.68782992697078
 20
137.7155582679552
 30
0.0
 41
3.0
 42
3.0
 43
3.0
  0
TEXT
  5
189D497
  8
DIM
  6
CONTINUOUS
 62
     0
 10
30.70449659363744
 20
139.7155582679552
 30
0.0
 40
4.0
  1
145
 41
0.8
  0
POINT
  5
189D498
  8
DEFPOINTS
 62
     0
 10
27.18782992697078
 20
149.6959709630282
 30
0.0
  0
POINT
  5
189D499
  8
DEFPOINTS
 62
     0
 10
41.68782992697078
 20
149.6959709630282
 30
0.0
  0
POINT
  5
189D49A
  8
DEFPOINTS
 62
     0
 10
41.68782992697078
 20
137.7155582679552
 30
0.0
  0
ENDBLK
  8
0
  0
BLOCK
  8
0
  2
*D13
 70
     1
 10
0.0
 20
0.0
 30
0.0
  0
LINE
  5
189D48A
  8
DIM
 62
     0
 10
311.6878299269708
 20
147.6959709630282
 30
0.0
 11
311.6878299269708
 21
135.7155582679552
 31
0.0
  0
LINE
  5
189D48B
  8
DIM
 62
     0
 10
44.68782992697078
 20
137.7155582679552
 30
0.0
 11
308.6878299269708
 21
137.7155582679552
 31
0.0
  0
INSERT
  5
189D48C
  8
DIM
 62
     0
  2
_OPEN
 10
41.68782992697078
 20
137.7155582679552
 30
0.0
 41
3.0
 42
3.0
 43
3.0
 50
180.0
  0
INSERT
  5
189D48D
  8
DIM
 62
     0
  2
_OPEN
 10
311.6878299269708
 20
137.7155582679552
 30
0.0
 41
3.0
 42
3.0
 43
3.0
  0
TEXT
  5
189D48E
  8
DIM
  6
CONTINUOUS
 62
     0
 10
162.5544965936375
 20
139.7155582679552
 30
0.0
 40
4.0
  1
6×450＝2700
 41
0.8
  0
POINT
  5
189D48F
  8
DEFPOINTS
 62
     0
 10
41.68782992697078
 20
149.6959709630282
 30
0.0
  0
POINT
  5
189D490
  8
DEFPOINTS
 62
     0
 10
311.6878299269708
 20
149.6959709630282
 30
0.0
  0
POINT
  5
189D491
  8
DEFPOINTS
 62
     0
 10
311.6878299269708
 20
137.7155582679552
 30
0.0
  0
ENDBLK
  8
0
  0
BLOCK
  8
0
  2
*D14
 70
     1
 10
0.0
 20
0.0
 30
0.0
  0
LINE
  5
189D49B
  8
DIM
 62
     0
 10
326.1878299269708
 20
147.6959709630282
 30
0.0
 11
326.1878299269708
 21
135.7155582679552
 31
0.0
  0
LINE
  5
189D49C
  8
DIM
 62
     0
 10
314.6878299269708
 20
137.7155582679552
 30
0.0
 11
323.1878299269708
 21
137.7155582679552
 31
0.0
  0
INSERT
  5
189D49D
  8
DIM
 62
     0
  2
_OPEN
 10
311.6878299269708
 20
137.7155582679552
 30
0.0
 41
3.0
 42
3.0
 43
3.0
 50
180.0
  0
INSERT
  5
189D49E
  8
DIM
 62
     0
  2
_OPEN
 10
326.1878299269708
 20
137.7155582679552
 30
0.0
 41
3.0
 42
3.0
 43
3.0
  0
TEXT
  5
189D49F
  8
DIM
  6
CONTINUOUS
 62
     0
 10
315.2044965936374
 20
139.7155582679552
 30
0.0
 40
4.0
  1
145
 41
0.8
  0
POINT
  5
189D4A0
  8
DEFPOINTS
 62
     0
 10
311.6878299269708
 20
149.6959709630282
 30
0.0
  0
POINT
  5
189D4A1
  8
DEFPOINTS
 62
     0
 10
326.1878299269708
 20
149.6959709630282
 30
0.0
  0
POINT
  5
189D4A2
  8
DEFPOINTS
 62
     0
 10
326.1878299269708
 20
137.7155582679552
 30
0.0
  0
ENDBLK
  8
0
  0
BLOCK
  8
0
  2
*D15
 70
     1
 10
0.0
 20
0.0
 30
0.0
  0
LINE
  5
189D4AC
  8
DIM
 62
     0
 10
27.18782992697078
 20
147.6959709630282
 30
0.0
 11
27.18782992697078
 21
126.6694509314991
 31
0.0
  0
LINE
  5
189D4AD
  8
DIM
 62
     0
 10
326.1878299269708
 20
147.6959709630282
 30
0.0
 11
326.1878299269708
 21
126.6694509314991
 31
0.0
  0
LINE
  5
189D4AE
  8
DIM
 62
     0
 10
30.18782992697078
 20
128.6694509314991
 30
0.0
 11
323.1878299269708
 21
128.6694509314991
 31
0.0
  0
INSERT
  5
189D4AF
  8
DIM
 62
     0
  2
_OPEN
 10
27.18782992697078
 20
128.6694509314991
 30
0.0
 41
3.0
 42
3.0
 43
3.0
 50
180.0
  0
INSERT
  5
189D4B0
  8
DIM
 62
     0
  2
_OPEN
 10
326.1878299269708
 20
128.6694509314991
 30
0.0
 41
3.0
 42
3.0
 43
3.0
  0
TEXT
  5
189D4B1
  8
DIM
  6
CONTINUOUS
 62
     0
 10
171.0878299269708
 20
130.6694509314991
 30
0.0
 40
4.0
  1
2990
 41
0.8
  0
POINT
  5
189D4B2
  8
DEFPOINTS
 62
     0
 10
27.18782992697078
 20
149.6959709630282
 30
0.0
  0
POINT
  5
189D4B3
  8
DEFPOINTS
 62
     0
 10
326.1878299269708
 20
149.6959709630282
 30
0.0
  0
POINT
  5
189D4B4
  8
DEFPOINTS
 62
     0
 10
326.1878299269708
 20
128.6694509314991
 30
0.0
  0
ENDBLK
  8
0
  0
BLOCK
  8
0
  2
_CLOSED
 70
     0
 10
0.0
 20
0.0
 30
0.0
  0
LINE
  5
189D2B2
  8
0
  6
BYBLOCK
 62
     0
 10
-1.0
 20
0.1666666666666667
 30
0.0
 11
0.0
 21
0.0
 31
0.0
  0
LINE
  5
189D2B3
  8
0
  6
BYBLOCK
 62
     0
 10
0.0
 20
0.0
 30
0.0
 11
-1.0
 21
-0.1666666666666667
 31
0.0
  0
LINE
  5
189D2B4
  8
0
  6
BYBLOCK
 62
     0
 10
-1.0
 20
0.1666666666666667
 30
0.0
 11
-1.0
 21
-0.1666666666666667
 31
0.0
  0
LINE
  5
189D2B5
  8
0
  6
BYBLOCK
 62
     0
 10
0.0
 20
0.0
 30
0.0
 11
-1.0
 21
0.0
 31
0.0
  0
ENDBLK
  8
0
  0
BLOCK
  8
0
  2
*X17
 70
     1
 10
0.0
 20
0.0
 30
0.0
  0
INSERT
  5
189D590
  8
DIM
  2
_CLOSED
 10
94.67761183846642
 20
197.3486715438905
 30
0.0
 41
3.0
 42
3.0
 43
3.0
  0
LINE
  5
189D591
  8
DIM
 10
91.67761183846642
 20
197.3486715438905
 30
0.0
 11
86.94548863748628
 21
197.3486715438905
 31
0.0
  0
ENDBLK
  8
0
  0
BLOCK
  8
0
  2
*X18
 70
     1
 10
0.0
 20
0.0
 30
0.0
  0
INSERT
  5
189D593
  8
DIM
  2
_CLOSED
 10
94.67761183846642
 20
181.7123019654954
 30
0.0
 41
3.0
 42
3.0
 43
3.0
  0
LINE
  5
189D594
  8
DIM
 10
91.67761183846642
 20
181.7123019654954
 30
0.0
 11
86.94548863748628
 21
181.7123019654954
 31
0.0
  0
ENDBLK
  8
0
  0
ENDSEC
  0
SECTION
  2
ENTITIES
  0
INSERT
  5
189C7F1
  8
WAKU
  2
WK_A3Y0
 10
0.0
 20
0.0
 30
0.0
  0
INSERT
  5
189C7F9
  8
WAKU
 66
     1
  2
DIMSTAT
 10
0.0
 20
0.0
 30
0.0
  0
ATTRIB
  5
189C7FA
  8
0
 10
0.0
 20
1.0
 30
0.0
 40
1.0
  1
1.000
 41
0.7
 51
15.0
  2
DIMEXT
 70
     1
  0
ATTRIB
  5
189C7FB
  8
0
 10
0.0
 20
0.0
 30
0.0
 40
1.0
  1
10.000 
 41
0.7
 51
15.0
  2
DIMBAL
 70
     1
  0
ATTRIB
  5
189C7FC
  8
0
 10
-0.0444762094363156
 20
-0.911649989012119
 30
0.0
 40
1.0
  1
4.000 
 41
0.7
 51
15.0
 72
     1
 11
1.507190457230351
 21
-0.911649989012119
 31
0.0
  2
SYMSCL
 70
     1
  0
SEQEND
  5
189C7FD
  8
WAKU
  0
INSERT
  5
189C801
  8
WAKU
 66
     1
  2
DIMSTAT2
 10
0.0
 20
0.0
 30
0.0
  0
ATTRIB
  5
189C802
  8
0
 10
0.0
 20
0.0
 30
0.0
 40
1.0
  1
(1.280 1.920 0.000 0.000 0.000 0.000 0.000 3.200 12.000 0 )
 41
0.7
  2
DIMSIZ
 70
     1
  0
SEQEND
  5
189C803
  8
WAKU
  0
LINE
  5
189C83F
  8
CEN
 10
97.15721905596911
 20
110.4780609541733
 30
0.0
 11
97.15721905596911
 21
47.2176676268285
 31
0.0
  0
ARC
  5
189C8FD
  8
2
 10
97.15721905596911
 20
76.93195306451148
 30
0.0
 40
25.0
 50
0.0
 51
180.0
  0
ARC
  5
189C8FE
  8
2
 10
97.15721905596911
 20
76.93195306451148
 30
0.0
 40
16.0
 50
0.0
 51
180.0
  0
LINE
  5
189C8FF
  8
2
 10
72.15721905596911
 20
76.93195306451148
 30
0.0
 11
72.15721905596911
 21
52.97300826140182
 31
0.0
  0
LINE
  5
189C900
  8
2
 10
122.1572190559691
 20
76.93195306451148
 30
0.0
 11
122.1572190559691
 21
52.97275274476723
 31
0.0
  0
POINT
  5
189C901
  8
THN
 10
97.15721905596911
 20
40.46428525328065
 30
0.0
  0
LINE
  5
189C90A
  8
2
 10
81.15721905596911
 20
76.93195306451148
 30
0.0
 11
80.86735740619156
 21
63.35074630944814
 31
0.0
  0
LINE
  5
189C90B
  8
2
 10
113.1572190559691
 20
76.93195306451148
 30
0.0
 11
113.1572190559691
 21
63.34101189267899
 31
0.0
  0
LINE
  5
189C912
  8
2
 10
81.90709776371267
 20
62.330207360733
 30
0.0
 11
97.15721905596911
 21
62.94021221242326
 31
0.0
  0
LINE
  5
189C913
  8
2
 10
97.15721905596911
 20
62.94021221242326
 30
0.0
 11
112.1172510176202
 21
62.34181093395721
 31
0.0
  0
LINE
  5
189C914
  8
2
 10
73.19717645557068
 20
51.97380687718687
 30
0.0
 11
97.15721905596908
 21
52.93195306451147
 31
0.0
  0
LINE
  5
189C915
  8
2
 10
97.15721905596908
 20
52.93195306451147
 30
0.0
 11
121.1172510176202
 21
51.97355178604544
 31
0.0
  0
ARC
  5
189C916
  8
2
 10
73.15721905596911
 20
52.97300826140182
 30
0.0
 40
1.0
 50
180.0
 51
272.29
  0
ARC
  5
189C917
  8
2
 10
121.1572190559691
 20
52.97275274476723
 30
0.0
 40
1.0
 50
267.7093899573615
 51
0.0
  0
ARC
  5
189C918
  8
2
 10
81.8671297253638
 20
63.32940831945479
 30
0.0
 40
1.0
 50
178.7773304358738
 51
272.2906100426385
  0
ARC
  5
189C919
  8
2
 10
112.1572190559691
 20
63.34101189267899
 30
0.0
 40
1.0
 50
267.7093899573615
 51
0.0
  0
LINE
  5
189C922
  8
2
 10
84.65721905596911
 20
98.58258815912245
 30
0.0
 11
84.65721905596911
 21
86.91944524223058
 31
0.0
  0
LINE
  5
189C923
  8
2
 10
109.6572190559691
 20
98.58258815912244
 30
0.0
 11
109.6572190559691
 21
86.91944524223057
 31
0.0
  0
LINE
  5
189C929
  8
2
 10
87.15721905596911
 20
62.54021221242326
 30
0.0
 11
87.15721905596911
 21
52.5320597073483
 31
0.0
  0
LINE
  5
189C92A
  8
2
 10
107.1572190559691
 20
62.54021221242326
 30
0.0
 11
107.1572190559691
 21
52.53195306451148
 31
0.0
  0
LINE
  5
189C92C
  8
2
 10
194.8697334656929
 20
71.24524658808593
 30
0.0
 11
219.8697334656929
 21
71.24524658808593
 31
0.0
  0
LINE
  5
189C92D
  8
2
 10
219.8697334656929
 20
71.24524658808593
 30
0.0
 11
219.8697334656929
 21
74.24524658808593
 31
0.0
  0
LINE
  5
189C92E
  8
2
 10
219.8697334656929
 20
74.24524658808593
 30
0.0
 11
194.8697334656929
 21
74.24524658808593
 31
0.0
  0
LINE
  5
189C92F
  8
2
 10
194.8697334656929
 20
74.24524658808593
 30
0.0
 11
194.8697334656929
 21
71.24524658808593
 31
0.0
  0
LINE
  5
189C930
  8
CEN
 10
207.3697334656929
 20
71.24524658808593
 30
0.0
 11
207.3697334656929
 21
67.06546011254318
 31
0.0
  0
LINE
  5
189C931
  8
CEN
 10
207.3697334656929
 20
71.24524658808593
 30
0.0
 11
207.3697334656929
 21
78.15098067487304
 31
0.0
  0
LINE
  5
189C937
  8
2
 10
203.3697334656929
 20
74.24524658808593
 30
0.0
 11
203.3697334656929
 21
71.24524658808593
 31
0.0
  0
LINE
  5
189C938
  8
2
 10
211.3697334656929
 20
74.24524658808593
 30
0.0
 11
211.3697334656929
 21
71.24524658808593
 31
0.0
  0
TEXT
  5
189C98C
  8
DIM
  6
CONTINUOUS
 62
     2
 10
204.7030667990262
 20
89.93885912946291
 30
0.0
 40
4.0
  1
25
 41
0.8
  0
POINT
  5
189C98D
  8
DEFPOINTS
  6
BYBLOCK
 62
     0
 10
194.8697334656929
 20
74.24524658808593
 30
0.0
  0
POINT
  5
189C98E
  8
DEFPOINTS
  6
BYBLOCK
 62
     0
 10
219.8697334656929
 20
74.24524658808593
 30
0.0
  0
POINT
  5
189C998
  8
DEFPOINTS
  6
BYBLOCK
 62
     0
 10
203.3697334656929
 20
74.24524658808593
 30
0.0
  0
POINT
  5
189C999
  8
DEFPOINTS
  6
BYBLOCK
 62
     0
 10
211.3697334656929
 20
74.24524658808593
 30
0.0
  0
LINE
  5
189C9B9
  8
DIM
 62
     2
 10
194.8697334656929
 20
76.24524658808593
 30
0.0
 11
194.8697334656929
 21
90.8367437994226
 31
0.0
  0
LINE
  5
189C9BA
  8
DIM
 62
     2
 10
219.8697334656929
 20
76.24524658808593
 30
0.0
 11
219.8697334656929
 21
90.8367437994226
 31
0.0
  0
LINE
  5
189C9BB
  8
DIM
 62
     2
 10
197.8697334656929
 20
88.8367437994226
 30
0.0
 11
216.8697334656929
 21
88.8367437994226
 31
0.0
  0
INSERT
  5
189C9BC
  8
DIM
 62
     2
  2
_OPEN
 10
194.8697334656929
 20
88.8367437994226
 30
0.0
 41
3.0
 42
3.0
 43
3.0
 50
180.0
  0
INSERT
  5
189C9BD
  8
DIM
 62
     2
  2
_OPEN
 10
219.8697334656929
 20
88.8367437994226
 30
0.0
 41
3.0
 42
3.0
 43
3.0
  0
POINT
  5
189C9BF
  8
DEFPOINTS
  6
BYBLOCK
 62
     0
 10
194.8697334656929
 20
74.24524658808593
 30
0.0
  0
POINT
  5
189C9C0
  8
DEFPOINTS
  6
BYBLOCK
 62
     0
 10
219.8697334656929
 20
74.24524658808593
 30
0.0
  0
POINT
  5
189C9CA
  8
DEFPOINTS
  6
BYBLOCK
 62
     0
 10
203.3697334656929
 20
74.24524658808593
 30
0.0
  0
POINT
  5
189C9CB
  8
DEFPOINTS
  6
BYBLOCK
 62
     0
 10
211.3697334656929
 20
74.24524658808593
 30
0.0
  0
LINE
  5
189C9E3
  8
DIM
 62
     2
 10
221.8697334656929
 20
74.24524658808593
 30
0.0
 11
232.214062650208
 21
74.24524658808593
 31
0.0
  0
LINE
  5
189C9E4
  8
DIM
 62
     2
 10
221.8697334656929
 20
71.24524658808593
 30
0.0
 11
232.214062650208
 21
71.24524658808593
 31
0.0
  0
LINE
  5
189C9E5
  8
DIM
 62
     2
 10
230.214062650208
 20
77.24524658808593
 30
0.0
 11
230.214062650208
 21
80.24524658808593
 31
0.0
  0
LINE
  5
189C9E6
  8
DIM
 62
     2
 10
230.214062650208
 20
68.24524658808593
 30
0.0
 11
230.214062650208
 21
65.24524658808593
 31
0.0
  0
LINE
  5
189C9E7
  8
DIM
 62
     2
 10
230.214062650208
 20
74.24524658808593
 30
0.0
 11
230.214062650208
 21
71.24524658808593
 31
0.0
  0
INSERT
  5
189C9E8
  8
DIM
 62
     2
  2
_OPEN
 10
230.214062650208
 20
74.24524658808593
 30
0.0
 41
3.0
 42
3.0
 43
3.0
 50
270.0
  0
TEXT
  5
189C9EA
  8
DIM
  6
CONTINUOUS
 62
     2
 10
229.1067239317606
 20
65.3339848860457
 30
0.0
 40
4.0
  1
3
 50
90.0
 41
0.8
  0
POINT
  5
189C9EB
  8
DEFPOINTS
  6
BYBLOCK
 62
     0
 10
219.8697334656929
 20
74.24524658808593
 30
0.0
  0
POINT
  5
189C9EC
  8
DEFPOINTS
  6
BYBLOCK
 62
     0
 10
219.8697334656929
 20
71.24524658808593
 30
0.0
  0
LINE
  5
189C9F2
  8
DIM
 62
     2
 10
229.714062650208
 20
68.24524658808593
 30
0.0
 11
230.214062650208
 21
71.24524658808593
 31
0.0
  0
LINE
  5
189C9F3
  8
DIM
 62
     2
 10
230.214062650208
 20
71.24524658808593
 30
0.0
 11
230.714062650208
 21
68.24524658808593
 31
0.0
  0
LINE
  5
189C9F4
  8
DIM
 62
     2
 10
230.214062650208
 20
71.24524658808593
 30
0.0
 11
230.214062650208
 21
68.24524658808593
 31
0.0
  0
LINE
  5
189C9F5
  8
DIM
 62
     2
 10
215.3739795126883
 20
71.24524658808593
 30
0.0
 11
216.8739795126883
 21
68.64717037673262
 31
0.0
  0
LINE
  5
189C9F6
  8
DIM
 62
     2
 10
215.3739795126883
 20
71.24524658808593
 30
0.0
 11
217.3069922145804
 21
68.89717037673259
 31
0.0
  0
LINE
  5
189C9F7
  8
DIM
 62
     2
 10
216.4409668107961
 20
68.39717037673262
 30
0.0
 11
215.3739795126883
 21
71.24524658808593
 31
0.0
  0
LINE
  5
189C9F8
  8
DIM
 62
     2
 10
216.8739795126883
 20
68.64717037673262
 30
0.0
 11
218.3739795126883
 21
66.0490941653793
 31
0.0
  0
LINE
  5
189C9F9
  8
DIM
 10
218.3739795126883
 20
66.0490941653793
 30
0.0
 11
220.1321394257864
 21
63.00387186806252
 31
0.0
  0
CIRCLE
  5
189C9FB
  8
DIM
 10
222.6321394257864
 20
58.67374484914033
 30
0.0
 40
5.0
  0
TEXT
  5
189C9FD
  8
DIM
 10
221.4178194739552
 20
56.72994805574957
 30
0.0
 40
3.5
  1
2
 41
0.8
  0
DIMENSION
  5
189CA0A
  8
DIM
  2
*D5
 10
107.1572190559691
 20
33.07481062227268
 30
0.0
 11
97.15721905596911
 21
37.07481062227268
 31
0.0
 70
    32
  1
φ20
 13
87.15721905596911
 23
52.5320597073483
 33
0.0
 14
107.1572190559691
 24
52.53195306451148
 34
0.0
  0
LINE
  5
189CA0B
  8
THN
 10
72.15721905596911
 20
59.00340085453638
 30
0.0
 11
72.15721905596911
 21
10.42630284761617
 31
0.0
  0
LINE
  5
189CA0D
  8
THN
 10
122.1572190559691
 20
10.42630284761617
 30
0.0
 11
122.1572190559691
 21
54.26417206741291
 31
0.0
  0
LINE
  5
189CA0E
  8
THN
 10
97.15721905596911
 20
40.46428525328065
 30
0.0
 11
125.8016869030598
 21
40.46428525328065
 31
0.0
  0
LINE
  5
189CA0F
  8
THN
 10
97.15721905596911
 20
40.46428525328065
 30
0.0
 11
66.4656049077762
 21
40.46428525328065
 31
0.0
  0
DIMENSION
  5
189CA1C
  8
DIM
  2
*D6
 10
141.2854936798753
 20
51.9319530645115
 30
0.0
 11
137.2854936798753
 21
76.93195306451149
 31
0.0
 70
    32
  1
50
 13
99.74137769234312
 23
101.9319530645115
 33
0.0
 14
122.1572190559691
 24
51.93195306451148
 34
0.0
 50
90.0
  0
LINE
  5
189CA1D
  8
THN
 10
97.15721905596911
 20
90.46428525328065
 30
0.0
 11
66.45555373412708
 21
90.46428525328065
 31
0.0
  0
DIMENSION
  5
189CA40
  8
DIM
  2
*D7
 10
109.6572190559691
 20
116.8581598157038
 30
0.0
 11
97.15721905596911
 21
120.8581598157038
 31
0.0
 70
    32
  1
φ25
 13
84.65721905596911
 23
98.58258815912245
 33
0.0
 14
109.6572190559691
 24
98.58258815912245
 34
0.0
  0
DIMENSION
  5
189CA4F
  8
DIM
  2
*D8
 10
73.64359133764705
 20
85.37584931525394
 30
0.0
 11
79.23257375077029
 21
87.6240491002436
 31
0.0
 70
    33
  1
(9)
 13
82.42019036302906
 23
83.16252168249987
 33
0.0
 14
73.9379285367461
 24
86.1982655880518
 34
0.0
  0
LINE
  5
189CAA1
  8
DIM
 62
     2
 10
80.99855304357087
 20
62.07748486108508
 30
0.0
 11
75.62635611822101
 21
61.27492714298916
 31
0.0
  0
LINE
  5
189CAA2
  8
DIM
 62
     2
 10
82.48479513132068
 20
52.12881077309776
 30
0.0
 11
77.11259820597083
 21
51.32625305500184
 31
0.0
  0
LINE
  5
189CAA3
  8
DIM
 62
     2
 10
78.04765921108095
 20
58.60335619455695
 30
0.0
 11
78.64739327650058
 21
54.58882935165417
 31
0.0
  0
INSERT
  5
189CAA4
  8
DIM
 62
     2
  2
_OPEN
 10
77.60440519991586
 20
61.57042981709922
 30
0.0
 41
3.0
 42
3.0
 43
3.0
 50
98.49663566086471
  0
INSERT
  5
189CAA5
  8
DIM
 62
     2
  2
_OPEN
 10
79.09064728766567
 20
51.6217557291119
 30
0.0
 41
3.0
 42
3.0
 43
3.0
 50
278.4966356608647
  0
TEXT
  5
189CAA6
  8
DIM
  6
CONTINUOUS
 62
     2
 10
77.87920831316569
 20
52.37007767227619
 30
0.0
 40
4.0
  1
(10)
 50
98.49663566086471
 41
0.8
  0
POINT
  5
189CAA7
  8
DEFPOINTS
  6
BYBLOCK
 62
     0
 10
82.9766021252657
 20
62.37298753519515
 30
0.0
  0
POINT
  5
189CAA8
  8
DEFPOINTS
  6
BYBLOCK
 62
     0
 10
84.46284421301552
 20
52.42431344720782
 30
0.0
  0
POINT
  5
189CAA9
  8
DEFPOINTS
  6
BYBLOCK
 62
     0
 10
79.09064728766567
 20
51.6217557291119
 30
0.0
  0
LINE
  5
189CAB2
  8
DIM
 62
     2
 10
97.15721905596813
 20
76.93195306451351
 30
0.0
 11
116.8668095309985
 21
86.70600254804859
 31
0.0
  0
INSERT
  5
189CAB3
  8
DIM
 62
     2
  2
_OPEN
 10
119.5544809594098
 20
88.03882747762559
 30
0.0
 41
3.0
 42
3.0
 43
3.0
 50
26.37696130142616
  0
TEXT
  5
189CAB4
  8
DIM
  6
CONTINUOUS
 62
     2
 10
98.95290359136064
 20
79.48277770078636
 30
0.0
 40
4.0
  1
(Ｒ25)
 50
26.37696130142616
 41
0.8
  0
POINT
  5
189CAB5
  8
DEFPOINTS
  6
BYBLOCK
 62
     0
 10
119.5544809594098
 20
88.03882747762559
 30
0.0
  0
POINT
  5
189CAB6
  8
DEFPOINTS
  6
BYBLOCK
 62
     0
 10
97.15721905596813
 20
76.93195306451351
 30
0.0
  0
TEXT
  5
189CAB8
  8
DIM
 10
291.617305808529
 20
30.79693782135507
 30
0.0
 40
5.0
  1
カーストッパー　CSD-0055 3000L
 41
0.8
  0
TEXT
  5
189CAB9
  8
DIM
 10
298.7874382443983
 20
19.56538702759497
 30
0.0
 40
3.2
  1
2021.8.20
 41
0.8
  0
LINE
  5
189CABB
  8
WAKU
 10
269.4999999999999
 20
50.46560095650418
 30
0.0
 11
269.4999999999999
 21
60.06560095650417
 31
0.0
  0
LINE
  5
189CABC
  8
WAKU
 10
269.4999999999999
 20
60.06560095650417
 30
0.0
 11
389.9999999999999
 21
60.06560095650417
 31
0.0
  0
LINE
  5
189CABD
  8
WAKU
 10
269.4999999999999
 20
60.06560095650417
 30
0.0
 11
269.4999999999999
 21
69.06560095650417
 31
0.0
  0
LINE
  5
189CABE
  8
WAKU
 10
269.4999999999999
 20
69.06560095650417
 30
0.0
 11
389.9999999999999
 21
69.06560095650417
 31
0.0
  0
LINE
  5
189CABF
  8
WAKU
 10
285.9999999999999
 20
50.46560095650418
 30
0.0
 11
285.9999999999999
 21
69.06560095650417
 31
0.0
  0
LINE
  5
189CAC0
  8
WAKU
 10
329.8
 20
50.46560095650418
 30
0.0
 11
329.8
 21
69.06560095650417
 31
0.0
  0
LINE
  5
189CAC2
  8
WAKU
 10
362.8
 20
50.46560095650418
 30
0.0
 11
362.8
 21
69.06560095650417
 31
0.0
  0
LINE
  5
189CAC3
  8
WAKU
 10
345.8
 20
50.46560095650418
 30
0.0
 11
345.8
 21
69.06560095650417
 31
0.0
  0
TEXT
  5
189CAC4
  8
DIM
 10
274.5222305841228
 20
52.62324542773231
 30
0.0
 40
5.0
  1
１
 41
0.8
  0
TEXT
  5
189CAC5
  8
DIM
 10
274.5222305841228
 20
62.22642044068894
 30
0.0
 40
5.0
  1
２
 41
0.8
  0
TEXT
  5
189CAC6
  8
DIM
 10
288.532950255882
 20
52.62324542773231
 30
0.0
 40
5.0
  1
ゴ　ム
 41
0.8
  0
TEXT
  5
189CAC7
  8
DIM
 10
288.532950255882
 20
62.22642044068894
 30
0.0
 40
5.0
  1
当　板
 41
0.8
  0
TEXT
  5
189CACA
  8
DIM
 10
365.1798273801699
 20
52.62324542773231
 30
0.0
 40
3.2
  1
Hs 75
 41
0.8
  0
TEXT
  5
189CACC
  8
DIM
 10
377.5974766843947
 20
54.2695044162862
 30
0.0
 40
2.5
  1
±5
 41
0.8
  0
TEXT
  5
189CACD
  8
DIM
 10
347.5977476120731
 20
52.62324542773231
 30
0.0
 40
3.2
  1
合成ゴム
 41
0.8
  0
TEXT
  5
189CACE
  8
DIM
 10
347.5977476120731
 20
61.67766744450424
 30
0.0
 40
3.2
  1
SS400
 41
0.8
  0
TEXT
  5
189CACF
  8
DIM
 10
365.1798273801699
 20
61.67766744450424
 30
0.0
 40
3.2
  1
全面黒塗装
 41
0.8
  0
CIRCLE
  5
189CAD0
  8
DIM
 10
70.45086672070727
 20
105.2122998122568
 30
0.0
 40
5.0
  0
LINE
  5
189CAD1
  8
DIM
 10
74.70902663380537
 20
97.83695049601785
 30
0.0
 11
72.95086672070727
 21
100.8821727933346
 31
0.0
  0
LINE
  5
189CAD2
  8
DIM
 62
     2
 10
76.20902663380537
 20
95.23887428466453
 30
0.0
 11
74.70902663380537
 21
97.83695049601785
 31
0.0
  0
LINE
  5
189CAD3
  8
DIM
 62
     2
 10
76.64203933569758
 20
95.48887428466453
 30
0.0
 11
77.70902663380537
 21
92.64079807331122
 31
0.0
  0
LINE
  5
189CAD4
  8
DIM
 62
     2
 10
77.70902663380537
 20
92.64079807331122
 30
0.0
 11
75.77601393191318
 21
94.98887428466456
 31
0.0
  0
LINE
  5
189CAD5
  8
DIM
 62
     2
 10
77.70902663380537
 20
92.64079807331122
 30
0.0
 11
76.20902663380537
 21
95.23887428466453
 31
0.0
  0
TEXT
  5
189CAD6
  8
DIM
 10
68.8173565902598
 20
103.6997162891914
 30
0.0
 40
3.5
  1
１
 41
0.8
  0
LINE
  5
189CBA9
  8
THN
 10
35.53419796566945
 20
154.9581280517933
 30
0.0
 11
36.73419796566944
 21
154.9581280517933
 31
0.0
  0
POINT
  5
189CBAA
  8
THN
 10
36.13419796566944
 20
154.9581280517933
 30
0.0
  0
POINT
  5
189CBAB
  8
THN
 10
81.13419796566944
 20
154.9581280517933
 30
0.0
  0
LINE
  5
189CBAC
  8
THN
 10
80.53419796566945
 20
154.9581280517933
 30
0.0
 11
81.73419796566944
 21
154.9581280517933
 31
0.0
  0
POINT
  5
189CBB5
  8
THN
 10
126.1341979656694
 20
154.9581280517933
 30
0.0
  0
LINE
  5
189CBB6
  8
THN
 10
125.5341979656694
 20
154.9581280517933
 30
0.0
 11
126.7341979656694
 21
154.9581280517933
 31
0.0
  0
POINT
  5
189CBBF
  8
THN
 10
171.1341979656694
 20
154.9581280517933
 30
0.0
  0
LINE
  5
189CBC0
  8
THN
 10
170.5341979656694
 20
154.9581280517933
 30
0.0
 11
171.7341979656694
 21
154.9581280517933
 31
0.0
  0
POINT
  5
189CBC9
  8
THN
 10
216.1341979656694
 20
154.9581280517933
 30
0.0
  0
LINE
  5
189CBCA
  8
THN
 10
215.5341979656694
 20
154.9581280517933
 30
0.0
 11
216.7341979656694
 21
154.9581280517933
 31
0.0
  0
POINT
  5
189CBD3
  8
THN
 10
261.1341979656694
 20
154.9581280517933
 30
0.0
  0
LINE
  5
189CBD4
  8
THN
 10
260.5341979656694
 20
154.9581280517933
 30
0.0
 11
261.7341979656695
 21
154.9581280517933
 31
0.0
  0
POINT
  5
189CBDD
  8
THN
 10
306.1341979656694
 20
154.9581280517933
 30
0.0
  0
LINE
  5
189CBDE
  8
THN
 10
305.5341979656694
 20
154.9581280517933
 30
0.0
 11
306.7341979656695
 21
154.9581280517933
 31
0.0
  0
LINE
  5
189CC50
  8
CEN
 10
207.3697334656929
 20
67.06546011254318
 30
0.0
 11
207.3697334656929
 21
42.94139919059091
 31
0.0
  0
ARC
  5
189CC51
  8
2
 10
207.3697334656929
 20
49.90475959934327
 30
0.0
 40
4.0
 50
180.0
 51
0.0
  0
ARC
  5
189CC52
  8
2
 10
207.3697334656929
 20
61.90475959934372
 30
0.0
 40
4.0
 50
0.0
 51
180.0
  0
LINE
  5
189CC53
  8
2
 10
203.3697334656928
 20
49.90475959934327
 30
0.0
 11
203.3697334656928
 21
61.90475959934372
 31
0.0
  0
LINE
  5
189CC54
  8
2
 10
211.3697334656929
 20
61.90475959934372
 30
0.0
 11
211.3697334656929
 21
49.90475959934327
 31
0.0
  0
POINT
  5
189CC55
  8
THN
 10
178.8521686270337
 20
37.3111488125852
 30
0.0
  0
LINE
  5
189CC56
  8
CEN
 10
207.3697334656929
 20
55.90475959934349
 30
0.0
 11
200.800331165598
 21
55.90475959934349
 31
0.0
  0
LINE
  5
189CC57
  8
CEN
 10
207.3697334656929
 20
55.90475959934349
 30
0.0
 11
213.4624689737382
 21
55.90475959934349
 31
0.0
  0
DIMENSION
  5
189CC64
  8
DIM
  2
*D9
 10
195.5618821488064
 20
65.90475959934375
 30
0.0
 11
191.5618821488064
 21
55.90475959934345
 31
0.0
 70
    32
  1
20
 13
207.3697334656929
 23
45.90475959934327
 33
0.0
 14
207.3697334656929
 24
65.90475959934372
 34
0.0
 50
90.0
  0
DIMENSION
  5
189CC73
  8
DIM
  2
*D10
 10
211.3697334656929
 20
35.10400323819351
 30
0.0
 11
207.3697334656929
 21
39.10400323819351
 31
0.0
 70
    32
  1
8
 13
203.3697334656929
 23
49.90475959934323
 33
0.0
 14
211.3697334656929
 24
49.90475959934327
 34
0.0
  0
TEXT
  5
189CC9C
  8
DIM
 10
336.3040854897181
 20
61.92772122069962
 30
0.0
 40
3.5
  1
１
 41
0.8
  0
TEXT
  5
189CC9D
  8
DIM
 10
336.3040854897181
 20
53.41581618987541
 30
0.0
 40
3.5
  1
１
 41
0.8
  0
TEXT
  5
189CCD7
  8
DIM
 10
184.4032201050952
 20
2.769551323399924
 30
0.0
 40
3.5
  1
( )寸法は参考値を示す。保証値ではありません。
 41
0.8
  0
TEXT
  5
189CD21
  8
DIM
 10
363.2447005438396
 20
19.44686450729193
 30
0.0
 40
3.5
  1
N.T.S
 41
0.8
  0
DIMENSION
  5
189CE25
  8
DIM
  2
*D11
 10
122.1572190559691
 20
23.85128300896858
 30
0.0
 11
97.15721905596911
 21
27.85128300896858
 31
0.0
 70
    32
  1
50
 13
72.15721905596911
 23
52.97300826140182
 33
0.0
 14
122.1572190559691
 24
52.97275274476723
 34
0.0
  0
LINE
  5
189D1AE
  8
CEN
 10
21.68094349159674
 20
189.1245427604035
 30
0.0
 11
340.2936871589175
 21
189.1245427604035
 31
0.0
  0
LINE
  5
189D1AF
  8
2
 10
27.18782992697084
 20
189.1245427604035
 30
0.0
 11
27.18782992697084
 21
186.6245427604035
 31
0.0
  0
LINE
  5
189D1B0
  8
2
 10
27.18782992697084
 20
186.6245427604035
 30
0.0
 11
327.1878299269708
 21
186.6245427604035
 31
0.0
  0
LINE
  5
189D1B1
  8
2
 10
327.1878299269708
 20
186.6245427604035
 30
0.0
 11
327.1878299269708
 21
191.6245427604035
 31
0.0
  0
LINE
  5
189D1B2
  8
2
 10
327.1878299269708
 20
191.6245427604035
 30
0.0
 11
27.18782992697084
 21
191.6245427604035
 31
0.0
  0
LINE
  5
189D1B3
  8
2
 10
27.18782992697084
 20
191.6245427604035
 30
0.0
 11
27.18782992697084
 21
189.1245427604035
 31
0.0
  0
CIRCLE
  5
189D1B4
  8
2
 10
42.18782992697084
 20
189.1245427604035
 30
0.0
 40
1.25
  0
CIRCLE
  5
189D1B5
  8
2
 10
87.18782992697084
 20
189.1245427604035
 30
0.0
 40
1.25
  0
CIRCLE
  5
189D1B6
  8
2
 10
132.1878299269708
 20
189.1245427604035
 30
0.0
 40
1.25
  0
CIRCLE
  5
189D1B7
  8
2
 10
177.1878299269708
 20
189.1245427604035
 30
0.0
 40
1.25
  0
CIRCLE
  5
189D1B8
  8
2
 10
222.1878299269708
 20
189.1245427604035
 30
0.0
 40
1.25
  0
CIRCLE
  5
189D1B9
  8
2
 10
267.1878299269708
 20
189.1245427604035
 30
0.0
 40
1.25
  0
CIRCLE
  5
189D1BA
  8
2
 10
312.1878299269708
 20
189.1245427604035
 30
0.0
 40
1.25
  0
POINT
  5
189D1BB
  8
DEFPOINTS
  6
BYBLOCK
 62
     0
 10
27.18782992697084
 20
191.6245427604035
 30
0.0
  0
POINT
  5
189D1BC
  8
DEFPOINTS
  6
BYBLOCK
 62
     0
 10
327.1878299269708
 20
191.6245427604035
 30
0.0
  0
POINT
  5
189D1BD
  8
DEFPOINTS
  6
BYBLOCK
 62
     0
 10
42.18782992697084
 20
189.1245427604035
 30
0.0
  0
POINT
  5
189D1BE
  8
DEFPOINTS
  6
BYBLOCK
 62
     0
 10
312.1878299269708
 20
189.1245427604035
 30
0.0
  0
POINT
  5
189D1BF
  8
DEFPOINTS
  6
BYBLOCK
 62
     0
 10
27.18782992697084
 20
191.6245427604035
 30
0.0
  0
POINT
  5
189D1C0
  8
DEFPOINTS
  6
BYBLOCK
 62
     0
 10
42.18782992697084
 20
189.1245427604035
 30
0.0
  0
POINT
  5
189D1C1
  8
DEFPOINTS
  6
BYBLOCK
 62
     0
 10
312.1878299269708
 20
189.1245427604035
 30
0.0
  0
POINT
  5
189D1C2
  8
DEFPOINTS
  6
BYBLOCK
 62
     0
 10
327.1878299269708
 20
191.6245427604035
 30
0.0
  0
LINE
  5
189D1C3
  8
DIM
 62
     2
 10
327.1878299269708
 20
193.6245427604035
 30
0.0
 11
327.1878299269708
 21
209.1959714240331
 31
0.0
  0
LINE
  5
189D1C4
  8
DIM
 62
     2
 10
315.1878299269708
 20
207.1959714240331
 30
0.0
 11
324.1878299269708
 21
207.1959714240331
 31
0.0
  0
INSERT
  5
189D1C5
  8
DIM
 62
     2
  2
_OPEN
 10
312.1878299269708
 20
207.1959714240331
 30
0.0
 41
3.0
 42
3.0
 43
3.0
 50
180.0
  0
INSERT
  5
189D1C6
  8
DIM
 62
     2
  2
_OPEN
 10
327.1878299269708
 20
207.1959714240331
 30
0.0
 41
3.0
 42
3.0
 43
3.0
  0
TEXT
  5
189D1C7
  8
DIM
  6
CONTINUOUS
 62
     2
 10
316.2211632603042
 20
209.1388185472859
 30
0.0
 40
4.0
  1
150
 41
0.8
  0
POINT
  5
189D1C8
  8
DEFPOINTS
  6
BYBLOCK
 62
     0
 10
312.1878299269708
 20
189.1245427604035
 30
0.0
  0
POINT
  5
189D1C9
  8
DEFPOINTS
  6
BYBLOCK
 62
     0
 10
327.1878299269708
 20
191.6245427604035
 30
0.0
  0
LINE
  5
189D1CA
  8
DIM
 62
     2
 10
312.1878299269708
 20
193.6972262890532
 30
0.0
 11
312.1878299269708
 21
209.1959714240331
 31
0.0
  0
LINE
  5
189D1CB
  8
DIM
 62
     2
 10
45.18782992697084
 20
207.1959714240331
 30
0.0
 11
309.1878299269708
 21
207.1959714240331
 31
0.0
  0
INSERT
  5
189D1CC
  8
DIM
 62
     2
  2
_OPEN
 10
42.18782992697084
 20
207.1959714240331
 30
0.0
 41
3.0
 42
3.0
 43
3.0
 50
180.0
  0
INSERT
  5
189D1CD
  8
DIM
 62
     2
  2
_OPEN
 10
312.1878299269708
 20
207.1959714240331
 30
0.0
 41
3.0
 42
3.0
 43
3.0
  0
POINT
  5
189D1CE
  8
DEFPOINTS
  6
BYBLOCK
 62
     0
 10
42.18782992697084
 20
189.1245427604035
 30
0.0
  0
POINT
  5
189D1CF
  8
DEFPOINTS
  6
BYBLOCK
 62
     0
 10
312.1878299269708
 20
189.1245427604035
 30
0.0
  0
LINE
  5
189D1D0
  8
DIM
 62
     2
 10
27.18782992697084
 20
193.6245427604035
 30
0.0
 11
27.18782992697084
 21
209.1959714240331
 31
0.0
  0
LINE
  5
189D1D1
  8
DIM
 62
     2
 10
42.18782992697084
 20
193.9310340472357
 30
0.0
 11
42.18782992697084
 21
209.1959714240331
 31
0.0
  0
LINE
  5
189D1D2
  8
DIM
 62
     2
 10
30.18782992697084
 20
207.1959714240331
 30
0.0
 11
39.18782992697084
 21
207.1959714240331
 31
0.0
  0
INSERT
  5
189D1D3
  8
DIM
 62
     2
  2
_OPEN
 10
27.18782992697084
 20
207.1959714240331
 30
0.0
 41
3.0
 42
3.0
 43
3.0
 50
180.0
  0
INSERT
  5
189D1D4
  8
DIM
 62
     2
  2
_OPEN
 10
42.18782992697084
 20
207.1959714240331
 30
0.0
 41
3.0
 42
3.0
 43
3.0
  0
TEXT
  5
189D1D5
  8
DIM
  6
CONTINUOUS
 62
     2
 10
31.22116326030417
 20
208.9065447993907
 30
0.0
 40
4.0
  1
150
 41
0.8
  0
POINT
  5
189D1D6
  8
DEFPOINTS
  6
BYBLOCK
 62
     0
 10
27.18782992697084
 20
191.6245427604035
 30
0.0
  0
POINT
  5
189D1D7
  8
DEFPOINTS
  6
BYBLOCK
 62
     0
 10
42.18782992697084
 20
189.1245427604035
 30
0.0
  0
LINE
  5
189D1D8
  8
DIM
 62
     2
 10
27.18782992697084
 20
193.6245427604035
 30
0.0
 11
27.18782992697084
 21
222.5531139584727
 31
0.0
  0
LINE
  5
189D1D9
  8
DIM
 62
     2
 10
327.1878299269708
 20
193.6245427604035
 30
0.0
 11
327.1878299269708
 21
222.5531139584727
 31
0.0
  0
LINE
  5
189D1DA
  8
DIM
 62
     2
 10
30.18782992697084
 20
220.5531139584727
 30
0.0
 11
324.1878299269708
 21
220.5531139584727
 31
0.0
  0
INSERT
  5
189D1DB
  8
DIM
 62
     2
  2
_OPEN
 10
27.18782992697084
 20
220.5531139584727
 30
0.0
 41
3.0
 42
3.0
 43
3.0
 50
180.0
  0
INSERT
  5
189D1DC
  8
DIM
 62
     2
  2
_OPEN
 10
327.1878299269708
 20
220.5531139584727
 30
0.0
 41
3.0
 42
3.0
 43
3.0
  0
POINT
  5
189D1DD
  8
DEFPOINTS
  6
BYBLOCK
 62
     0
 10
27.18782992697084
 20
191.6245427604035
 30
0.0
  0
POINT
  5
189D1DE
  8
DEFPOINTS
  6
BYBLOCK
 62
     0
 10
327.1878299269708
 20
191.6245427604035
 30
0.0
  0
TEXT
  5
189D1DF
  8
DIM
 62
     2
 10
164.9424965936375
 20
209.8054961520569
 30
0.0
 40
4.0
  1
6×450＝2700
 41
0.8
  0
TEXT
  5
189D1E0
  8
DIM
 62
     2
 10
173.1344965936375
 20
223.1697992416087
 30
0.0
 40
4.0
  1
3000
 41
0.8
  0
LINE
  5
189D1EF
  8
2
 10
27.18782992697084
 20
152.1959709630282
 30
0.0
 11
326.1878299269708
 21
152.1959709630282
 31
0.0
  0
LINE
  5
189D1F0
  8
2
 10
326.1878299269708
 20
152.1959709630282
 30
0.0
 11
326.1878299269708
 21
149.6959709630282
 31
0.0
  0
LINE
  5
189D1F1
  8
2
 10
326.1878299269708
 20
149.6959709630282
 30
0.0
 11
27.18782992697078
 21
149.6959709630282
 31
0.0
  0
LINE
  5
189D1F2
  8
2
 10
27.18782992697078
 20
149.6959709630282
 30
0.0
 11
27.18782992697078
 21
152.1959709630282
 31
0.0
  0
LINE
  5
189D1F3
  8
CEN
 10
41.68782992697078
 20
151.6192247252716
 30
0.0
 11
41.68782992697078
 21
150.253094882099
 31
0.0
  0
LINE
  5
189D1F4
  8
CEN
 10
40.42540754664151
 20
150.9459709630282
 30
0.0
 11
42.95745689704131
 21
150.9459709630282
 31
0.0
  0
LINE
  5
189D1F5
  8
2
 10
41.08782992697078
 20
151.3459709630282
 30
0.0
 11
42.28782992697077
 21
151.3459709630282
 31
0.0
  0
LINE
  5
189D1F6
  8
2
 10
42.28782992697077
 20
150.5459709630282
 30
0.0
 11
41.08782992697078
 21
150.5459709630282
 31
0.0
  0
ARC
  5
189D1F7
  8
2
 10
41.08782992697078
 20
150.9459709630282
 30
0.0
 40
0.4
 50
90.0
 51
270.0
  0
ARC
  5
189D1F8
  8
2
 10
42.28782992697077
 20
150.9459709630282
 30
0.0
 40
0.4
 50
270.0
 51
90.0
  0
ARC
  5
189D1F9
  8
2
 10
87.28782992697077
 20
150.9459709630282
 30
0.0
 40
0.4
 50
270.0
 51
90.0
  0
ARC
  5
189D1FA
  8
2
 10
86.08782992697078
 20
150.9459709630282
 30
0.0
 40
0.4
 50
90.0
 51
270.0
  0
LINE
  5
189D1FB
  8
2
 10
87.28782992697077
 20
150.5459709630282
 30
0.0
 11
86.08782992697078
 21
150.5459709630282
 31
0.0
  0
LINE
  5
189D1FC
  8
2
 10
86.08782992697078
 20
151.3459709630282
 30
0.0
 11
87.28782992697077
 21
151.3459709630282
 31
0.0
  0
ARC
  5
189D1FF
  8
2
 10
132.2878299269708
 20
150.9459709630282
 30
0.0
 40
0.4
 50
270.0
 51
90.0
  0
ARC
  5
189D200
  8
2
 10
131.0878299269708
 20
150.9459709630282
 30
0.0
 40
0.4
 50
90.0
 51
270.0
  0
LINE
  5
189D201
  8
2
 10
132.2878299269708
 20
150.5459709630282
 30
0.0
 11
131.0878299269708
 21
150.5459709630282
 31
0.0
  0
LINE
  5
189D202
  8
2
 10
131.0878299269708
 20
151.3459709630282
 30
0.0
 11
132.2878299269708
 21
151.3459709630282
 31
0.0
  0
ARC
  5
189D205
  8
2
 10
177.2878299269708
 20
150.9459709630282
 30
0.0
 40
0.4
 50
270.0
 51
90.0
  0
ARC
  5
189D206
  8
2
 10
176.0878299269708
 20
150.9459709630282
 30
0.0
 40
0.4
 50
90.0
 51
270.0
  0
LINE
  5
189D207
  8
2
 10
177.2878299269708
 20
150.5459709630282
 30
0.0
 11
176.0878299269708
 21
150.5459709630282
 31
0.0
  0
LINE
  5
189D208
  8
2
 10
176.0878299269708
 20
151.3459709630282
 30
0.0
 11
177.2878299269708
 21
151.3459709630282
 31
0.0
  0
ARC
  5
189D20B
  8
2
 10
222.2878299269708
 20
150.9459709630282
 30
0.0
 40
0.4
 50
270.0
 51
90.0
  0
ARC
  5
189D20C
  8
2
 10
221.0878299269708
 20
150.9459709630282
 30
0.0
 40
0.4
 50
90.0
 51
270.0
  0
LINE
  5
189D20D
  8
2
 10
222.2878299269708
 20
150.5459709630282
 30
0.0
 11
221.0878299269708
 21
150.5459709630282
 31
0.0
  0
LINE
  5
189D20E
  8
2
 10
221.0878299269708
 20
151.3459709630282
 30
0.0
 11
222.2878299269708
 21
151.3459709630282
 31
0.0
  0
ARC
  5
189D211
  8
2
 10
267.2878299269708
 20
150.9459709630282
 30
0.0
 40
0.4
 50
270.0
 51
90.0
  0
ARC
  5
189D212
  8
2
 10
266.0878299269708
 20
150.9459709630282
 30
0.0
 40
0.4
 50
90.0
 51
270.0
  0
LINE
  5
189D213
  8
2
 10
267.2878299269708
 20
150.5459709630282
 30
0.0
 11
266.0878299269708
 21
150.5459709630282
 31
0.0
  0
LINE
  5
189D214
  8
2
 10
266.0878299269708
 20
151.3459709630282
 30
0.0
 11
267.2878299269708
 21
151.3459709630282
 31
0.0
  0
ARC
  5
189D217
  8
2
 10
312.2878299269708
 20
150.9459709630282
 30
0.0
 40
0.4
 50
270.0
 51
90.0
  0
ARC
  5
189D218
  8
2
 10
311.0878299269708
 20
150.9459709630282
 30
0.0
 40
0.4
 50
90.0
 51
270.0
  0
LINE
  5
189D219
  8
2
 10
312.2878299269708
 20
150.5459709630282
 30
0.0
 11
311.0878299269708
 21
150.5459709630282
 31
0.0
  0
LINE
  5
189D21A
  8
2
 10
311.0878299269708
 20
151.3459709630282
 30
0.0
 11
312.2878299269708
 21
151.3459709630282
 31
0.0
  0
DIMENSION
  5
189D21D
  8
DIM
  2
*D12
 10
41.68782992697078
 20
137.7155582679552
 30
0.0
 11
34.43782992697078
 21
141.7155582679552
 31
0.0
 70
    32
  1
145
 13
27.18782992697078
 23
149.6959709630282
 33
0.0
 14
41.68782992697078
 24
149.6959709630282
 34
0.0
  0
DIMENSION
  5
189D21E
  8
DIM
  2
*D13
 10
311.6878299269708
 20
137.7155582679552
 30
0.0
 11
176.6878299269708
 21
141.7155582679552
 31
0.0
 70
    32
  1
6×450＝2700
 13
41.68782992697078
 23
149.6959709630282
 33
0.0
 14
311.6878299269708
 24
149.6959709630282
 34
0.0
  0
DIMENSION
  5
189D21F
  8
DIM
  2
*D14
 10
326.1878299269708
 20
137.7155582679552
 30
0.0
 11
318.9378299269708
 21
141.7155582679552
 31
0.0
 70
    32
  1
145
 13
311.6878299269708
 23
149.6959709630282
 33
0.0
 14
326.1878299269708
 24
149.6959709630282
 34
0.0
  0
DIMENSION
  5
189D220
  8
DIM
  2
*D15
 10
326.1878299269708
 20
128.6694509314991
 30
0.0
 11
176.6878299269708
 21
132.6694509314991
 31
0.0
 70
    32
  1
2990
 13
27.18782992697078
 23
149.6959709630282
 33
0.0
 14
326.1878299269708
 24
149.6959709630282
 34
0.0
  0
CIRCLE
  5
189D221
  8
DIM
 10
334.445989840069
 20
202.7520407087845
 30
0.0
 40
5.0
  0
LINE
  5
189D222
  8
DIM
 10
330.1878299269709
 20
195.3766913925455
 30
0.0
 11
331.945989840069
 21
198.4219136898623
 31
0.0
  0
LINE
  5
189D223
  8
DIM
 62
     2
 10
327.1878299269709
 20
190.1805389698389
 30
0.0
 11
328.6878299269709
 21
192.7786151811922
 31
0.0
  0
LINE
  5
189D224
  8
DIM
 62
     2
 10
327.1878299269709
 20
190.1805389698389
 30
0.0
 11
328.2548172250787
 21
193.0286151811922
 31
0.0
  0
LINE
  5
189D225
  8
DIM
 62
     2
 10
329.1208426288631
 20
192.5286151811922
 30
0.0
 11
327.1878299269709
 21
190.1805389698389
 31
0.0
  0
LINE
  5
189D226
  8
DIM
 62
     2
 10
328.6878299269709
 20
192.7786151811922
 30
0.0
 11
330.1878299269709
 21
195.3766913925455
 31
0.0
  0
TEXT
  5
189D227
  8
DIM
 10
332.8028059760453
 20
200.6495813194597
 30
0.0
 40
3.5
  1
１
 41
0.8
  0
LINE
  5
189D228
  8
DIM
 62
     2
 10
327.6878299269707
 20
153.4536735466886
 30
0.0
 11
329.1878299269707
 21
156.0517497580419
 31
0.0
  0
LINE
  5
189D229
  8
DIM
 62
     2
 10
328.1208426288629
 20
153.2036735466886
 30
0.0
 11
326.1878299269707
 21
150.8555973353353
 31
0.0
  0
LINE
  5
189D22A
  8
DIM
 62
     2
 10
326.1878299269707
 20
150.8555973353353
 30
0.0
 11
327.2548172250785
 21
153.7036735466886
 31
0.0
  0
LINE
  5
189D22B
  8
DIM
 62
     2
 10
326.1878299269707
 20
150.8555973353353
 30
0.0
 11
327.6878299269707
 21
153.4536735466886
 31
0.0
  0
LINE
  5
189D22C
  8
DIM
 10
329.1878299269707
 20
156.0517497580419
 30
0.0
 11
330.9459898400688
 21
159.0969720553587
 31
0.0
  0
CIRCLE
  5
189D22D
  8
DIM
 10
333.4459898400688
 20
163.4270990742809
 30
0.0
 40
5.0
  0
TEXT
  5
189D22E
  8
DIM
 10
332.0754242364853
 20
161.4655699083231
 30
0.0
 40
3.5
  1
２
 41
0.8
  0
TEXT
  5
189D2C9
  8
DIM
 10
199.3087247088025
 20
20.39152634961306
 30
0.0
 40
3.5
  1
"B"部詳細
 41
0.8
  0
LINE
  5
189D2CA
  8
DIM
 10
195.6400522576486
 20
19.13264762686731
 30
0.0
 11
218.8977011685214
 21
19.13264762686731
 31
0.0
  0
CIRCLE
  5
189D2CB
  8
0
  6
DASHED
 10
86.62379476783309
 20
150.4595039569147
 30
0.0
 40
6.358433258820526
  0
TEXT
  5
189D2CC
  8
DIM
 10
83.8095353144555
 20
158.5436471562865
 30
0.0
 40
3.5
  1
"B"
 41
0.8
  0
LINE
  5
189D2CD
  8
DIM
 10
86.94548863748628
 20
195.5448127402029
 30
0.0
 11
86.94548863748628
 21
197.3486715438905
 31
0.0
  0
INSERT
  5
189D2CE
  8
DIM
  2
*X17
 10
0.0
 20
0.0
 30
0.0
  0
LINE
  5
189D2CF
  8
DIM
 10
86.94548863748628
 20
183.516160769183
 30
0.0
 11
86.94548863748628
 21
181.7123019654954
 31
0.0
  0
INSERT
  5
189D2D0
  8
DIM
  2
*X18
 10
0.0
 20
0.0
 30
0.0
  0
TEXT
  5
189D2D1
  8
DIM
 10
95.88173689097579
 20
196.1667116729581
 30
0.0
 40
3.5
  1
"A"
 41
0.8
  0
TEXT
  5
189D2D2
  8
DIM
 10
95.88173689097579
 20
180.0904794935268
 30
0.0
 40
3.5
  1
"A"
 41
0.8
  0
TEXT
  5
189D2D3
  8
DIM
 10
88.14732117622077
 20
9.725387409171848
 30
0.0
 40
3.5
  1
"A"-"A"断面
 41
0.8
  0
LINE
  5
189D2D4
  8
DIM
 10
87.05616473476653
 20
8.466508686426096
 30
0.0
 11
111.4459900823429
 21
8.466508686426096
 31
0.0
  0
LINE
  5
189D2E3
  8
CEN
 10
86.68782992697078
 20
151.6192247252716
 30
0.0
 11
86.68782992697078
 21
150.253094882099
 31
0.0
  0
LINE
  5
189D2E4
  8
CEN
 10
85.42540754664151
 20
150.9459709630282
 30
0.0
 11
87.95745689704131
 21
150.9459709630282
 31
0.0
  0
LINE
  5
189D2ED
  8
CEN
 10
131.6878299269708
 20
151.6290358846145
 30
0.0
 11
131.6878299269708
 21
150.262906041442
 31
0.0
  0
LINE
  5
189D2EE
  8
CEN
 10
130.4254075466415
 20
150.9557821223711
 30
0.0
 11
132.9574568970413
 21
150.9557821223711
 31
0.0
  0
LINE
  5
189D2F7
  8
CEN
 10
176.6842276321001
 20
151.6192247252716
 30
0.0
 11
176.6842276321001
 21
150.253094882099
 31
0.0
  0
LINE
  5
189D2F8
  8
CEN
 10
175.4218052517709
 20
150.9459709630282
 30
0.0
 11
177.9538546021707
 21
150.9459709630282
 31
0.0
  0
LINE
  5
189D301
  8
CEN
 10
221.6878299269708
 20
151.6290358846145
 30
0.0
 11
221.6878299269708
 21
150.262906041442
 31
0.0
  0
LINE
  5
189D302
  8
CEN
 10
220.4254075466415
 20
150.9557821223711
 30
0.0
 11
222.9574568970413
 21
150.9557821223711
 31
0.0
  0
LINE
  5
189D30B
  8
CEN
 10
266.6878299269708
 20
151.6290358846145
 30
0.0
 11
266.6878299269708
 21
150.262906041442
 31
0.0
  0
LINE
  5
189D30C
  8
CEN
 10
265.4254075466415
 20
150.9557821223711
 30
0.0
 11
267.9574568970413
 21
150.9557821223711
 31
0.0
  0
LINE
  5
189D315
  8
CEN
 10
311.6842276321001
 20
151.6192247252716
 30
0.0
 11
311.6842276321001
 21
150.253094882099
 31
0.0
  0
LINE
  5
189D316
  8
CEN
 10
310.4218052517709
 20
150.9459709630282
 30
0.0
 11
312.9538546021707
 21
150.9459709630282
 31
0.0
  0
LINE
  5
189D400
  8
CEN
 10
42.18782992697084
 20
190.5562083118607
 30
0.0
 11
42.18782992697084
 21
187.6928772089464
 31
0.0
  0
LINE
  5
189D408
  8
CEN
 10
87.18782992697084
 20
190.5562083118607
 30
0.0
 11
87.18782992697084
 21
187.6928772089464
 31
0.0
  0
LINE
  5
189D420
  8
CEN
 10
222.1878299269708
 20
190.5562083118607
 30
0.0
 11
222.1878299269708
 21
187.6928772089464
 31
0.0
  0
LINE
  5
189D430
  8
CEN
 10
312.1878299269708
 20
190.5562083118607
 30
0.0
 11
312.1878299269708
 21
187.6928772089464
 31
0.0
  0
ENDSEC
  0
EOF
