  0
SECTION
  2
HEADER
  9
$ACADVER
  1
AC1006
  9
$DWGCODEPAGE
  3
ansi_932
  9
$INSBASE
 10
0.0
 20
0.0
 30
0.0
  9
$EXTMIN
 10
0.0
 20
0.0
  9
$EXTMAX
 10
390.0
 20
272.0
  9
$LIMMIN
 10
0.0
 20
0.0
  9
$LIMMAX
 10
420.0
 20
297.0
  9
$ORTHOMODE
 70
     1
  9
$REGENMODE
 70
     1
  9
$FILLMODE
 70
     1
  9
$QTEXTMODE
 70
     0
  9
$MIRRTEXT
 70
     0
  9
$DRAGMODE
 70
     2
  9
$LTSCALE
 40
1.0
  9
$OSMODE
 70
    37
  9
$ATTMODE
 70
     1
  9
$TEXTSIZE
 40
3.5
  9
$TRACEWID
 40
0.05
  9
$TEXTSTYLE
  7
STANDARD
  9
$CLAYER
  8
0
  9
$CELTYPE
  6
BYLAYER
  9
$CECOLOR
 62
   256
  9
$DIMSCALE
 40
1.0
  9
$DIMASZ
 40
3.0
  9
$DIMEXO
 40
2.0
  9
$DIMDLI
 40
10.0
  9
$DIMRND
 40
0.0
  9
$DIMDLE
 40
0.0
  9
$DIMEXE
 40
2.0
  9
$DIMTP
 40
0.0
  9
$DIMTM
 40
0.0
  9
$DIMTXT
 40
3.2
  9
$DIMCEN
 40
0.09
  9
$DIMTSZ
 40
0.0
  9
$DIMTOL
 70
     0
  9
$DIMLIM
 70
     0
  9
$DIMTIH
 70
     0
  9
$DIMTOH
 70
     0
  9
$DIMSE1
 70
     0
  9
$DIMSE2
 70
     0
  9
$DIMTAD
 70
     1
  9
$DIMZIN
 70
     0
  9
$DIMBLK
  1

  9
$DIMASO
 70
     1
  9
$DIMSHO
 70
     0
  9
$DIMPOST
  1

  9
$DIMAPOST
  1

  9
$DIMALT
 70
     0
  9
$DIMALTD
 70
     2
  9
$DIMALTF
 40
25.4
  9
$DIMLFAC
 40
1.0
  9
$DIMTOFL
 70
     1
  9
$DIMTVP
 40
0.0
  9
$DIMTIX
 70
     1
  9
$DIMSOXD
 70
     0
  9
$DIMSAH
 70
     1
  9
$DIMBLK1
  1
OPEN
  9
$DIMBLK2
  1
OPEN
  9
$LUNITS
 70
     2
  9
$LUPREC
 70
     2
  9
$SKETCHINC
 40
0.1
  9
$FILLETRAD
 40
1.0
  9
$AUNITS
 70
     0
  9
$AUPREC
 70
     2
  9
$MENU
  1
dash
  9
$ELEVATION
 40
0.0
  9
$THICKNESS
 40
0.0
  9
$LIMCHECK
 70
     0
  9
$CHAMFERA
 40
0.0
  9
$CHAMFERB
 40
0.0
  9
$SKPOLY
 70
     0
  9
$TDCREATE
 40
2451025.359548611
  9
$TDUPDATE
 40
2459449.750020347
  9
$TDINDWG
 40
0.2085382292
  9
$TDUSRTIMER
 40
0.2085382292
  9
$USRTIMER
 70
     1
  9
$ANGBASE
 50
0.0
  9
$ANGDIR
 70
     0
  9
$PDMODE
 70
    35
  9
$PDSIZE
 40
1.0
  9
$PLINEWID
 40
0.0
  9
$COORDS
 70
     1
  9
$SPLFRAME
 70
     0
  9
$SPLINETYPE
 70
     6
  9
$SPLINESEGS
 70
     8
  9
$ATTDIA
 70
     0
  9
$ATTREQ
 70
     1
  9
$HANDLING
 70
     1
  9
$HANDSEED
  5
189DC7E
  9
$SURFTAB1
 70
     6
  9
$SURFTAB2
 70
     6
  9
$SURFTYPE
 70
     6
  9
$SURFU
 70
     6
  9
$SURFV
 70
     6
  9
$UCSNAME
  2

  9
$UCSORG
 10
0.0
 20
0.0
 30
0.0
  9
$UCSXDIR
 10
1.0
 20
0.0
 30
0.0
  9
$UCSYDIR
 10
0.0
 20
1.0
 30
0.0
  9
$USERI1
 70
     0
  9
$USERI2
 70
     0
  9
$USERI3
 70
     0
  9
$USERI4
 70
     0
  9
$USERI5
 70
     0
  9
$USERR1
 40
0.0
  9
$USERR2
 40
0.0
  9
$USERR3
 40
0.0
  9
$USERR4
 40
0.0
  9
$USERR5
 40
0.0
  9
$WORLDVIEW
 70
     1
  0
ENDSEC
  0
SECTION
  2
TABLES
  0
TABLE
  2
VPORT
 70
     1
  0
VPORT
  2
*ACTIVE
 70
     0
 10
0.0
 20
0.0
 11
1.0
 21
1.0
 12
199.2331780888703
 22
111.220311067085
 13
0.0
 23
0.0
 14
1.0
 24
1.0
 15
0.0
 25
0.0
 16
0.0
 26
0.0
 36
1.0
 17
0.0
 27
0.0
 37
0.0
 40
230.1180273759832
 41
1.825270347182698
 42
50.0
 43
0.0
 44
0.0
 50
0.0
 51
0.0
 71
     0
 72
   500
 73
     1
 74
     3
 75
     0
 76
     0
 77
     0
 78
     0
  0
ENDTAB
  0
TABLE
  2
LTYPE
 70
     3
  0
LTYPE
  2
CONTINUOUS
 70
     0
  3
Solid line
 72
    65
 73
     0
 40
0.0
  0
LTYPE
  2
DASHED
 70
     0
  3
__ __ __ __ __ __ __ __ __ __ __ __ __ __ __
 72
    65
 73
     2
 40
3.0
 49
2.0
 49
-1.0
  0
LTYPE
  2
CENTER
 70
     0
  3
____ _ ____ _ ____ _ ____ _ ____ _ ____ _ ____
 72
    65
 73
     4
 40
12.0
 49
9.0
 49
-1.0
 49
1.0
 49
-1.0
  0
ENDTAB
  0
TABLE
  2
LAYER
 70
    12
  0
LAYER
  2
0
 70
     0
 62
     7
  6
CONTINUOUS
  0
LAYER
  2
THN
 70
     0
 62
    -4
  6
CONTINUOUS
  0
LAYER
  2
CEN
 70
     0
 62
     4
  6
CENTER
  0
LAYER
  2
HID
 70
     0
 62
     3
  6
DASHED
  0
LAYER
  2
DIM
 70
     0
 62
     2
  6
CONTINUOUS
  0
LAYER
  2
WAKU
 70
     0
 62
    10
  6
CONTINUOUS
  0
LAYER
  2
HOJO
 70
     0
 62
     5
  6
CONTINUOUS
  0
LAYER
  2
HATCH
 70
     0
 62
     6
  6
CONTINUOUS
  0
LAYER
  2
DIMTEXT
 70
     0
 62
     1
  6
CONTINUOUS
  0
LAYER
  2
1
 70
     0
 62
     7
  6
CONTINUOUS
  0
LAYER
  2
2
 70
     0
 62
     7
  6
CONTINUOUS
  0
LAYER
  2
DEFPOINTS
 70
     0
 62
     7
  6
CONTINUOUS
  0
ENDTAB
  0
TABLE
  2
STYLE
 70
     3
  0
STYLE
  2
STANDARD
 70
     0
 40
0.0
 41
0.8
 50
0.0
 71
     0
 42
3.5
  3
TXT
  4
bigfont
  0
STYLE
  2
KANJI1
 70
     0
 40
0.0
 41
1.0
 50
0.0
 71
     0
 42
2.0
  3
ROMANS
  4
EXTFONT
  0
STYLE
  2
KANJI2
 70
     0
 40
0.0
 41
1.0
 50
0.0
 71
     0
 42
10.0
  3
ROMANS
  4
EXTFONT
  0
ENDTAB
  0
TABLE
  2
VIEW
 70
     0
  0
ENDTAB
  0
TABLE
  2
UCS
 70
     0
  0
ENDTAB
  0
ENDSEC
  0
SECTION
  2
BLOCKS
  0
BLOCK
  8
0
  2
WK_A3Y0
 70
     0
 10
0.0
 20
0.0
 30
0.0
  0
LINE
  5
189D03D
  8
WAKU
 10
390.0
 20
272.0
 30
0.0
 11
0.0000000000000568
 21
272.0
 31
0.0
  0
LINE
  5
189D03E
  8
WAKU
 10
389.9999999999999
 20
0.0
 30
0.0
 11
389.9999999999999
 21
272.0
 31
0.0
  0
TEXT
  5
189D03F
  8
WAKU
 62
     6
 10
327.3307147859031
 20
268.0703844795598
 30
0.0
 40
3.0
  1
図　面　来　歴
  7
KANJI1
 72
     1
 11
339.6307147859031
 21
269.5703844795598
 31
0.0
  0
TEXT
  5
189D040
  8
WAKU
 62
     6
 10
332.659572288814
 20
264.5803800559038
 30
0.0
 40
2.5
  1
CAREER
  7
KANJI2
 72
     1
 11
339.7429056221473
 21
265.8303800559038
 31
0.0
  0
LINE
  5
189D041
  8
WAKU
 10
390.0
 20
263.4999999999999
 30
0.0
 11
290.0
 21
263.4999999999999
 31
0.0
  0
LINE
  5
189D042
  8
WAKU
 10
390.0
 20
254.9999999999999
 30
0.0
 11
290.0
 21
254.9999999999999
 31
0.0
  0
LINE
  5
189D043
  8
WAKU
 10
390.0
 20
246.4999999999999
 30
0.0
 11
290.0
 21
246.4999999999999
 31
0.0
  0
LINE
  5
189D044
  8
WAKU
 10
390.0
 20
237.9999999999999
 30
0.0
 11
290.0
 21
237.9999999999999
 31
0.0
  0
LINE
  5
189D045
  8
WAKU
 10
305.0
 20
237.9999999999999
 30
0.0
 11
305.0
 21
263.5
 31
0.0
  0
LINE
  5
189D046
  8
WAKU
 10
322.0
 20
237.9999999999999
 30
0.0
 11
322.0
 21
263.5
 31
0.0
  0
LINE
  5
189D047
  8
WAKU
 10
290.0
 20
237.9999999999999
 30
0.0
 11
290.0
 21
272.0
 31
0.0
  0
TEXT
  5
189D048
  8
WAKU
 62
     6
 10
293.0708350650743
 20
255.750947451817
 30
0.0
 40
2.5
  1
MARK
  7
KANJI2
  0
TEXT
  5
189D049
  8
WAKU
 62
     6
 10
294.5486203294193
 20
259.3696918904864
 30
0.0
 40
3.0
  1
記号
  7
KANJI1
 72
     1
 11
297.7486203294193
 21
260.8696918904864
 31
0.0
  0
TEXT
  5
189D04A
  8
WAKU
 62
     6
 10
308.6915347592192
 20
259.5181394579755
 30
0.0
 40
3.0
  1
年月日
  7
KANJI1
 72
     1
 11
313.4915347592192
 21
261.0181394579755
 31
0.0
  0
TEXT
  5
189D04B
  8
WAKU
 62
     6
 10
308.974136542129
 20
255.5347361087015
 30
0.0
 40
2.5
  1
DATE
  7
KANJI2
 72
     1
 11
313.4979460659385
 21
256.7847361087015
 31
0.0
  0
TEXT
  5
189D04C
  8
WAKU
 62
     6
 10
342.4488221121451
 20
259.5181394579755
 30
0.0
 40
3.0
  1
記　　　　事
  7
KANJI1
 72
     1
 11
352.8488221121451
 21
261.0181394579755
 31
0.0
  0
TEXT
  5
189D04D
  8
WAKU
 62
     6
 10
340.9759790736705
 20
255.7931828195535
 30
0.0
 40
2.5
  1
EXPLANATION
  7
KANJI2
 72
     1
 11
353.0593124070038
 21
257.0431828195535
 31
0.0
  0
LINE
  5
189D04E
  8
WAKU
 10
389.9999999999999
 20
0.0
 30
0.0
 11
0.0
 21
0.0
 31
0.0
  0
LINE
  5
189D04F
  8
WAKU
 10
389.9999999999999
 20
25.96560095650418
 30
0.0
 11
269.4999999999999
 21
25.96560095650418
 31
0.0
  0
LINE
  5
189D050
  8
WAKU
 10
389.9999999999999
 20
16.96560095650415
 30
0.0
 11
269.5
 21
16.96560095650415
 31
0.0
  0
LINE
  5
189D051
  8
WAKU
 10
389.9999999999999
 20
25.96560095650418
 30
0.0
 11
269.4999999999999
 21
25.96560095650418
 31
0.0
  0
LINE
  5
189D052
  8
WAKU
 10
389.9999999999999
 20
40.96560095650418
 30
0.0
 11
269.4999999999999
 21
40.96560095650418
 31
0.0
  0
LINE
  5
189D053
  8
WAKU
 10
389.9999999999999
 20
50.46560095650418
 30
0.0
 11
269.4999999999999
 21
50.46560095650418
 31
0.0
  0
TEXT
  5
189D054
  8
WAKU
 62
     6
 10
330.5254792130129
 20
42.54507345808153
 30
0.0
 40
2.0
  1
NO.REQ'D
  7
KANJI2
 72
     1
 11
337.573098260632
 21
43.54507345808153
 31
0.0
  0
TEXT
  5
189D055
  8
WAKU
 10
290.3608414812278
 20
3.018918169471476
 30
0.0
 40
3.0
  1
OHJI RUBBER & CHEMICALS CO.,LTD.
  7
KANJI1
 72
     1
 11
330.7465557669421
 21
4.518918169471476
 31
0.0
  0
TEXT
  5
189D056
  8
WAKU
 10
290.6368794421599
 20
8.435898150440751
 30
0.0
 40
5.0
  1
王子ゴム化成株式会社
  7
KANJI1
  0
LINE
  5
189D057
  8
WAKU
 10
269.4999999999999
 20
0.2775261612657403
 30
0.0
 11
269.4999999999999
 21
50.46560095650418
 31
0.0
  0
TEXT
  5
189D058
  8
WAKU
 62
     6
 10
274.4302862977678
 20
34.49938230180913
 30
0.0
 40
3.0
  1
名称
  7
KANJI1
 72
     1
 11
277.6302862977678
 21
35.99938230180913
 31
0.0
  0
TEXT
  5
189D059
  8
WAKU
 62
     6
 10
274.3750642144256
 20
21.97352750024902
 30
0.0
 40
3.0
  1
日付
  7
KANJI1
 72
     1
 11
277.7750642144256
 21
23.47352750024902
 31
0.0
  0
TEXT
  5
189D05A
  8
WAKU
 62
     6
 10
273.1030160745985
 20
17.98745289994386
 30
0.0
 40
2.5
  1
DATE
  7
KANJI2
 72
     1
 11
277.6268255984081
 21
19.23745289994386
 31
0.0
  0
TEXT
  5
189D05B
  8
WAKU
 62
     6
 10
272.9814329339567
 20
29.08063670589539
 30
0.0
 40
2.5
  1
TITLE
  7
KANJI2
 72
     1
 11
277.4457186482424
 21
30.33063670589539
 31
0.0
  0
ARC
  5
189D05C
  8
WAKU
 10
280.5297613168935
 20
4.23879501804371
 30
0.0
 40
8.339568020092239
 50
50.42889192608803
 51
129.571108073912
  0
ARC
  5
189D05D
  8
WAKU
 10
280.5297613168935
 20
12.4220516779968
 30
0.0
 40
8.30220306308398
 50
230.0944008649057
 51
309.9055991350943
  0
INSERT
  5
189D05E
  8
WAKU
  2
*X1
 10
-4.569770156038373
 20
12.16099840676171
 30
0.0
  0
ARC
  5
189D05F
  8
WAKU
 10
277.1282676259526
 20
8.354718646062203
 30
0.0
 40
3.0
 50
129.571108073912
 51
230.0944008649059
  0
TEXT
  5
189D060
  8
WAKU
 10
277.0585403240342
 20
6.849167749767538
 30
0.0
 40
3.0
  1
OJI
  7
KANJI1
 72
     1
 11
280.2728260383199
 21
8.349167749767538
 31
0.0
  0
CIRCLE
  5
189D061
  8
WAKU
 10
280.4331570707386
 20
8.329794039836123
 30
0.0
 40
3.98009326329651
  0
ARC
  5
189D062
  8
WAKU
 10
283.9312550078345
 20
8.354718646062203
 30
0.0
 40
3.0
 50
309.9055991350942
 51
50.42889192608803
  0
LINE
  5
189D063
  8
WAKU
 10
347.75
 20
25.96560095650412
 30
0.0
 11
347.75
 21
16.96560095650415
 31
0.0
  0
LINE
  5
189D064
  8
WAKU
 10
329.75
 20
25.96560095650412
 30
0.0
 11
329.75
 21
16.96560095650415
 31
0.0
  0
TEXT
  5
189D065
  8
WAKU
 62
     6
 10
335.4690291190192
 20
22.29925509968402
 30
0.0
 40
3.0
  1
尺度
  7
KANJI1
 72
     1
 11
338.6690291190192
 21
23.79925509968402
 31
0.0
  0
TEXT
  5
189D066
  8
WAKU
 62
     6
 10
332.9470076486102
 20
18.34949264807071
 30
0.0
 40
2.5
  1
SCALE
  7
KANJI2
 72
     1
 11
338.6612933628959
 21
19.59949264807071
 31
0.0
  0
TEXT
  5
189D067
  8
WAKU
 62
     6
 10
270.4741355076006
 20
42.7260928787758
 30
0.0
 40
2.0
  1
PART NO.
  7
KANJI2
 72
     1
 11
277.2646116980767
 21
43.7260928787758
 31
0.0
  0
TEXT
  5
189D068
  8
WAKU
 62
     6
 10
274.306087205489
 20
46.03925385519743
 30
0.0
 40
3.0
  1
部番
  7
KANJI1
 72
     1
 11
277.5060872054889
 21
47.53925385519743
 31
0.0
  0
TEXT
  5
189D069
  8
WAKU
 62
     6
 10
298.8752169493111
 20
46.11187543236623
 30
0.0
 40
3.0
  1
名　　　称
  7
KANJI1
 72
     1
 11
307.4752169493111
 21
47.61187543236623
 31
0.0
  0
TEXT
  5
189D06A
  8
WAKU
 62
     6
 10
294.1667046023672
 20
42.29507345808153
 30
0.0
 40
2.5
  1
NAME OF PART
  7
KANJI2
 72
     1
 11
307.6905141261768
 21
43.54507345808153
 31
0.0
  0
LINE
  5
189D06B
  8
WAKU
 10
329.8
 20
50.46560095650418
 30
0.0
 11
329.8
 21
40.89921495727378
 31
0.0
  0
TEXT
  5
189D06C
  8
WAKU
 62
     6
 10
334.6786817215328
 20
46.40129360332428
 30
0.0
 40
3.0
  1
数量
  7
KANJI1
 72
     1
 11
337.8786817215328
 21
47.90129360332428
 31
0.0
  0
TEXT
  5
189D06D
  8
WAKU
 62
     6
 10
367.8800570676003
 20
42.4760928787758
 30
0.0
 40
2.5
  1
REMARKS
  7
KANJI2
 72
     1
 11
376.5110094485527
 21
43.7260928787758
 31
0.0
  0
TEXT
  5
189D06E
  8
WAKU
 62
     6
 10
369.4449600353063
 20
46.76333244471282
 30
0.0
 40
3.0
  1
備　　考
  7
KANJI1
 72
     1
 11
376.2449600353063
 21
48.26333244471282
 31
0.0
  0
TEXT
  5
189D06F
  8
WAKU
 62
     6
 10
351.3281983879257
 20
46.40129360332428
 30
0.0
 40
3.0
  1
材質
  7
KANJI1
 72
     1
 11
354.5281983879257
 21
47.90129360332428
 31
0.0
  0
TEXT
  5
189D070
  8
WAKU
 62
     6
 10
347.3777590227992
 20
42.7260928787758
 30
0.0
 40
2.0
  1
MATERIAL
  7
KANJI2
 72
     1
 11
354.234901879942
 21
43.7260928787758
 31
0.0
  0
LINE
  5
189D071
  8
WAKU
 10
345.8
 20
50.46560095650418
 30
0.0
 11
345.8
 21
40.96560095650418
 31
0.0
  0
LINE
  5
189D072
  8
WAKU
 10
362.8
 20
50.46560095650418
 30
0.0
 11
362.8
 21
40.96560095650418
 31
0.0
  0
LINE
  5
189D073
  8
WAKU
 10
0.0000000000000002
 20
272.0
 30
0.0
 11
0.0
 21
0.0
 31
0.0
  0
LINE
  5
189D088
  8
WAKU
 10
286.8772637348418
 20
50.46560095650418
 30
0.0
 11
286.8772637348418
 21
16.96560095650415
 31
0.0
  0
ENDBLK
  8
0
  0
BLOCK
  8
0
  2
*X1
 70
     1
 10
0.0
 20
0.0
 30
0.0
  0
LINE
  5
1493710
  8
0
 62
     0
 10
278.6985657303572
 20
-3.75
 30
0.0
 11
281.0236624409996
 21
-3.75
 31
0.0
  0
LINE
  5
1493711
  8
0
 62
     0
 10
288.9821920125545
 20
-3.75
 30
0.0
 11
291.5004972155068
 21
-3.75
 31
0.0
  0
LINE
  5
1493712
  8
0
 62
     0
 10
278.7443377717706
 20
-3.28125
 30
0.0
 11
281.0610123901988
 21
-3.28125
 31
0.0
  0
LINE
  5
1493713
  8
0
 62
     0
 10
288.9448420633553
 20
-3.28125
 30
0.0
 11
291.4547251740934
 21
-3.28125
 31
0.0
  0
LINE
  5
1493714
  8
0
 62
     0
 10
278.8674191592831
 20
-2.8125
 30
0.0
 11
281.1554106514596
 21
-2.8125
 31
0.0
  0
LINE
  5
1493715
  8
0
 62
     0
 10
288.8504438020945
 20
-2.8125
 30
0.0
 11
291.3316437865809
 21
-2.8125
 31
0.0
  0
LINE
  5
1493716
  8
0
 62
     0
 10
279.0786854385548
 20
-2.34375
 30
0.0
 11
281.3112308835156
 21
-2.34375
 31
0.0
  0
LINE
  5
1493717
  8
0
 62
     0
 10
288.6946235700385
 20
-2.34375
 30
0.0
 11
291.1203775073092
 21
-2.34375
 31
0.0
  0
LINE
  5
1493718
  8
0
 62
     0
 10
279.4023552068276
 20
-1.875
 30
0.0
 11
281.5367467843654
 21
-1.875
 31
0.0
  0
LINE
  5
1493719
  8
0
 62
     0
 10
288.4691076691887
 20
-1.875
 30
0.0
 11
290.7967077390364
 21
-1.875
 31
0.0
  0
LINE
  5
149371A
  8
0
 62
     0
 10
279.8946543180132
 20
-1.40625
 30
0.0
 11
281.8468634278553
 21
-1.40625
 31
0.0
  0
LINE
  5
149371B
  8
0
 62
     0
 10
288.1589910256988
 20
-1.40625
 30
0.0
 11
290.3044086278508
 21
-1.40625
 31
0.0
  0
LINE
  5
149371C
  8
0
 62
     0
 10
280.5429633198838
 20
-0.9375
 30
0.0
 11
282.2702330577615
 21
-0.9375
 31
0.0
  0
LINE
  5
149371D
  8
0
 62
     0
 10
287.7356213957926
 20
-0.9375
 30
0.0
 11
289.6560996259801
 21
-0.9375
 31
0.0
  0
LINE
  5
149371E
  8
0
 62
     0
 10
281.3586188377653
 20
-0.46875
 30
0.0
 11
282.8733631833919
 21
-0.46875
 31
0.0
  0
LINE
  5
149371F
  8
0
 62
     0
 10
287.1324912701622
 20
-0.46875
 30
0.0
 11
288.8404441080986
 21
-0.46875
 31
0.0
  0
LINE
  5
1493720
  8
0
 62
     0
 10
282.4943274061598
 20
0.0
 30
0.0
 11
283.9244952709328
 21
0.0
 31
0.0
  0
LINE
  5
1493721
  8
0
 62
     0
 10
286.0813591826213
 20
0.0
 30
0.0
 11
287.7047355397042
 21
0.0
 31
0.0
  0
LINE
  5
1493722
  8
0
 62
     0
 10
278.7265283504583
 20
-4.21875
 30
0.0
 11
281.0417467503507
 21
-4.21875
 31
0.0
  0
LINE
  5
1493723
  8
0
 62
     0
 10
288.9641077032034
 20
-4.21875
 30
0.0
 11
291.4725345954057
 21
-4.21875
 31
0.0
  0
LINE
  5
1493724
  8
0
 62
     0
 10
278.8303817897486
 20
-4.6875
 30
0.0
 11
281.1160389889557
 21
-4.6875
 31
0.0
  0
LINE
  5
1493725
  8
0
 62
     0
 10
288.8898154645984
 20
-4.6875
 30
0.0
 11
291.3686811561154
 21
-4.6875
 31
0.0
  0
LINE
  5
1493726
  8
0
 62
     0
 10
279.0189371207617
 20
-5.15625
 30
0.0
 11
281.2498756077866
 21
-5.15625
 31
0.0
  0
LINE
  5
1493727
  8
0
 62
     0
 10
288.7559788457675
 20
-5.15625
 30
0.0
 11
291.1801258251023
 21
-5.15625
 31
0.0
  0
LINE
  5
1493728
  8
0
 62
     0
 10
279.3121927134345
 20
-5.625
 30
0.0
 11
281.4499792098059
 21
-5.625
 31
0.0
  0
LINE
  5
1493729
  8
0
 62
     0
 10
288.5558752437482
 20
-5.625
 30
0.0
 11
290.8868702324295
 21
-5.625
 31
0.0
  0
LINE
  5
149372A
  8
0
 62
     0
 10
279.7570380642396
 20
-6.09375
 30
0.0
 11
281.7284761822824
 21
-6.09375
 31
0.0
  0
LINE
  5
149372B
  8
0
 62
     0
 10
288.2773782712717
 20
-6.09375
 30
0.0
 11
290.4420248816244
 21
-6.09375
 31
0.0
  0
LINE
  5
149372C
  8
0
 62
     0
 10
280.3702930083053
 20
-6.5625
 30
0.0
 11
282.1079027796808
 21
-6.5625
 31
0.0
  0
LINE
  5
149372D
  8
0
 62
     0
 10
287.8979516738733
 20
-6.5625
 30
0.0
 11
289.8287699375586
 21
-6.5625
 31
0.0
  0
LINE
  5
149372E
  8
0
 62
     0
 10
281.1310445193159
 20
-7.03125
 30
0.0
 11
282.6363156551883
 21
-7.03125
 31
0.0
  0
LINE
  5
149372F
  8
0
 62
     0
 10
287.3695387983658
 20
-7.03125
 30
0.0
 11
289.0680184265481
 21
-7.03125
 31
0.0
  0
LINE
  5
1493730
  8
0
 62
     0
 10
282.151205198291
 20
-7.5
 30
0.0
 11
283.4598520545089
 21
-7.5
 31
0.0
  0
LINE
  5
1493731
  8
0
 62
     0
 10
286.5460023990452
 20
-7.5
 30
0.0
 11
288.0478577475729
 21
-7.5
 31
0.0
  0
LINE
  5
1493732
  8
0
 62
     0
 10
284.0054959079454
 20
-7.96875
 30
0.0
 11
286.1935670379185
 21
-7.96875
 31
0.0
  0
LINE
  5
1493733
  8
0
 62
     0
 10
285.0
 20
-8.040553150812588
 30
0.0
 11
285.0
 21
-7.811296553782535
 31
0.0
  0
LINE
  5
1493734
  8
0
 62
     0
 10
285.0
 20
0.1488878199312955
 30
0.0
 11
285.0
 21
0.4167706637441677
 31
0.0
  0
LINE
  5
1493735
  8
0
 62
     0
 10
283.125
 20
-7.80292844768568
 30
0.0
 11
283.125
 21
-7.340411074354741
 31
0.0
  0
LINE
  5
1493736
  8
0
 62
     0
 10
283.125
 20
-0.3219976594964984
 30
0.0
 11
283.125
 21
0.1802419350186826
 31
0.0
  0
LINE
  5
1493737
  8
0
 62
     0
 10
281.25
 20
-7.094739217653751
 30
0.0
 11
281.25
 21
-5.156602275122101
 31
0.0
  0
LINE
  5
1493738
  8
0
 62
     0
 10
281.25
 20
-2.505806458729138
 30
0.0
 11
281.25
 21
-0.524264337830413
 31
0.0
  0
LINE
  5
1493739
  8
0
 62
     0
 10
279.375
 20
-5.704567268807491
 30
0.0
 11
279.375
 21
-1.907992252591516
 31
0.0
  0
LINE
  5
149373A
  8
0
 62
     0
 10
286.875
 20
-7.849081574134509
 30
0.0
 11
286.875
 21
-7.343537767429249
 31
0.0
  0
LINE
  5
149373B
  8
0
 62
     0
 10
286.875
 20
-0.3188709664219913
 30
0.0
 11
286.875
 21
0.2261772032237017
 31
0.0
  0
LINE
  5
149373C
  8
0
 62
     0
 10
288.75
 20
-7.195531418391459
 30
0.0
 11
288.75
 21
-5.173064276419643
 31
0.0
  0
LINE
  5
149373D
  8
0
 62
     0
 10
288.75
 20
-2.489344457431597
 30
0.0
 11
288.75
 21
-0.424038660290976
 31
0.0
  0
LINE
  5
149373E
  8
0
 62
     0
 10
290.625
 20
-5.924942285854444
 30
0.0
 11
290.625
 21
-1.687617235544558
 31
0.0
  0
ENDBLK
  8
0
  0
BLOCK
  8
0
  2
DIMSTAT
 70
     2
 10
0.0
 20
0.0
 30
0.0
  0
ATTDEF
  5
189C7F4
  8
0
 10
0.0
 20
1.0
 30
0.0
 40
1.0
  1

 41
0.7
 51
15.0
  3

  2
DIMEXT
 70
     1
  0
ATTDEF
  5
189C7F5
  8
0
 10
0.0
 20
0.0
 30
0.0
 40
1.0
  1

 41
0.7
 51
15.0
  3

  2
DIMBAL
 70
     1
  0
ATTDEF
  5
189C7F6
  8
0
 10
-0.4428095427696519
 20
-0.911649989012119
 30
0.0
 40
1.0
  1

 41
0.7
 51
15.0
 72
     1
 11
1.507190457230351
 21
-0.911649989012119
 31
0.0
  3

  2
SYMSCL
 70
     1
  0
ENDBLK
  8
0
  0
BLOCK
  8
0
  2
DIMSTAT2
 70
     2
 10
0.0
 20
0.0
 30
0.0
  0
ATTDEF
  5
189C7FF
  8
0
 10
0.0
 20
0.0
 30
0.0
 40
1.0
  1

 41
0.7
  3

  2
DIMSIZ
 70
     1
  0
ENDBLK
  8
0
  0
BLOCK
  8
0
  2
_OPEN
 70
     0
 10
0.0
 20
0.0
 30
0.0
  0
LINE
  5
189C983
  8
0
  6
BYBLOCK
 62
     0
 10
-1.0
 20
0.1666666666666667
 30
0.0
 11
0.0
 21
0.0
 31
0.0
  0
LINE
  5
189C984
  8
0
  6
BYBLOCK
 62
     0
 10
0.0
 20
0.0
 30
0.0
 11
-1.0
 21
-0.1666666666666667
 31
0.0
  0
LINE
  5
189C985
  8
0
  6
BYBLOCK
 62
     0
 10
0.0
 20
0.0
 30
0.0
 11
-1.0
 21
0.0
 31
0.0
  0
ENDBLK
  8
0
  0
BLOCK
  8
0
  2
*D5
 70
     1
 10
0.0
 20
0.0
 30
0.0
  0
LINE
  5
189DBBC
  8
DIM
 62
     0
 10
88.38360606336892
 20
44.40106565705982
 30
0.0
 11
88.38360606336892
 21
28.6037075918706
 31
0.0
  0
LINE
  5
189DBBD
  8
DIM
 62
     0
 10
108.3836060633689
 20
44.40106565705982
 30
0.0
 11
108.3836060633689
 21
28.6037075918706
 31
0.0
  0
LINE
  5
189DBBE
  8
DIM
 62
     0
 10
91.38360606336892
 20
30.6037075918706
 30
0.0
 11
105.3836060633689
 21
30.6037075918706
 31
0.0
  0
INSERT
  5
189DBBF
  8
DIM
 62
     0
  2
_OPEN
 10
88.38360606336892
 20
30.6037075918706
 30
0.0
 41
3.0
 42
3.0
 43
3.0
 50
180.0
  0
INSERT
  5
189DBC0
  8
DIM
 62
     0
  2
_OPEN
 10
108.3836060633689
 20
30.6037075918706
 30
0.0
 41
3.0
 42
3.0
 43
3.0
  0
TEXT
  5
189DBC1
  8
DIM
  6
CONTINUOUS
 62
     0
 10
94.65027273003558
 20
32.6037075918706
 30
0.0
 40
4.0
  1
φ20
 41
0.8
  0
POINT
  5
189DBC2
  8
DEFPOINTS
 62
     0
 10
88.38360606336892
 20
46.40106565705982
 30
0.0
  0
POINT
  5
189DBC3
  8
DEFPOINTS
 62
     0
 10
108.3836060633689
 20
46.40106565705982
 30
0.0
  0
POINT
  5
189DBC4
  8
DEFPOINTS
 62
     0
 10
108.3836060633689
 20
30.6037075918706
 30
0.0
  0
ENDBLK
  8
0
  0
BLOCK
  8
0
  2
*D6
 70
     1
 10
0.0
 20
0.0
 30
0.0
  0
LINE
  5
189DBB3
  8
DIM
 62
     0
 10
63.38360606336892
 20
43.32963708563125
 30
0.0
 11
63.38360606336892
 21
19.58254291334799
 31
0.0
  0
LINE
  5
189DBB4
  8
DIM
 62
     0
 10
133.3836060633689
 20
43.32963708563125
 30
0.0
 11
133.3836060633689
 21
19.58254291334799
 31
0.0
  0
LINE
  5
189DBB5
  8
DIM
 62
     0
 10
66.38360606336892
 20
21.58254291334799
 30
0.0
 11
130.3836060633689
 21
21.58254291334799
 31
0.0
  0
INSERT
  5
189DBB6
  8
DIM
 62
     0
  2
_OPEN
 10
63.38360606336892
 20
21.58254291334799
 30
0.0
 41
3.0
 42
3.0
 43
3.0
 50
180.0
  0
INSERT
  5
189DBB7
  8
DIM
 62
     0
  2
_OPEN
 10
133.3836060633689
 20
21.58254291334799
 30
0.0
 41
3.0
 42
3.0
 43
3.0
  0
TEXT
  5
189DBB8
  8
DIM
  6
CONTINUOUS
 62
     0
 10
95.98360606336891
 20
23.58254291334799
 30
0.0
 40
4.0
  1
70
 41
0.8
  0
POINT
  5
189DBB9
  8
DEFPOINTS
 62
     0
 10
63.38360606336892
 20
45.32963708563125
 30
0.0
  0
POINT
  5
189DBBA
  8
DEFPOINTS
 62
     0
 10
133.3836060633689
 20
45.32963708563125
 30
0.0
  0
POINT
  5
189DBBB
  8
DEFPOINTS
 62
     0
 10
133.3836060633689
 20
21.58254291334799
 30
0.0
  0
ENDBLK
  8
0
  0
BLOCK
  8
0
  2
*D7
 70
     1
 10
0.0
 20
0.0
 30
0.0
  0
LINE
  5
189DC4A
  8
DIM
 62
     0
 10
135.383606063369
 20
45.32963708563126
 30
0.0
 11
147.6445471850828
 21
45.32963708563127
 31
0.0
  0
LINE
  5
189DC4B
  8
DIM
 62
     0
 10
104.350609103751
 20
115.3296370856314
 30
0.0
 11
147.6445471850828
 21
115.3296370856314
 31
0.0
  0
LINE
  5
189DC4C
  8
DIM
 62
     0
 10
145.6445471850828
 20
48.32963708563128
 30
0.0
 11
145.6445471850828
 21
112.3296370856314
 31
0.0
  0
INSERT
  5
189DC4D
  8
DIM
 62
     0
  2
_OPEN
 10
145.6445471850828
 20
45.32963708563127
 30
0.0
 41
3.0
 42
3.0
 43
3.0
 50
270.0
  0
INSERT
  5
189DC4E
  8
DIM
 62
     0
  2
_OPEN
 10
145.6445471850828
 20
115.3296370856314
 30
0.0
 41
3.0
 42
3.0
 43
3.0
 50
90.0
  0
TEXT
  5
189DC4F
  8
DIM
  6
CONTINUOUS
 62
     0
 10
143.6445471850828
 20
77.92963708563124
 30
0.0
 40
4.0
  1
70
 50
90.0
 41
0.8
  0
POINT
  5
189DC50
  8
DEFPOINTS
 62
     0
 10
133.383606063369
 20
45.32963708563126
 30
0.0
  0
POINT
  5
189DC51
  8
DEFPOINTS
 62
     0
 10
102.350609103751
 20
115.3296370856314
 30
0.0
  0
POINT
  5
189DC52
  8
DEFPOINTS
 62
     0
 10
145.6445471850828
 20
115.3296370856314
 30
0.0
  0
ENDBLK
  8
0
  0
BLOCK
  8
0
  2
*D8
 70
     1
 10
0.0
 20
0.0
 30
0.0
  0
LINE
  5
189DB7D
  8
DIM
 62
     0
 10
83.3836060633689
 20
113.952413687315
 30
0.0
 11
83.3836060633689
 21
127.3259301470409
 31
0.0
  0
LINE
  5
189DB7E
  8
DIM
 62
     0
 10
113.3836060633689
 20
113.952413687315
 30
0.0
 11
113.3836060633689
 21
127.3259301470409
 31
0.0
  0
LINE
  5
189DB7F
  8
DIM
 62
     0
 10
86.3836060633689
 20
125.3259301470409
 30
0.0
 11
110.3836060633689
 21
125.3259301470409
 31
0.0
  0
INSERT
  5
189DB80
  8
DIM
 62
     0
  2
_OPEN
 10
83.3836060633689
 20
125.3259301470409
 30
0.0
 41
3.0
 42
3.0
 43
3.0
 50
180.0
  0
INSERT
  5
189DB81
  8
DIM
 62
     0
  2
_OPEN
 10
113.3836060633689
 20
125.3259301470409
 30
0.0
 41
3.0
 42
3.0
 43
3.0
  0
TEXT
  5
189DB82
  8
DIM
  6
CONTINUOUS
 62
     0
 10
94.65027273003557
 20
127.3259301470409
 30
0.0
 40
4.0
  1
φ30
 41
0.8
  0
POINT
  5
189DB83
  8
DEFPOINTS
 62
     0
 10
83.3836060633689
 20
111.952413687315
 30
0.0
  0
POINT
  5
189DB84
  8
DEFPOINTS
 62
     0
 10
113.3836060633689
 20
111.952413687315
 30
0.0
  0
POINT
  5
189DB85
  8
DEFPOINTS
 62
     0
 10
113.3836060633689
 20
125.3259301470409
 30
0.0
  0
ENDBLK
  8
0
  0
BLOCK
  8
0
  2
*D9
 70
     1
 10
0.0
 20
0.0
 30
0.0
  0
LINE
  5
189DB98
  8
DIM
 62
     0
 10
65.47808460802297
 20
92.42205858637985
 30
0.0
 11
65.33020120496822
 21
92.08110937079688
 31
0.0
  0
LINE
  5
189DB99
  8
DIM
 62
     0
 10
77.40453644135326
 20
87.24907620991146
 30
0.0
 11
77.25665303829851
 21
86.90812699432851
 31
0.0
  0
LINE
  5
189DB9A
  8
DIM
 62
     0
 10
68.87830276288574
 20
92.72218295058576
 30
0.0
 11
75.3002383654482
 21
89.93673090171818
 31
0.0
  0
INSERT
  5
189DB9B
  8
DIM
 62
     0
  2
_OPEN
 10
66.12604464750181
 20
93.91594811438615
 30
0.0
 41
3.0
 42
3.0
 43
3.0
 50
156.5516806289696
  0
INSERT
  5
189DB9C
  8
DIM
 62
     0
  2
_OPEN
 10
78.0524964808321
 20
88.74296573791779
 30
0.0
 41
3.0
 42
3.0
 43
3.0
 50
336.5516806289696
  0
TEXT
  5
189DB9D
  8
DIM
  6
CONTINUOUS
 62
     0
 10
68.9707913537101
 20
94.86209501381292
 30
0.0
 40
4.0
  1
(13)
 50
336.5516806289696
 41
0.8
  0
POINT
  5
189DB9E
  8
DEFPOINTS
 62
     0
 10
66.27392805055656
 20
94.25689732996912
 30
0.0
  0
POINT
  5
189DB9F
  8
DEFPOINTS
 62
     0
 10
78.20037988388685
 20
89.08391495350074
 30
0.0
  0
POINT
  5
189DBA0
  8
DEFPOINTS
 62
     0
 10
78.0524964808321
 20
88.74296573791779
 30
0.0
  0
ENDBLK
  8
0
  0
BLOCK
  8
0
  2
*D10
 70
     1
 10
0.0
 20
0.0
 30
0.0
  0
LINE
  5
189DBD9
  8
DIM
 62
     0
 10
191.5723070719209
 20
84.40529436074144
 30
0.0
 11
191.5723070719209
 21
102.9916510933506
 31
0.0
  0
LINE
  5
189DBDA
  8
DIM
 62
     0
 10
223.5723070719209
 20
84.40529436074144
 30
0.0
 11
223.5723070719209
 21
102.9916510933506
 31
0.0
  0
LINE
  5
189DBDB
  8
DIM
 62
     0
 10
194.5723070719209
 20
100.9916510933506
 30
0.0
 11
220.5723070719209
 21
100.9916510933506
 31
0.0
  0
INSERT
  5
189DBDC
  8
DIM
 62
     0
  2
_OPEN
 10
191.5723070719209
 20
100.9916510933506
 30
0.0
 41
3.0
 42
3.0
 43
3.0
 50
180.0
  0
INSERT
  5
189DBDD
  8
DIM
 62
     0
  2
_OPEN
 10
223.5723070719209
 20
100.9916510933506
 30
0.0
 41
3.0
 42
3.0
 43
3.0
  0
TEXT
  5
189DBDE
  8
DIM
  6
CONTINUOUS
 62
     0
 10
204.9056404052543
 20
102.9916510933506
 30
0.0
 40
4.0
  1
32
 41
0.8
  0
POINT
  5
189DBDF
  8
DEFPOINTS
 62
     0
 10
191.5723070719209
 20
82.40529436074144
 30
0.0
  0
POINT
  5
189DBE0
  8
DEFPOINTS
 62
     0
 10
223.5723070719209
 20
82.40529436074144
 30
0.0
  0
POINT
  5
189DBE1
  8
DEFPOINTS
 62
     0
 10
223.5723070719209
 20
100.9916510933506
 30
0.0
  0
ENDBLK
  8
0
  0
BLOCK
  8
0
  2
*D11
 70
     1
 10
0.0
 20
0.0
 30
0.0
  0
LINE
  5
189DBE2
  8
DIM
 62
     0
 10
225.572307071921
 20
82.40529436074148
 30
0.0
 11
238.8150982400178
 21
82.40529436074148
 31
0.0
  0
LINE
  5
189DBE3
  8
DIM
 62
     0
 10
225.572307071921
 20
79.40529436074148
 30
0.0
 11
238.8150982400178
 21
79.40529436074148
 31
0.0
  0
LINE
  5
189DBE4
  8
DIM
 62
     0
 10
236.8150982400178
 20
85.40529436074148
 30
0.0
 11
236.8150982400178
 21
88.40529436074148
 31
0.0
  0
LINE
  5
189DBE5
  8
DIM
 62
     0
 10
236.8150982400178
 20
76.40529436074148
 30
0.0
 11
236.8150982400178
 21
67.27196102740815
 31
0.0
  0
LINE
  5
189DBE6
  8
DIM
 62
     0
 10
236.8150982400178
 20
82.40529436074148
 30
0.0
 11
236.8150982400178
 21
79.40529436074148
 31
0.0
  0
INSERT
  5
189DBE7
  8
DIM
 62
     0
  2
_OPEN
 10
236.8150982400178
 20
82.40529436074148
 30
0.0
 41
3.0
 42
3.0
 43
3.0
 50
270.0
  0
INSERT
  5
189DBE8
  8
DIM
 62
     0
  2
_OPEN
 10
236.8150982400178
 20
79.40529436074148
 30
0.0
 41
3.0
 42
3.0
 43
3.0
 50
90.0
  0
TEXT
  5
189DBE9
  8
DIM
  6
CONTINUOUS
 62
     0
 10
234.8150982400178
 20
69.27196102740808
 30
0.0
 40
4.0
  1
3
 50
90.0
 41
0.8
  0
POINT
  5
189DBEA
  8
DEFPOINTS
 62
     0
 10
223.572307071921
 20
82.40529436074146
 30
0.0
  0
POINT
  5
189DBEB
  8
DEFPOINTS
 62
     0
 10
223.572307071921
 20
79.40529436074146
 30
0.0
  0
POINT
  5
189DBEC
  8
DEFPOINTS
 62
     0
 10
236.8150982400178
 20
79.40529436074148
 30
0.0
  0
ENDBLK
  8
0
  0
BLOCK
  8
0
  2
*D12
 70
     1
 10
0.0
 20
0.0
 30
0.0
  0
LINE
  5
189DBFF
  8
DIM
 62
     0
 10
205.572307071921
 20
65.22485625509071
 30
0.0
 11
191.1307757893188
 21
65.22485625509071
 31
0.0
  0
LINE
  5
189DC00
  8
DIM
 62
     0
 10
205.572307071921
 20
45.2248562550907
 30
0.0
 11
191.1307757893188
 21
45.2248562550907
 31
0.0
  0
LINE
  5
189DC01
  8
DIM
 62
     0
 10
193.1307757893188
 20
62.22485625509071
 30
0.0
 11
193.1307757893188
 21
48.22485625509071
 31
0.0
  0
INSERT
  5
189DC02
  8
DIM
 62
     0
  2
_OPEN
 10
193.1307757893188
 20
65.22485625509071
 30
0.0
 41
3.0
 42
3.0
 43
3.0
 50
90.0
  0
INSERT
  5
189DC03
  8
DIM
 62
     0
  2
_OPEN
 10
193.1307757893188
 20
45.2248562550907
 30
0.0
 41
3.0
 42
3.0
 43
3.0
 50
270.0
  0
TEXT
  5
189DC04
  8
DIM
  6
CONTINUOUS
 62
     0
 10
191.1307757893188
 20
52.82485625509062
 30
0.0
 40
4.0
  1
20
 50
90.0
 41
0.8
  0
POINT
  5
189DC05
  8
DEFPOINTS
 62
     0
 10
207.572307071921
 20
65.22485625509071
 30
0.0
  0
POINT
  5
189DC06
  8
DEFPOINTS
 62
     0
 10
207.572307071921
 20
45.2248562550907
 30
0.0
  0
POINT
  5
189DC07
  8
DEFPOINTS
 62
     0
 10
193.1307757893188
 20
45.2248562550907
 30
0.0
  0
ENDBLK
  8
0
  0
BLOCK
  8
0
  2
*D13
 70
     1
 10
0.0
 20
0.0
 30
0.0
  0
LINE
  5
189DC5C
  8
DIM
 62
     0
 10
202.5723070719209
 20
48.22485625509069
 30
0.0
 11
202.5723070719209
 21
31.27286165252474
 31
0.0
  0
LINE
  5
189DC5D
  8
DIM
 62
     0
 10
212.5723070719209
 20
48.22485625509071
 30
0.0
 11
212.5723070719209
 21
31.27286165252474
 31
0.0
  0
LINE
  5
189DC5E
  8
DIM
 62
     0
 10
199.5723070719209
 20
33.27286165252474
 30
0.0
 11
196.5723070719209
 21
33.27286165252474
 31
0.0
  0
LINE
  5
189DC5F
  8
DIM
 62
     0
 10
215.5723070719209
 20
33.27286165252474
 30
0.0
 11
218.5723070719209
 21
33.27286165252474
 31
0.0
  0
LINE
  5
189DC60
  8
DIM
 62
     0
 10
202.5723070719209
 20
33.27286165252474
 30
0.0
 11
212.5723070719209
 21
33.27286165252474
 31
0.0
  0
INSERT
  5
189DC61
  8
DIM
 62
     0
  2
_OPEN
 10
202.5723070719209
 20
33.27286165252474
 30
0.0
 41
3.0
 42
3.0
 43
3.0
  0
INSERT
  5
189DC62
  8
DIM
 62
     0
  2
_OPEN
 10
212.5723070719209
 20
33.27286165252474
 30
0.0
 41
3.0
 42
3.0
 43
3.0
 50
180.0
  0
TEXT
  5
189DC63
  8
DIM
  6
CONTINUOUS
 62
     0
 10
205.7056404052543
 20
35.27286165252474
 30
0.0
 40
4.0
  1
10
 41
0.8
  0
POINT
  5
189DC64
  8
DEFPOINTS
 62
     0
 10
202.5723070719209
 20
50.22485625509069
 30
0.0
  0
POINT
  5
189DC65
  8
DEFPOINTS
 62
     0
 10
212.5723070719209
 20
50.22485625509071
 30
0.0
  0
POINT
  5
189DC66
  8
DEFPOINTS
 62
     0
 10
212.5723070719209
 20
33.27286165252474
 30
0.0
  0
ENDBLK
  8
0
  0
BLOCK
  8
0
  2
*D14
 70
     1
 10
0.0
 20
0.0
 30
0.0
  0
LINE
  5
189D464
  8
0
  6
BYBLOCK
 62
     0
 10
21.6341979656695
 20
163.3357141474129
 30
0.0
 11
21.6341979656695
 21
151.607142672741
 31
0.0
  0
LINE
  5
189D465
  8
0
  6
BYBLOCK
 62
     0
 10
36.1341979656695
 20
163.3357141474129
 30
0.0
 11
36.1341979656695
 21
151.607142672741
 31
0.0
  0
LINE
  5
189D466
  8
0
  6
BYBLOCK
 62
     0
 10
24.6341979656695
 20
153.607142672741
 30
0.0
 11
33.1341979656695
 21
153.607142672741
 31
0.0
  0
INSERT
  5
189D467
  8
0
  6
BYBLOCK
 62
     0
  2
_OPEN
 10
21.6341979656695
 20
153.607142672741
 30
0.0
 41
3.0
 42
3.0
 43
3.0
 50
180.0
  0
INSERT
  5
189D468
  8
0
  6
BYBLOCK
 62
     0
  2
_OPEN
 10
36.1341979656695
 20
153.607142672741
 30
0.0
 41
3.0
 42
3.0
 43
3.0
  0
TEXT
  5
189D469
  8
0
  6
CONTINUOUS
 62
     0
 10
25.89753129900283
 20
153.697142672741
 30
0.0
 40
3.2
  1
145
 41
0.8
  0
POINT
  5
189D46A
  8
DEFPOINTS
  6
BYBLOCK
 62
     0
 10
21.6341979656695
 20
165.3357141474129
 30
0.0
  0
POINT
  5
189D46B
  8
DEFPOINTS
  6
BYBLOCK
 62
     0
 10
36.1341979656695
 20
165.3357141474129
 30
0.0
  0
POINT
  5
189D46C
  8
DEFPOINTS
  6
BYBLOCK
 62
     0
 10
36.1341979656695
 20
153.607142672741
 30
0.0
  0
ENDBLK
  8
0
  0
BLOCK
  8
0
  2
*D15
 70
     1
 10
0.0
 20
0.0
 30
0.0
  0
LINE
  5
189D470
  8
0
  6
BYBLOCK
 62
     0
 10
306.1341979656695
 20
163.3357141474129
 30
0.0
 11
306.1341979656695
 21
151.607142672741
 31
0.0
  0
LINE
  5
189D471
  8
0
  6
BYBLOCK
 62
     0
 10
39.1341979656695
 20
153.607142672741
 30
0.0
 11
303.1341979656695
 21
153.607142672741
 31
0.0
  0
INSERT
  5
189D472
  8
0
  6
BYBLOCK
 62
     0
  2
_OPEN
 10
36.1341979656695
 20
153.607142672741
 30
0.0
 41
3.0
 42
3.0
 43
3.0
 50
180.0
  0
INSERT
  5
189D473
  8
0
  6
BYBLOCK
 62
     0
  2
_OPEN
 10
306.1341979656695
 20
153.607142672741
 30
0.0
 41
3.0
 42
3.0
 43
3.0
  0
TEXT
  5
189D474
  8
0
  6
CONTINUOUS
 62
     0
 10
159.8275312990028
 20
153.697142672741
 30
0.0
 40
3.2
  1
6×450＝2700
 41
0.8
  0
POINT
  5
189D475
  8
DEFPOINTS
  6
BYBLOCK
 62
     0
 10
36.1341979656695
 20
165.3357141474129
 30
0.0
  0
POINT
  5
189D476
  8
DEFPOINTS
  6
BYBLOCK
 62
     0
 10
306.1341979656695
 20
165.3357141474129
 30
0.0
  0
POINT
  5
189D477
  8
DEFPOINTS
  6
BYBLOCK
 62
     0
 10
306.1341979656695
 20
153.607142672741
 30
0.0
  0
ENDBLK
  8
0
  0
BLOCK
  8
0
  2
*D16
 70
     1
 10
0.0
 20
0.0
 30
0.0
  0
LINE
  5
189D47B
  8
0
  6
BYBLOCK
 62
     0
 10
320.6341979656695
 20
163.3357141474129
 30
0.0
 11
320.6341979656695
 21
151.607142672741
 31
0.0
  0
LINE
  5
189D47C
  8
0
  6
BYBLOCK
 62
     0
 10
309.1341979656695
 20
153.607142672741
 30
0.0
 11
317.6341979656695
 21
153.607142672741
 31
0.0
  0
INSERT
  5
189D47D
  8
0
  6
BYBLOCK
 62
     0
  2
_OPEN
 10
306.1341979656695
 20
153.607142672741
 30
0.0
 41
3.0
 42
3.0
 43
3.0
 50
180.0
  0
INSERT
  5
189D47E
  8
0
  6
BYBLOCK
 62
     0
  2
_OPEN
 10
320.6341979656695
 20
153.607142672741
 30
0.0
 41
3.0
 42
3.0
 43
3.0
  0
TEXT
  5
189D47F
  8
0
  6
CONTINUOUS
 62
     0
 10
310.3975312990028
 20
153.697142672741
 30
0.0
 40
3.2
  1
145
 41
0.8
  0
POINT
  5
189D480
  8
DEFPOINTS
  6
BYBLOCK
 62
     0
 10
306.1341979656695
 20
165.3357141474129
 30
0.0
  0
POINT
  5
189D481
  8
DEFPOINTS
  6
BYBLOCK
 62
     0
 10
320.6341979656695
 20
165.3357141474129
 30
0.0
  0
POINT
  5
189D482
  8
DEFPOINTS
  6
BYBLOCK
 62
     0
 10
320.6341979656695
 20
153.607142672741
 30
0.0
  0
ENDBLK
  8
0
  0
BLOCK
  8
0
  2
*D17
 70
     1
 10
0.0
 20
0.0
 30
0.0
  0
LINE
  5
189D486
  8
0
  6
BYBLOCK
 62
     0
 10
21.6341979656695
 20
163.3357141474129
 30
0.0
 11
21.6341979656695
 21
142.1785711058682
 31
0.0
  0
LINE
  5
189D487
  8
0
  6
BYBLOCK
 62
     0
 10
320.6341979656695
 20
161.3357141474129
 30
0.0
 11
320.6341979656695
 21
142.1785711058682
 31
0.0
  0
LINE
  5
189D488
  8
0
  6
BYBLOCK
 62
     0
 10
24.6341979656695
 20
144.1785711058682
 30
0.0
 11
317.6341979656695
 21
144.1785711058682
 31
0.0
  0
INSERT
  5
189D489
  8
0
  6
BYBLOCK
 62
     0
  2
_OPEN
 10
21.6341979656695
 20
144.1785711058682
 30
0.0
 41
3.0
 42
3.0
 43
3.0
 50
180.0
  0
INSERT
  5
189D48A
  8
0
  6
BYBLOCK
 62
     0
  2
_OPEN
 10
320.6341979656695
 20
144.1785711058682
 30
0.0
 41
3.0
 42
3.0
 43
3.0
  0
TEXT
  5
189D48B
  8
0
  6
CONTINUOUS
 62
     0
 10
166.6541979656695
 20
144.2685711058682
 30
0.0
 40
3.2
  1
2990
 41
0.8
  0
POINT
  5
189D48C
  8
DEFPOINTS
  6
BYBLOCK
 62
     0
 10
21.6341979656695
 20
165.3357141474129
 30
0.0
  0
POINT
  5
189D48D
  8
DEFPOINTS
  6
BYBLOCK
 62
     0
 10
320.6341979656695
 20
163.3357141474129
 30
0.0
  0
POINT
  5
189D48E
  8
DEFPOINTS
  6
BYBLOCK
 62
     0
 10
320.6341979656695
 20
144.1785711058682
 30
0.0
  0
ENDBLK
  8
0
  0
BLOCK
  8
0
  2
A$CD8B4DF68
 70
     0
 10
0.0
 20
0.0
 30
0.0
  0
LINE
  5
189D491
  8
CEN
 10
0.0
 20
57.78571493112099
 30
0.0
 11
318.6127436673207
 21
57.78571493112099
 31
0.0
  0
CIRCLE
  5
189D492
  8
2
 10
20.5068864353741
 20
57.78571493112099
 30
0.0
 40
1.25
  0
CIRCLE
  5
189D493
  8
2
 10
65.5068864353741
 20
57.78571493112099
 30
0.0
 40
1.25
  0
CIRCLE
  5
189D494
  8
2
 10
110.5068864353741
 20
57.78571493112099
 30
0.0
 40
1.25
  0
CIRCLE
  5
189D495
  8
2
 10
155.5068864353741
 20
57.78571493112099
 30
0.0
 40
1.25
  0
CIRCLE
  5
189D496
  8
2
 10
200.5068864353741
 20
57.78571493112099
 30
0.0
 40
1.25
  0
CIRCLE
  5
189D497
  8
2
 10
245.5068864353741
 20
57.78571493112099
 30
0.0
 40
1.25
  0
CIRCLE
  5
189D498
  8
2
 10
290.5068864353741
 20
57.78571493112099
 30
0.0
 40
1.25
  0
POINT
  5
189D499
  8
DEFPOINTS
  6
BYBLOCK
 62
     0
 10
305.5068864353741
 20
60.28571493112099
 30
0.0
  0
POINT
  5
189D49A
  8
DEFPOINTS
  6
BYBLOCK
 62
     0
 10
20.5068864353741
 20
57.78571493112099
 30
0.0
  0
POINT
  5
189D49B
  8
DEFPOINTS
  6
BYBLOCK
 62
     0
 10
290.5068864353741
 20
57.78571493112099
 30
0.0
  0
POINT
  5
189D49C
  8
DEFPOINTS
  6
BYBLOCK
 62
     0
 10
20.5068864353741
 20
57.78571493112099
 30
0.0
  0
POINT
  5
189D49D
  8
DEFPOINTS
  6
BYBLOCK
 62
     0
 10
290.5068864353741
 20
57.78571493112099
 30
0.0
  0
POINT
  5
189D49E
  8
DEFPOINTS
  6
BYBLOCK
 62
     0
 10
305.5068864353741
 20
60.28571493112099
 30
0.0
  0
LINE
  5
189D49F
  8
DIM
 62
     2
 10
305.5068864353741
 20
62.28571493112099
 30
0.0
 11
305.5068864353741
 21
77.8571435947506
 31
0.0
  0
LINE
  5
189D4A0
  8
DIM
 62
     2
 10
293.5068864353741
 20
75.8571435947506
 30
0.0
 11
302.5068864353741
 21
75.8571435947506
 31
0.0
  0
INSERT
  5
189D4A1
  8
DIM
 62
     2
  2
_OPEN
 10
290.5068864353741
 20
75.8571435947506
 30
0.0
 41
3.0
 42
3.0
 43
3.0
 50
180.0
  0
INSERT
  5
189D4A2
  8
DIM
 62
     2
  2
_OPEN
 10
305.5068864353741
 20
75.8571435947506
 30
0.0
 41
3.0
 42
3.0
 43
3.0
  0
TEXT
  5
189D4A3
  8
DIM
  6
CONTINUOUS
 62
     2
 10
295.2335531020408
 20
76.52782831024201
 30
0.0
 40
3.2
  1
150
 41
0.8
  0
POINT
  5
189D4A4
  8
DEFPOINTS
  6
BYBLOCK
 62
     0
 10
290.5068864353741
 20
57.78571493112099
 30
0.0
  0
POINT
  5
189D4A5
  8
DEFPOINTS
  6
BYBLOCK
 62
     0
 10
305.5068864353741
 20
60.28571493112099
 30
0.0
  0
LINE
  5
189D4A6
  8
DIM
 62
     2
 10
290.5068864353741
 20
59.78571493112099
 30
0.0
 11
290.5068864353741
 21
77.8571435947506
 31
0.0
  0
LINE
  5
189D4A7
  8
DIM
 62
     2
 10
23.5068864353741
 20
75.8571435947506
 30
0.0
 11
287.5068864353741
 21
75.8571435947506
 31
0.0
  0
INSERT
  5
189D4A8
  8
DIM
 62
     2
  2
_OPEN
 10
20.5068864353741
 20
75.8571435947506
 30
0.0
 41
3.0
 42
3.0
 43
3.0
 50
180.0
  0
INSERT
  5
189D4A9
  8
DIM
 62
     2
  2
_OPEN
 10
290.5068864353741
 20
75.8571435947506
 30
0.0
 41
3.0
 42
3.0
 43
3.0
  0
POINT
  5
189D4AA
  8
DEFPOINTS
  6
BYBLOCK
 62
     0
 10
20.5068864353741
 20
57.78571493112099
 30
0.0
  0
POINT
  5
189D4AB
  8
DEFPOINTS
  6
BYBLOCK
 62
     0
 10
290.5068864353741
 20
57.78571493112099
 30
0.0
  0
LINE
  5
189D4AC
  8
DIM
 62
     2
 10
5.506886435374099
 20
62.28571493112099
 30
0.0
 11
5.506886435374099
 21
77.8571435947506
 31
0.0
  0
LINE
  5
189D4AD
  8
DIM
 62
     2
 10
20.5068864353741
 20
59.78571493112099
 30
0.0
 11
20.5068864353741
 21
77.8571435947506
 31
0.0
  0
LINE
  5
189D4AE
  8
DIM
 62
     2
 10
8.5068864353741
 20
75.8571435947506
 30
0.0
 11
17.5068864353741
 21
75.8571435947506
 31
0.0
  0
INSERT
  5
189D4AF
  8
DIM
 62
     2
  2
_OPEN
 10
5.506886435374099
 20
75.8571435947506
 30
0.0
 41
3.0
 42
3.0
 43
3.0
 50
180.0
  0
INSERT
  5
189D4B0
  8
DIM
 62
     2
  2
_OPEN
 10
20.5068864353741
 20
75.8571435947506
 30
0.0
 41
3.0
 42
3.0
 43
3.0
  0
TEXT
  5
189D4B1
  8
DIM
  6
CONTINUOUS
 62
     2
 10
10.23355310204077
 20
76.29555456234682
 30
0.0
 40
3.2
  1
150
 41
0.8
  0
POINT
  5
189D4B2
  8
DEFPOINTS
  6
BYBLOCK
 62
     0
 10
20.5068864353741
 20
57.78571493112099
 30
0.0
  0
LINE
  5
189D4B3
  8
DIM
 62
     2
 10
5.506886435374099
 20
62.28571493112099
 30
0.0
 11
5.506886435374099
 21
91.21428612919021
 31
0.0
  0
LINE
  5
189D4B4
  8
DIM
 62
     2
 10
305.5068864353741
 20
62.28571493112099
 30
0.0
 11
305.5068864353741
 21
91.21428612919021
 31
0.0
  0
LINE
  5
189D4B5
  8
DIM
 62
     2
 10
8.5068864353741
 20
89.21428612919021
 30
0.0
 11
302.5068864353741
 21
89.21428612919021
 31
0.0
  0
INSERT
  5
189D4B6
  8
DIM
 62
     2
  2
_OPEN
 10
5.506886435374099
 20
89.21428612919021
 30
0.0
 41
3.0
 42
3.0
 43
3.0
 50
180.0
  0
INSERT
  5
189D4B7
  8
DIM
 62
     2
  2
_OPEN
 10
305.5068864353741
 20
89.21428612919021
 30
0.0
 41
3.0
 42
3.0
 43
3.0
  0
POINT
  5
189D4B8
  8
DEFPOINTS
  6
BYBLOCK
 62
     0
 10
305.5068864353741
 20
60.28571493112099
 30
0.0
  0
TEXT
  5
189D4B9
  8
DIM
 62
     2
 10
143.2615531020408
 20
76.79450591501299
 30
0.0
 40
3.2
  1
6×450＝2700
 41
0.8
  0
TEXT
  5
189D4BA
  8
DIM
 62
     2
 10
151.4535531020408
 20
90.15880900456486
 30
0.0
 40
3.2
  1
3000
 41
0.8
  0
LINE
  5
189D4BB
  8
2
 10
5.506886435374099
 20
57.78571493112099
 30
0.0
 11
5.506886435374099
 21
61.28571493112099
 31
0.0
  0
LINE
  5
189D4BC
  8
2
 10
5.506886435374099
 20
61.28571493112099
 30
0.0
 11
305.5068864353741
 21
61.28571493112099
 31
0.0
  0
LINE
  5
189D4BD
  8
2
 10
5.506886435374099
 20
57.78571493112099
 30
0.0
 11
5.506886435374099
 21
54.28571493112099
 31
0.0
  0
LINE
  5
189D4BE
  8
2
 10
5.506886435374099
 20
54.28571493112099
 30
0.0
 11
305.5068864353741
 21
54.28571493112099
 31
0.0
  0
LINE
  5
189D4BF
  8
2
 10
305.5068864353741
 20
54.28571493112099
 30
0.0
 11
305.5068864353741
 21
61.28571493112099
 31
0.0
  0
LINE
  5
189D4C0
  8
2
 10
5.506886435374099
 20
26.35714304154476
 30
0.0
 11
5.506886435374099
 21
23.15714304154477
 31
0.0
  0
LINE
  5
189D4C1
  8
2
 10
5.506886435374099
 20
23.15714304154477
 30
0.0
 11
304.5068864353741
 21
23.15714304154477
 31
0.0
  0
LINE
  5
189D4C2
  8
2
 10
5.506886435374099
 20
26.35714304154476
 30
0.0
 11
304.5068864353741
 21
26.35714304154476
 31
0.0
  0
ARC
  5
189D4C3
  8
2
 10
19.5068864353741
 20
24.75714304154477
 30
0.0
 40
0.5
 50
90.0
 51
270.0
  0
LINE
  5
189D4C4
  8
2
 10
20.5068864353741
 20
25.25714304154477
 30
0.0
 11
19.5068864353741
 21
25.25714304154477
 31
0.0
  0
ARC
  5
189D4C5
  8
2
 10
20.5068864353741
 20
24.75714304154477
 30
0.0
 40
0.5
 50
270.0
 51
90.0
  0
LINE
  5
189D4C6
  8
2
 10
19.5068864353741
 20
24.25714304154477
 30
0.0
 11
20.5068864353741
 21
24.25714304154477
 31
0.0
  0
LINE
  5
189D4C7
  8
CEN
 10
20.0068864353741
 20
24.75714304154477
 30
0.0
 11
20.0068864353741
 21
27.78049751071308
 31
0.0
  0
LINE
  5
189D4C8
  8
CEN
 10
20.0068864353741
 20
24.75714304154477
 30
0.0
 11
20.0068864353741
 21
22.10482232096126
 31
0.0
  0
LINE
  5
189D4C9
  8
CEN
 10
20.0068864353741
 20
24.75714304154477
 30
0.0
 11
17.88258808965566
 21
24.75714304154477
 31
0.0
  0
LINE
  5
189D4CA
  8
CEN
 10
20.0068864353741
 20
24.75714304154477
 30
0.0
 11
22.13738864976563
 21
24.75714304154477
 31
0.0
  0
LINE
  5
189D4CB
  8
CEN
 10
65.0068864353741
 20
24.75714304154477
 30
0.0
 11
67.13738864976563
 21
24.75714304154477
 31
0.0
  0
LINE
  5
189D4CC
  8
CEN
 10
65.0068864353741
 20
24.75714304154477
 30
0.0
 11
62.88258808965566
 21
24.75714304154477
 31
0.0
  0
LINE
  5
189D4CD
  8
CEN
 10
65.0068864353741
 20
24.75714304154477
 30
0.0
 11
65.0068864353741
 21
22.10482232096126
 31
0.0
  0
LINE
  5
189D4CE
  8
CEN
 10
65.0068864353741
 20
24.75714304154477
 30
0.0
 11
65.0068864353741
 21
27.78049751071308
 31
0.0
  0
LINE
  5
189D4CF
  8
2
 10
64.5068864353741
 20
24.25714304154477
 30
0.0
 11
65.5068864353741
 21
24.25714304154477
 31
0.0
  0
ARC
  5
189D4D0
  8
2
 10
65.5068864353741
 20
24.75714304154477
 30
0.0
 40
0.5
 50
270.0
 51
90.0
  0
LINE
  5
189D4D1
  8
2
 10
65.5068864353741
 20
25.25714304154477
 30
0.0
 11
64.5068864353741
 21
25.25714304154477
 31
0.0
  0
ARC
  5
189D4D2
  8
2
 10
64.5068864353741
 20
24.75714304154477
 30
0.0
 40
0.5
 50
90.0
 51
270.0
  0
LINE
  5
189D4D3
  8
CEN
 10
110.0068864353741
 20
24.75714304154477
 30
0.0
 11
112.1373886497656
 21
24.75714304154477
 31
0.0
  0
LINE
  5
189D4D4
  8
CEN
 10
110.0068864353741
 20
24.75714304154477
 30
0.0
 11
107.8825880896557
 21
24.75714304154477
 31
0.0
  0
LINE
  5
189D4D5
  8
CEN
 10
110.0068864353741
 20
24.75714304154477
 30
0.0
 11
110.0068864353741
 21
22.10482232096126
 31
0.0
  0
LINE
  5
189D4D6
  8
CEN
 10
110.0068864353741
 20
24.75714304154477
 30
0.0
 11
110.0068864353741
 21
27.78049751071308
 31
0.0
  0
LINE
  5
189D4D7
  8
2
 10
109.5068864353741
 20
24.25714304154477
 30
0.0
 11
110.5068864353741
 21
24.25714304154477
 31
0.0
  0
ARC
  5
189D4D8
  8
2
 10
110.5068864353741
 20
24.75714304154477
 30
0.0
 40
0.5
 50
270.0
 51
90.0
  0
LINE
  5
189D4D9
  8
2
 10
110.5068864353741
 20
25.25714304154477
 30
0.0
 11
109.5068864353741
 21
25.25714304154477
 31
0.0
  0
ARC
  5
189D4DA
  8
2
 10
109.5068864353741
 20
24.75714304154477
 30
0.0
 40
0.5
 50
90.0
 51
270.0
  0
LINE
  5
189D4DB
  8
CEN
 10
155.0068864353741
 20
24.75714304154477
 30
0.0
 11
157.1373886497656
 21
24.75714304154477
 31
0.0
  0
LINE
  5
189D4DC
  8
CEN
 10
155.0068864353741
 20
24.75714304154477
 30
0.0
 11
152.8825880896557
 21
24.75714304154477
 31
0.0
  0
LINE
  5
189D4DD
  8
CEN
 10
155.0068864353741
 20
24.75714304154477
 30
0.0
 11
155.0068864353741
 21
22.10482232096126
 31
0.0
  0
LINE
  5
189D4DE
  8
CEN
 10
155.0068864353741
 20
24.75714304154477
 30
0.0
 11
155.0068864353741
 21
27.78049751071308
 31
0.0
  0
LINE
  5
189D4DF
  8
2
 10
154.5068864353741
 20
24.25714304154477
 30
0.0
 11
155.5068864353741
 21
24.25714304154477
 31
0.0
  0
ARC
  5
189D4E0
  8
2
 10
155.5068864353741
 20
24.75714304154477
 30
0.0
 40
0.5
 50
270.0
 51
90.0
  0
LINE
  5
189D4E1
  8
2
 10
155.5068864353741
 20
25.25714304154477
 30
0.0
 11
154.5068864353741
 21
25.25714304154477
 31
0.0
  0
ARC
  5
189D4E2
  8
2
 10
154.5068864353741
 20
24.75714304154477
 30
0.0
 40
0.5
 50
90.0
 51
270.0
  0
LINE
  5
189D4E3
  8
CEN
 10
200.0068864353741
 20
24.75714304154477
 30
0.0
 11
202.1373886497656
 21
24.75714304154477
 31
0.0
  0
LINE
  5
189D4E4
  8
CEN
 10
200.0068864353741
 20
24.75714304154477
 30
0.0
 11
197.8825880896557
 21
24.75714304154477
 31
0.0
  0
LINE
  5
189D4E5
  8
CEN
 10
200.0068864353741
 20
24.75714304154477
 30
0.0
 11
200.0068864353741
 21
22.10482232096126
 31
0.0
  0
LINE
  5
189D4E6
  8
CEN
 10
200.0068864353741
 20
24.75714304154477
 30
0.0
 11
200.0068864353741
 21
27.78049751071308
 31
0.0
  0
LINE
  5
189D4E7
  8
2
 10
199.5068864353741
 20
24.25714304154477
 30
0.0
 11
200.5068864353741
 21
24.25714304154477
 31
0.0
  0
ARC
  5
189D4E8
  8
2
 10
200.5068864353741
 20
24.75714304154477
 30
0.0
 40
0.5
 50
270.0
 51
90.0
  0
LINE
  5
189D4E9
  8
2
 10
200.5068864353741
 20
25.25714304154477
 30
0.0
 11
199.5068864353741
 21
25.25714304154477
 31
0.0
  0
ARC
  5
189D4EA
  8
2
 10
199.5068864353741
 20
24.75714304154477
 30
0.0
 40
0.5
 50
90.0
 51
270.0
  0
LINE
  5
189D4EB
  8
CEN
 10
245.0068864353741
 20
24.75714304154477
 30
0.0
 11
247.1373886497656
 21
24.75714304154477
 31
0.0
  0
LINE
  5
189D4EC
  8
CEN
 10
245.0068864353741
 20
24.75714304154477
 30
0.0
 11
242.8825880896557
 21
24.75714304154477
 31
0.0
  0
LINE
  5
189D4ED
  8
CEN
 10
245.0068864353741
 20
24.75714304154477
 30
0.0
 11
245.0068864353741
 21
22.10482232096126
 31
0.0
  0
LINE
  5
189D4EE
  8
CEN
 10
245.0068864353741
 20
24.75714304154477
 30
0.0
 11
245.0068864353741
 21
27.78049751071308
 31
0.0
  0
LINE
  5
189D4EF
  8
2
 10
244.5068864353741
 20
24.25714304154477
 30
0.0
 11
245.5068864353741
 21
24.25714304154477
 31
0.0
  0
ARC
  5
189D4F0
  8
2
 10
245.5068864353741
 20
24.75714304154477
 30
0.0
 40
0.5
 50
270.0
 51
90.0
  0
LINE
  5
189D4F1
  8
2
 10
245.5068864353741
 20
25.25714304154477
 30
0.0
 11
244.5068864353741
 21
25.25714304154477
 31
0.0
  0
ARC
  5
189D4F2
  8
2
 10
244.5068864353741
 20
24.75714304154477
 30
0.0
 40
0.5
 50
90.0
 51
270.0
  0
LINE
  5
189D4F3
  8
CEN
 10
290.0068864353741
 20
24.75714304154477
 30
0.0
 11
292.1373886497656
 21
24.75714304154477
 31
0.0
  0
LINE
  5
189D4F4
  8
CEN
 10
290.0068864353741
 20
24.75714304154477
 30
0.0
 11
287.8825880896557
 21
24.75714304154477
 31
0.0
  0
LINE
  5
189D4F5
  8
CEN
 10
290.0068864353741
 20
24.75714304154477
 30
0.0
 11
290.0068864353741
 21
22.10482232096126
 31
0.0
  0
LINE
  5
189D4F6
  8
CEN
 10
290.0068864353741
 20
24.75714304154477
 30
0.0
 11
290.0068864353741
 21
27.78049751071308
 31
0.0
  0
LINE
  5
189D4F7
  8
2
 10
289.5068864353741
 20
24.25714304154477
 30
0.0
 11
290.5068864353741
 21
24.25714304154477
 31
0.0
  0
ARC
  5
189D4F8
  8
2
 10
290.5068864353741
 20
24.75714304154477
 30
0.0
 40
0.5
 50
270.0
 51
90.0
  0
LINE
  5
189D4F9
  8
2
 10
290.5068864353741
 20
25.25714304154477
 30
0.0
 11
289.5068864353741
 21
25.25714304154477
 31
0.0
  0
ARC
  5
189D4FA
  8
2
 10
289.5068864353741
 20
24.75714304154477
 30
0.0
 40
0.5
 50
90.0
 51
270.0
  0
DIMENSION
  5
189D4FB
  8
DIM
  2
*D14
 10
20.0068864353741
 20
11.42857156687285
 30
0.0
 11
12.7568864353741
 21
13.11857156687284
 31
0.0
 12
-16.1273115302954
 22
-142.1785711058682
 32
0.0
 70
     0
  1
145
 13
5.506886435374099
 23
23.15714304154477
 33
0.0
 14
20.0068864353741
 24
23.15714304154477
 34
0.0
  0
DIMENSION
  5
189D4FC
  8
DIM
  2
*D15
 10
290.0068864353741
 20
11.42857156687285
 30
0.0
 11
155.0068864353741
 21
13.11857156687284
 31
0.0
 12
-16.1273115302954
 22
-142.1785711058682
 32
0.0
 70
     0
  1
6×450＝2700
 13
20.0068864353741
 23
23.15714304154477
 33
0.0
 14
290.0068864353741
 24
23.15714304154477
 34
0.0
  0
DIMENSION
  5
189D4FD
  8
DIM
  2
*D16
 10
304.5068864353741
 20
11.42857156687285
 30
0.0
 11
297.2568864353741
 21
13.11857156687284
 31
0.0
 12
-16.1273115302954
 22
-142.1785711058682
 32
0.0
 70
     0
  1
145
 13
290.0068864353741
 23
23.15714304154477
 33
0.0
 14
304.5068864353741
 24
23.15714304154477
 34
0.0
  0
DIMENSION
  5
189D4FE
  8
DIM
  2
*D17
 10
304.5068864353741
 20
2.0
 30
0.0
 11
155.0068864353741
 21
3.689999999999998
 31
0.0
 12
-16.1273115302954
 22
-142.1785711058682
 32
0.0
 70
     0
  1
2990
 13
5.506886435374099
 23
23.15714304154477
 33
0.0
 14
304.5068864353741
 24
21.15714304154477
 34
0.0
  0
LINE
  5
189D4FF
  8
2
 10
304.5068864353741
 20
26.35714304154476
 30
0.0
 11
304.5068864353741
 21
23.15714304154477
 31
0.0
  0
LINE
  5
189D500
  8
DIM
 10
308.7495271224934
 20
28.8872873579233
 30
0.0
 11
311.2359407164174
 21
31.37370095184735
 31
0.0
  0
LINE
  5
189D501
  8
DIM
 62
     2
 10
306.6282067789338
 20
26.7659670143637
 30
0.0
 11
308.7495271224934
 21
28.8872873579233
 31
0.0
  0
LINE
  5
189D502
  8
DIM
 62
     2
 10
306.981760169527
 20
26.41241362377042
 30
0.0
 11
304.5068864353741
 21
24.64464667080404
 31
0.0
  0
LINE
  5
189D503
  8
DIM
 62
     2
 10
304.5068864353741
 20
24.64464667080404
 30
0.0
 11
306.2746533883405
 21
27.11952040495686
 31
0.0
  0
LINE
  5
189D504
  8
DIM
 62
     2
 10
304.5068864353741
 20
24.64464667080404
 30
0.0
 11
306.6282067789338
 21
26.7659670143637
 31
0.0
  0
TEXT
  5
189D505
  8
DIM
 10
313.8832381404769
 20
32.96543806438933
 30
0.0
 40
3.5
  1
2
 50
0.0000000000000254
 41
0.8
  0
CIRCLE
  5
189D506
  8
DIM
 10
314.7714746223502
 20
34.90923485778006
 30
0.0
 40
5.0
  0
LINE
  5
189D507
  8
DIM
 62
     2
 10
305.5068864353741
 20
59.54764091460765
 30
0.0
 11
307.6282067789338
 21
61.66896125816731
 31
0.0
  0
LINE
  5
189D508
  8
DIM
 62
     2
 10
305.5068864353741
 20
59.54764091460765
 30
0.0
 11
307.2746533883405
 21
62.02251464876048
 31
0.0
  0
LINE
  5
189D509
  8
DIM
 62
     2
 10
307.981760169527
 20
61.31540786757404
 30
0.0
 11
305.5068864353741
 21
59.54764091460765
 31
0.0
  0
LINE
  5
189D50A
  8
DIM
 62
     2
 10
307.6282067789338
 20
61.66896125816731
 30
0.0
 11
309.7495271224934
 21
63.79028160172692
 31
0.0
  0
CIRCLE
  5
189D50B
  8
DIM
 10
315.7714746223502
 20
69.81222910158368
 30
0.0
 40
5.0
  0
LINE
  5
189D50C
  8
DIM
 10
309.7495271224934
 20
63.79028160172692
 30
0.0
 11
312.2359407164174
 21
66.27669519565097
 31
0.0
  0
TEXT
  5
189D50D
  8
DIM
 10
314.4799722766425
 20
68.04718871512216
 30
0.0
 40
3.5
  1
１
 41
0.8
  0
LINE
  5
189D50E
  8
CEN
 10
20.5068864353741
 20
57.78571493112099
 30
0.0
 11
20.5068864353741
 21
60.30938982619864
 31
0.0
  0
LINE
  5
189D50F
  8
CEN
 10
20.5068864353741
 20
57.78571493112099
 30
0.0
 11
20.5068864353741
 21
55.12984187447466
 31
0.0
  0
LINE
  5
189D510
  8
CEN
 10
65.5068864353741
 20
57.78571493112099
 30
0.0
 11
65.5068864353741
 21
55.12984187447466
 31
0.0
  0
LINE
  5
189D511
  8
CEN
 10
65.5068864353741
 20
57.78571493112099
 30
0.0
 11
65.5068864353741
 21
60.30938982619864
 31
0.0
  0
LINE
  5
189D512
  8
CEN
 10
110.5068864353741
 20
57.78571493112099
 30
0.0
 11
110.5068864353741
 21
55.12984187447466
 31
0.0
  0
LINE
  5
189D513
  8
CEN
 10
110.5068864353741
 20
57.78571493112099
 30
0.0
 11
110.5068864353741
 21
60.30938982619864
 31
0.0
  0
LINE
  5
189D514
  8
CEN
 10
155.5068864353741
 20
57.78571493112099
 30
0.0
 11
155.5068864353741
 21
55.12984187447466
 31
0.0
  0
LINE
  5
189D515
  8
CEN
 10
155.5068864353741
 20
57.78571493112099
 30
0.0
 11
155.5068864353741
 21
60.30938982619864
 31
0.0
  0
LINE
  5
189D516
  8
CEN
 10
200.5068864353741
 20
57.78571493112099
 30
0.0
 11
200.5068864353741
 21
55.12984187447466
 31
0.0
  0
LINE
  5
189D517
  8
CEN
 10
200.5068864353741
 20
57.78571493112099
 30
0.0
 11
200.5068864353741
 21
60.30938982619864
 31
0.0
  0
LINE
  5
189D518
  8
CEN
 10
245.5068864353741
 20
57.78571493112099
 30
0.0
 11
245.5068864353741
 21
55.12984187447466
 31
0.0
  0
LINE
  5
189D519
  8
CEN
 10
245.5068864353741
 20
57.78571493112099
 30
0.0
 11
245.5068864353741
 21
60.30938982619864
 31
0.0
  0
LINE
  5
189D51A
  8
CEN
 10
290.5068864353741
 20
57.78571493112099
 30
0.0
 11
290.5068864353741
 21
55.12984187447466
 31
0.0
  0
LINE
  5
189D51B
  8
CEN
 10
290.5068864353741
 20
57.78571493112099
 30
0.0
 11
290.5068864353741
 21
60.30938982619864
 31
0.0
  0
ENDBLK
  8
0
  0
BLOCK
  8
0
  2
*D19
 70
     1
 10
0.0
 20
0.0
 30
0.0
  0
LINE
  5
189DB62
  8
DIM
 62
     0
 10
28.2907532006659
 20
155.4954250538134
 30
0.0
 11
28.2907532006659
 21
143.7668535791415
 31
0.0
  0
LINE
  5
189DB63
  8
DIM
 62
     0
 10
42.7907532006659
 20
155.4954250538134
 30
0.0
 11
42.7907532006659
 21
143.7668535791415
 31
0.0
  0
LINE
  5
189DB64
  8
DIM
 62
     0
 10
31.2907532006659
 20
145.7668535791415
 30
0.0
 11
39.7907532006659
 21
145.7668535791415
 31
0.0
  0
INSERT
  5
189DB65
  8
DIM
 62
     0
  2
_OPEN
 10
28.2907532006659
 20
145.7668535791415
 30
0.0
 41
3.0
 42
3.0
 43
3.0
 50
180.0
  0
INSERT
  5
189DB66
  8
DIM
 62
     0
  2
_OPEN
 10
42.7907532006659
 20
145.7668535791415
 30
0.0
 41
3.0
 42
3.0
 43
3.0
  0
TEXT
  5
189DB67
  8
DIM
  6
CONTINUOUS
 62
     0
 10
31.80741986733257
 20
147.7668535791415
 30
0.0
 40
4.0
  1
145
 41
0.8
  0
POINT
  5
189DB68
  8
DEFPOINTS
 62
     0
 10
28.2907532006659
 20
157.4954250538134
 30
0.0
  0
POINT
  5
189DB69
  8
DEFPOINTS
 62
     0
 10
42.7907532006659
 20
157.4954250538134
 30
0.0
  0
POINT
  5
189DB6A
  8
DEFPOINTS
 62
     0
 10
42.7907532006659
 20
145.7668535791415
 30
0.0
  0
ENDBLK
  8
0
  0
BLOCK
  8
0
  2
*D20
 70
     1
 10
0.0
 20
0.0
 30
0.0
  0
LINE
  5
189DB52
  8
DIM
 62
     0
 10
312.7907532006659
 20
155.4954250538134
 30
0.0
 11
312.7907532006659
 21
143.7668535791415
 31
0.0
  0
LINE
  5
189DB53
  8
DIM
 62
     0
 10
45.7907532006659
 20
145.7668535791415
 30
0.0
 11
309.7907532006659
 21
145.7668535791415
 31
0.0
  0
INSERT
  5
189DB54
  8
DIM
 62
     0
  2
_OPEN
 10
42.7907532006659
 20
145.7668535791415
 30
0.0
 41
3.0
 42
3.0
 43
3.0
 50
180.0
  0
INSERT
  5
189DB55
  8
DIM
 62
     0
  2
_OPEN
 10
312.7907532006659
 20
145.7668535791415
 30
0.0
 41
3.0
 42
3.0
 43
3.0
  0
TEXT
  5
189DB56
  8
DIM
  6
CONTINUOUS
 62
     0
 10
163.6574198673326
 20
147.7668535791415
 30
0.0
 40
4.0
  1
6×450＝2700
 41
0.8
  0
POINT
  5
189DB57
  8
DEFPOINTS
 62
     0
 10
42.7907532006659
 20
157.4954250538134
 30
0.0
  0
POINT
  5
189DB58
  8
DEFPOINTS
 62
     0
 10
312.7907532006659
 20
157.4954250538134
 30
0.0
  0
POINT
  5
189DB59
  8
DEFPOINTS
 62
     0
 10
312.7907532006659
 20
145.7668535791415
 30
0.0
  0
ENDBLK
  8
0
  0
BLOCK
  8
0
  2
*D21
 70
     1
 10
0.0
 20
0.0
 30
0.0
  0
LINE
  5
189DB5A
  8
DIM
 62
     0
 10
327.2907532006659
 20
155.4954250538134
 30
0.0
 11
327.2907532006659
 21
143.7668535791415
 31
0.0
  0
LINE
  5
189DB5B
  8
DIM
 62
     0
 10
315.7907532006659
 20
145.7668535791415
 30
0.0
 11
324.2907532006659
 21
145.7668535791415
 31
0.0
  0
INSERT
  5
189DB5C
  8
DIM
 62
     0
  2
_OPEN
 10
312.7907532006659
 20
145.7668535791415
 30
0.0
 41
3.0
 42
3.0
 43
3.0
 50
180.0
  0
INSERT
  5
189DB5D
  8
DIM
 62
     0
  2
_OPEN
 10
327.2907532006659
 20
145.7668535791415
 30
0.0
 41
3.0
 42
3.0
 43
3.0
  0
TEXT
  5
189DB5E
  8
DIM
  6
CONTINUOUS
 62
     0
 10
316.3074198673326
 20
147.7668535791415
 30
0.0
 40
4.0
  1
145
 41
0.8
  0
POINT
  5
189DB5F
  8
DEFPOINTS
 62
     0
 10
312.7907532006659
 20
157.4954250538134
 30
0.0
  0
POINT
  5
189DB60
  8
DEFPOINTS
 62
     0
 10
327.2907532006659
 20
157.4954250538134
 30
0.0
  0
POINT
  5
189DB61
  8
DEFPOINTS
 62
     0
 10
327.2907532006659
 20
145.7668535791415
 30
0.0
  0
ENDBLK
  8
0
  0
BLOCK
  8
0
  2
*D22
 70
     1
 10
0.0
 20
0.0
 30
0.0
  0
LINE
  5
189DB49
  8
DIM
 62
     0
 10
28.2907532006659
 20
155.4954250538134
 30
0.0
 11
28.2907532006659
 21
134.3382820122687
 31
0.0
  0
LINE
  5
189DB4A
  8
DIM
 62
     0
 10
327.2907532006659
 20
153.4954250538134
 30
0.0
 11
327.2907532006659
 21
134.3382820122687
 31
0.0
  0
LINE
  5
189DB4B
  8
DIM
 62
     0
 10
31.2907532006659
 20
136.3382820122687
 30
0.0
 11
324.2907532006659
 21
136.3382820122687
 31
0.0
  0
INSERT
  5
189DB4C
  8
DIM
 62
     0
  2
_OPEN
 10
28.2907532006659
 20
136.3382820122687
 30
0.0
 41
3.0
 42
3.0
 43
3.0
 50
180.0
  0
INSERT
  5
189DB4D
  8
DIM
 62
     0
  2
_OPEN
 10
327.2907532006659
 20
136.3382820122687
 30
0.0
 41
3.0
 42
3.0
 43
3.0
  0
TEXT
  5
189DB4E
  8
DIM
  6
CONTINUOUS
 62
     0
 10
172.1907532006659
 20
138.3382820122687
 30
0.0
 40
4.0
  1
2990
 41
0.8
  0
POINT
  5
189DB4F
  8
DEFPOINTS
 62
     0
 10
28.2907532006659
 20
157.4954250538134
 30
0.0
  0
POINT
  5
189DB50
  8
DEFPOINTS
 62
     0
 10
327.2907532006659
 20
155.4954250538134
 30
0.0
  0
POINT
  5
189DB51
  8
DEFPOINTS
 62
     0
 10
327.2907532006659
 20
136.3382820122687
 30
0.0
  0
ENDBLK
  8
0
  0
BLOCK
  8
0
  2
_CLOSED
 70
     0
 10
0.0
 20
0.0
 30
0.0
  0
LINE
  5
189D6DB
  8
0
  6
BYBLOCK
 62
     0
 10
-1.0
 20
0.1666666666666667
 30
0.0
 11
0.0
 21
0.0
 31
0.0
  0
LINE
  5
189D6DC
  8
0
  6
BYBLOCK
 62
     0
 10
0.0
 20
0.0
 30
0.0
 11
-1.0
 21
-0.1666666666666667
 31
0.0
  0
LINE
  5
189D6DD
  8
0
  6
BYBLOCK
 62
     0
 10
-1.0
 20
0.1666666666666667
 30
0.0
 11
-1.0
 21
-0.1666666666666667
 31
0.0
  0
LINE
  5
189D6DE
  8
0
  6
BYBLOCK
 62
     0
 10
0.0
 20
0.0
 30
0.0
 11
-1.0
 21
0.0
 31
0.0
  0
ENDBLK
  8
0
  0
BLOCK
  8
0
  2
A$C34CDCB06
 70
     0
 10
0.0
 20
0.0
 30
0.0
  0
CIRCLE
  5
189D9CD
  8
0
  6
DASHED
 10
6.358433258820526
 20
6.358433258820526
 30
0.0
 40
6.358433258820526
  0
TEXT
  5
189D9CE
  8
DIM
 10
3.544173805442938
 20
14.44257645819232
 30
0.0
 40
3.5
  1
"B"
 41
0.8
  0
ENDBLK
  8
0
  0
BLOCK
  8
0
  2
*X25
 70
     1
 10
0.0
 20
0.0
 30
0.0
  0
INSERT
  5
189DC75
  8
DIM
  2
_CLOSED
 10
95.82743436827923
 20
199.6905162714801
 30
0.0
 41
3.0
 42
3.0
 43
3.0
  0
LINE
  5
189DC76
  8
DIM
 10
92.82743436827923
 20
199.6905162714801
 30
0.0
 11
88.09531116729909
 21
199.6905162714801
 31
0.0
  0
ENDBLK
  8
0
  0
BLOCK
  8
0
  2
*X26
 70
     1
 10
0.0
 20
0.0
 30
0.0
  0
INSERT
  5
189DC78
  8
DIM
  2
_CLOSED
 10
95.82743436827923
 20
184.0541466930851
 30
0.0
 41
3.0
 42
3.0
 43
3.0
  0
LINE
  5
189DC79
  8
DIM
 10
92.82743436827923
 20
184.0541466930851
 30
0.0
 11
88.09531116729909
 21
184.0541466930851
 31
0.0
  0
ENDBLK
  8
0
  0
ENDSEC
  0
SECTION
  2
ENTITIES
  0
INSERT
  5
189C7F1
  8
WAKU
  2
WK_A3Y0
 10
0.0
 20
0.0
 30
0.0
  0
INSERT
  5
189C7F9
  8
WAKU
 66
     1
  2
DIMSTAT
 10
0.0
 20
0.0
 30
0.0
  0
ATTRIB
  5
189C7FA
  8
0
 10
0.0
 20
1.0
 30
0.0
 40
1.0
  1
1.000
 41
0.7
 51
15.0
  2
DIMEXT
 70
     1
  0
ATTRIB
  5
189C7FB
  8
0
 10
0.0
 20
0.0
 30
0.0
 40
1.0
  1
10.000 
 41
0.7
 51
15.0
  2
DIMBAL
 70
     1
  0
ATTRIB
  5
189C7FC
  8
0
 10
-0.0444762094363156
 20
-0.911649989012119
 30
0.0
 40
1.0
  1
4.000 
 41
0.7
 51
15.0
 72
     1
 11
1.507190457230351
 21
-0.911649989012119
 31
0.0
  2
SYMSCL
 70
     1
  0
SEQEND
  5
189C7FD
  8
WAKU
  0
INSERT
  5
189C801
  8
WAKU
 66
     1
  2
DIMSTAT2
 10
0.0
 20
0.0
 30
0.0
  0
ATTRIB
  5
189C802
  8
0
 10
0.0
 20
0.0
 30
0.0
 40
1.0
  1
(1.280 1.920 0.000 0.000 0.000 0.000 0.000 3.200 12.000 0 )
 41
0.7
  2
DIMSIZ
 70
     1
  0
SEQEND
  5
189C803
  8
WAKU
  0
POINT
  5
189C901
  8
THN
 10
97.15721905596911
 20
40.46428525328065
 30
0.0
  0
LINE
  5
189CA0B
  8
THN
 10
72.15721905596911
 20
59.00340085453638
 30
0.0
 11
72.15721905596911
 21
10.42630284761617
 31
0.0
  0
LINE
  5
189CA0D
  8
THN
 10
122.1572190559691
 20
10.42630284761617
 30
0.0
 11
122.1572190559691
 21
54.26417206741291
 31
0.0
  0
LINE
  5
189CA0E
  8
THN
 10
97.15721905596911
 20
40.46428525328065
 30
0.0
 11
125.8016869030598
 21
40.46428525328065
 31
0.0
  0
LINE
  5
189CA0F
  8
THN
 10
97.15721905596911
 20
40.46428525328065
 30
0.0
 11
66.4656049077762
 21
40.46428525328065
 31
0.0
  0
LINE
  5
189CA1D
  8
THN
 10
97.15721905596911
 20
90.46428525328065
 30
0.0
 11
66.45555373412708
 21
90.46428525328065
 31
0.0
  0
TEXT
  5
189CAB8
  8
DIM
 10
291.617305808529
 20
30.79693782135507
 30
0.0
 40
5.0
  1
カーストッパー　CSD-0077 3000L
 41
0.8
  0
TEXT
  5
189CAB9
  8
DIM
 10
298.7874382443983
 20
19.56538702759497
 30
0.0
 40
3.2
  1
2021.8.20
 41
0.8
  0
LINE
  5
189CABB
  8
WAKU
 10
269.4999999999999
 20
50.46560095650418
 30
0.0
 11
269.4999999999999
 21
60.06560095650417
 31
0.0
  0
LINE
  5
189CABC
  8
WAKU
 10
269.4999999999999
 20
60.06560095650417
 30
0.0
 11
389.9999999999999
 21
60.06560095650417
 31
0.0
  0
LINE
  5
189CABD
  8
WAKU
 10
269.4999999999999
 20
60.06560095650417
 30
0.0
 11
269.4999999999999
 21
69.06560095650417
 31
0.0
  0
LINE
  5
189CABE
  8
WAKU
 10
269.4999999999999
 20
69.06560095650417
 30
0.0
 11
389.9999999999999
 21
69.06560095650417
 31
0.0
  0
LINE
  5
189CABF
  8
WAKU
 10
285.9999999999999
 20
50.46560095650418
 30
0.0
 11
285.9999999999999
 21
69.06560095650417
 31
0.0
  0
LINE
  5
189CAC0
  8
WAKU
 10
329.8
 20
50.46560095650418
 30
0.0
 11
329.8
 21
69.06560095650417
 31
0.0
  0
LINE
  5
189CAC2
  8
WAKU
 10
362.8
 20
50.46560095650418
 30
0.0
 11
362.8
 21
69.06560095650417
 31
0.0
  0
LINE
  5
189CAC3
  8
WAKU
 10
345.8
 20
50.46560095650418
 30
0.0
 11
345.8
 21
69.06560095650417
 31
0.0
  0
TEXT
  5
189CAC4
  8
DIM
 10
274.5222305841228
 20
52.62324542773231
 30
0.0
 40
5.0
  1
１
 41
0.8
  0
TEXT
  5
189CAC5
  8
DIM
 10
274.5222305841228
 20
62.22642044068894
 30
0.0
 40
5.0
  1
２
 41
0.8
  0
TEXT
  5
189CAC6
  8
DIM
 10
288.532950255882
 20
52.62324542773231
 30
0.0
 40
5.0
  1
ゴ　ム
 41
0.8
  0
TEXT
  5
189CAC7
  8
DIM
 10
288.532950255882
 20
62.22642044068894
 30
0.0
 40
5.0
  1
当　板
 41
0.8
  0
TEXT
  5
189CACA
  8
DIM
 10
365.1798273801699
 20
52.62324542773231
 30
0.0
 40
3.2
  1
Hs 75
 41
0.8
  0
TEXT
  5
189CACC
  8
DIM
 10
377.5974766843947
 20
54.2695044162862
 30
0.0
 40
2.5
  1
±5
 41
0.8
  0
TEXT
  5
189CACD
  8
DIM
 10
347.5977476120731
 20
52.62324542773231
 30
0.0
 40
3.2
  1
合成ゴム
 41
0.8
  0
TEXT
  5
189CACE
  8
DIM
 10
347.5977476120731
 20
61.67766744450424
 30
0.0
 40
3.2
  1
SS400
 41
0.8
  0
TEXT
  5
189CACF
  8
DIM
 10
365.1798273801699
 20
61.67766744450424
 30
0.0
 40
3.2
  1
全面黒塗装
 41
0.8
  0
LINE
  5
189CBA9
  8
THN
 10
35.53419796566945
 20
154.9581280517933
 30
0.0
 11
36.73419796566944
 21
154.9581280517933
 31
0.0
  0
POINT
  5
189CBAA
  8
THN
 10
36.13419796566944
 20
154.9581280517933
 30
0.0
  0
POINT
  5
189CBAB
  8
THN
 10
81.13419796566944
 20
154.9581280517933
 30
0.0
  0
LINE
  5
189CBAC
  8
THN
 10
80.53419796566945
 20
154.9581280517933
 30
0.0
 11
81.73419796566944
 21
154.9581280517933
 31
0.0
  0
POINT
  5
189CBB5
  8
THN
 10
126.1341979656694
 20
154.9581280517933
 30
0.0
  0
LINE
  5
189CBB6
  8
THN
 10
125.5341979656694
 20
154.9581280517933
 30
0.0
 11
126.7341979656694
 21
154.9581280517933
 31
0.0
  0
POINT
  5
189CBBF
  8
THN
 10
171.1341979656694
 20
154.9581280517933
 30
0.0
  0
LINE
  5
189CBC0
  8
THN
 10
170.5341979656694
 20
154.9581280517933
 30
0.0
 11
171.7341979656694
 21
154.9581280517933
 31
0.0
  0
POINT
  5
189CBC9
  8
THN
 10
216.1341979656694
 20
154.9581280517933
 30
0.0
  0
LINE
  5
189CBCA
  8
THN
 10
215.5341979656694
 20
154.9581280517933
 30
0.0
 11
216.7341979656694
 21
154.9581280517933
 31
0.0
  0
POINT
  5
189CBD3
  8
THN
 10
261.1341979656694
 20
154.9581280517933
 30
0.0
  0
LINE
  5
189CBD4
  8
THN
 10
260.5341979656694
 20
154.9581280517933
 30
0.0
 11
261.7341979656695
 21
154.9581280517933
 31
0.0
  0
POINT
  5
189CBDD
  8
THN
 10
306.1341979656694
 20
154.9581280517933
 30
0.0
  0
LINE
  5
189CBDE
  8
THN
 10
305.5341979656694
 20
154.9581280517933
 30
0.0
 11
306.7341979656695
 21
154.9581280517933
 31
0.0
  0
POINT
  5
189CC55
  8
THN
 10
178.8521686270337
 20
37.3111488125852
 30
0.0
  0
TEXT
  5
189CC9C
  8
DIM
 10
336.3040854897181
 20
61.92772122069962
 30
0.0
 40
3.5
  1
１
 41
0.8
  0
TEXT
  5
189CC9D
  8
DIM
 10
336.3040854897181
 20
53.41581618987541
 30
0.0
 40
3.5
  1
１
 41
0.8
  0
TEXT
  5
189CCD7
  8
DIM
 10
184.4032201050952
 20
2.769551323399924
 30
0.0
 40
3.5
  1
( )寸法は参考値を示す。保証値ではありません。
 41
0.8
  0
TEXT
  5
189CD21
  8
DIM
 10
363.2447005438396
 20
19.44686450729193
 30
0.0
 40
3.5
  1
N.T.S
 41
0.8
  0
LINE
  5
189D359
  8
CEN
 10
98.38360606336892
 20
103.8757449752931
 30
0.0
 11
98.38360606336892
 21
40.61535164794827
 31
0.0
  0
LINE
  5
189D35A
  8
DIM
 62
     2
 10
217.3248648633637
 20
79.40529436074144
 30
0.0
 11
218.8248648633637
 21
76.80721814938812
 31
0.0
  0
LINE
  5
189D35B
  8
DIM
 62
     2
 10
217.3248648633637
 20
79.40529436074144
 30
0.0
 11
219.2578775652559
 21
77.05721814938809
 31
0.0
  0
LINE
  5
189D35C
  8
DIM
 62
     2
 10
218.3918521614715
 20
76.55721814938812
 30
0.0
 11
217.3248648633637
 21
79.40529436074144
 31
0.0
  0
LINE
  5
189D35D
  8
DIM
 62
     2
 10
218.8248648633637
 20
76.80721814938812
 30
0.0
 11
220.3248648633637
 21
74.2091419380348
 31
0.0
  0
LINE
  5
189D35E
  8
DIM
 10
220.3248648633637
 20
74.2091419380348
 30
0.0
 11
222.0830247764618
 21
71.163919640718
 31
0.0
  0
CIRCLE
  5
189D35F
  8
DIM
 10
224.5830247764618
 20
66.83379262179582
 30
0.0
 40
5.0
  0
TEXT
  5
189D360
  8
DIM
 10
223.3687048246306
 20
64.88999582840506
 30
0.0
 40
3.5
  1
2
 41
0.8
  0
CIRCLE
  5
189D361
  8
DIM
 10
73.6254461502708
 20
123.2120279570322
 30
0.0
 40
5.0
  0
LINE
  5
189D362
  8
DIM
 10
77.8836060633689
 20
115.8366786407932
 30
0.0
 11
76.1254461502708
 21
118.88190093811
 31
0.0
  0
LINE
  5
189D363
  8
DIM
 62
     2
 10
79.3836060633689
 20
113.2386024294399
 30
0.0
 11
77.8836060633689
 21
115.8366786407932
 31
0.0
  0
LINE
  5
189D364
  8
DIM
 62
     2
 10
79.81661876526111
 20
113.4886024294399
 30
0.0
 11
80.8836060633689
 21
110.6405262180866
 31
0.0
  0
LINE
  5
189D365
  8
DIM
 62
     2
 10
80.8836060633689
 20
110.6405262180866
 30
0.0
 11
78.95059336147672
 21
112.9886024294399
 31
0.0
  0
LINE
  5
189D366
  8
DIM
 62
     2
 10
80.8836060633689
 20
110.6405262180866
 30
0.0
 11
79.3836060633689
 21
113.2386024294399
 31
0.0
  0
TEXT
  5
189D367
  8
DIM
 10
71.99193601982334
 20
121.6994444339668
 30
0.0
 40
3.5
  1
１
 41
0.8
  0
LINE
  5
189D368
  8
CEN
 10
207.5723070719209
 20
74.55800031527144
 30
0.0
 11
207.5723070719209
 21
91.31159087323181
 31
0.0
  0
LINE
  5
189D369
  8
CEN
 10
98.38360606336892
 20
103.8757449752931
 30
0.0
 11
98.38360606336892
 21
119.5120828666412
 31
0.0
  0
ARC
  5
189D36A
  8
2
 10
98.38360606336892
 20
80.32963708563125
 30
0.0
 40
35.0
 50
0.0
 51
180.0
  0
ARC
  5
189D36B
  8
2
 10
98.38360606336892
 20
80.32963708563125
 30
0.0
 40
22.0
 50
0.0
 51
180.0
  0
LINE
  5
189D36C
  8
2
 10
63.38360606336892
 20
80.32963708563125
 30
0.0
 11
63.38360606336892
 21
46.89529971896869
 31
0.0
  0
LINE
  5
189D36D
  8
2
 10
64.94783282095719
 20
45.39667537524218
 30
0.0
 11
98.38360606336892
 21
46.82963708563125
 31
0.0
  0
LINE
  5
189D36E
  8
2
 10
98.38360606336892
 20
46.82963708563125
 30
0.0
 11
131.8193793057806
 21
45.39667537524218
 31
0.0
  0
LINE
  5
189D36F
  8
2
 10
133.3836060633689
 20
46.89529971896869
 30
0.0
 11
133.3836060633689
 21
80.32963708563125
 31
0.0
  0
LINE
  5
189D370
  8
2
 10
76.38360606336892
 20
80.32963708563125
 30
0.0
 11
76.38360606336892
 21
61.46528542234348
 31
0.0
  0
LINE
  5
189D371
  8
2
 10
77.9478319924805
 20
59.96666104311106
 30
0.0
 11
98.38360606336892
 21
60.84246861371092
 31
0.0
  0
LINE
  5
189D372
  8
2
 10
118.8193801342573
 20
59.96666104311106
 30
0.0
 11
98.38360606336892
 21
60.84246861371092
 31
0.0
  0
LINE
  5
189D373
  8
2
 10
120.3836060633689
 20
80.32963708563125
 30
0.0
 11
120.3836060633689
 21
61.46528542234348
 31
0.0
  0
LINE
  5
189D374
  8
2
 10
202.5723070719209
 20
82.40529436074144
 30
0.0
 11
202.5723070719209
 21
79.40529436074144
 31
0.0
  0
LINE
  5
189D375
  8
2
 10
212.5723070719209
 20
82.40529436074144
 30
0.0
 11
212.5723070719209
 21
79.40529436074144
 31
0.0
  0
LINE
  5
189D376
  8
2
 10
223.5723070719209
 20
82.40529436074144
 30
0.0
 11
191.5723070719209
 21
82.40529436074144
 31
0.0
  0
LINE
  5
189D377
  8
2
 10
191.5723070719209
 20
82.40529436074144
 30
0.0
 11
191.5723070719209
 21
79.40529436074144
 31
0.0
  0
LINE
  5
189D378
  8
2
 10
191.5723070719209
 20
79.40529436074144
 30
0.0
 11
223.5723070719209
 21
79.40529436074144
 31
0.0
  0
LINE
  5
189D379
  8
2
 10
223.5723070719209
 20
79.40529436074144
 30
0.0
 11
223.5723070719209
 21
82.40529436074144
 31
0.0
  0
LINE
  5
189D37A
  8
2
 10
83.3836060633689
 20
111.952413687315
 30
0.0
 11
83.3836060633689
 21
96.42311402506232
 31
0.0
  0
LINE
  5
189D37B
  8
2
 10
113.3836060633689
 20
96.42311402506235
 30
0.0
 11
113.3836060633689
 21
111.952413687315
 31
0.0
  0
LINE
  5
189D37C
  8
2
 10
88.38360606336892
 20
60.41390272354116
 30
0.0
 11
88.38360606336892
 21
46.40106565705982
 31
0.0
  0
LINE
  5
189D37D
  8
2
 10
108.3836060633689
 20
46.40106565705982
 30
0.0
 11
108.3836060633689
 21
60.41390272354116
 31
0.0
  0
DIMENSION
  5
189D37E
  8
DIM
  2
*D5
 10
108.3836060633689
 20
30.6037075918706
 30
0.0
 11
98.38360606336892
 21
34.6037075918706
 31
0.0
 70
    32
  1
φ20
 13
88.38360606336892
 23
46.40106565705982
 33
0.0
 14
108.3836060633689
 24
46.40106565705982
 34
0.0
  0
DIMENSION
  5
189D37F
  8
DIM
  2
*D6
 10
133.3836060633689
 20
21.58254291334799
 30
0.0
 11
98.38360606336892
 21
25.58254291334799
 31
0.0
 70
    32
  1
70
 13
63.38360606336892
 23
45.32963708563125
 33
0.0
 14
133.3836060633689
 24
45.32963708563125
 34
0.0
  0
DIMENSION
  5
189D380
  8
DIM
  2
*D7
 10
145.6445471850828
 20
115.3296370856314
 30
0.0
 11
141.6445471850828
 21
80.32963708563125
 31
0.0
 70
    32
  1
70
 13
133.3836060633689
 23
45.32963708563125
 33
0.0
 14
102.3506091037509
 24
115.3296370856313
 34
0.0
 50
90.0
  0
DIMENSION
  5
189D381
  8
DIM
  2
*D8
 10
113.3836060633689
 20
125.3259301470409
 30
0.0
 11
98.3836060633689
 21
129.3259301470409
 31
0.0
 70
    32
  1
φ30
 13
83.3836060633689
 23
111.952413687315
 33
0.0
 14
113.3836060633689
 24
111.952413687315
 34
0.0
  0
DIMENSION
  5
189D382
  8
DIM
  2
*D9
 10
78.0524964808321
 20
88.74296573791779
 30
0.0
 11
73.68095744923414
 21
94.99913441333052
 31
0.0
 70
    33
  1
(13)
 13
66.27392805055656
 23
94.25689732996912
 33
0.0
 14
78.20037988388685
 24
89.08391495350075
 34
0.0
  0
DIMENSION
  5
189D383
  8
DIM
  2
*D10
 10
223.5723070719209
 20
100.9916510933506
 30
0.0
 11
207.5723070719209
 21
104.9916510933506
 31
0.0
 70
    32
  1
32
 13
191.5723070719209
 23
82.40529436074144
 33
0.0
 14
223.5723070719209
 24
82.40529436074144
 34
0.0
  0
DIMENSION
  5
189D384
  8
DIM
  2
*D11
 10
236.8150982400178
 20
79.40529436074148
 30
0.0
 11
236.8150982400178
 21
70.33862769407473
 31
0.0
 70
   160
  1
3
 13
223.5723070719209
 23
82.40529436074144
 33
0.0
 14
223.5723070719209
 24
79.40529436074144
 34
0.0
 50
90.0
  0
LINE
  5
189D385
  8
0
  6
BYBLOCK
 62
     0
 10
82.16521569984435
 20
60.14740483004894
 30
0.0
 11
82.17520928814423
 21
60.14783312669036
 31
0.0
  0
LINE
  5
189D386
  8
0
  6
BYBLOCK
 62
     0
 10
82.76466502549101
 20
46.16025389829363
 30
0.0
 11
82.77465861379089
 21
46.16068219493506
 31
0.0
  0
LINE
  5
189D387
  8
DIM
 62
     2
 10
80.30549701168546
 20
57.06494876245299
 30
0.0
 11
80.648039306979
 21
49.07229520560369
 31
0.0
  0
INSERT
  5
189D388
  8
DIM
 62
     2
  2
_OPEN
 10
80.1770434965089
 20
60.06219744990599
 30
0.0
 41
3.0
 42
3.0
 43
3.0
 50
92.45403167452709
  0
INSERT
  5
189D389
  8
DIM
 62
     2
  2
_OPEN
 10
80.77649282215556
 20
46.07504651815068
 30
0.0
 41
3.0
 42
3.0
 43
3.0
 50
272.4540316745271
  0
TEXT
  5
189D38A
  8
DIM
  6
CONTINUOUS
 62
     2
 10
79.36629552537096
 20
48.99513297587015
 30
0.0
 40
4.0
  1
(15)
 50
92.45403167452709
 41
0.8
  0
POINT
  5
189D38B
  8
DEFPOINTS
  6
BYBLOCK
 62
     0
 10
80.16704990820901
 20
60.06176915326456
 30
0.0
  0
POINT
  5
189D38C
  8
DEFPOINTS
  6
BYBLOCK
 62
     0
 10
80.76649923385567
 20
46.07461822150925
 30
0.0
  0
POINT
  5
189D38D
  8
DEFPOINTS
  6
BYBLOCK
 62
     0
 10
80.77649282215556
 20
46.07504651815068
 30
0.0
  0
LINE
  5
189D38E
  8
DIM
 62
     2
 10
98.38360606336892
 20
80.32963708563129
 30
0.0
 11
128.2928086323467
 21
91.7067897033935
 31
0.0
  0
INSERT
  5
189D38F
  8
DIM
 62
     2
  2
_OPEN
 10
131.0967963731884
 20
92.77339776130873
 30
0.0
 41
3.0
 42
3.0
 43
3.0
 50
20.82629933496052
  0
TEXT
  5
189D390
  8
DIM
  6
CONTINUOUS
 62
     2
 10
105.8919416820032
 20
84.08115110517863
 30
0.0
 40
4.0
  1
(Ｒ35)
 50
20.82629933496052
 41
0.8
  0
POINT
  5
189D391
  8
DEFPOINTS
  6
BYBLOCK
 62
     0
 10
131.0967963731884
 20
92.77339776130873
 30
0.0
  0
POINT
  5
189D392
  8
DEFPOINTS
  6
BYBLOCK
 62
     0
 10
98.38360606336892
 20
80.32963708563129
 30
0.0
  0
POINT
  5
189D393
  8
DEFPOINTS
  6
BYBLOCK
 62
     0
 10
202.5723070719209
 20
82.40529436074144
 30
0.0
  0
POINT
  5
189D394
  8
DEFPOINTS
  6
BYBLOCK
 62
     0
 10
212.5723070719209
 20
82.40529436074144
 30
0.0
  0
ARC
  5
189D395
  8
2
 10
77.88360606336892
 20
61.46528542234348
 30
0.0
 40
1.5
 50
180.0
 51
272.4540000000002
  0
ARC
  5
189D396
  8
2
 10
64.88360606336892
 20
46.89529971896869
 30
0.0
 40
1.5
 50
180.0
 51
272.4540316745268
  0
ARC
  5
189D397
  8
2
 10
118.8836060633689
 20
61.46528542234348
 30
0.0
 40
1.5
 50
267.5459999999997
 51
0.0
  0
ARC
  5
189D398
  8
2
 10
131.8836060633689
 20
46.89529971896869
 30
0.0
 40
1.5
 50
267.5459683254732
 51
0.0
  0
LINE
  5
189D399
  8
CEN
 10
207.5723070719209
 20
74.55800031527144
 30
0.0
 11
207.5723070719209
 21
40.91986713341794
 31
0.0
  0
LINE
  5
189D39A
  8
CEN
 10
200.8728850799
 20
55.22485625509069
 30
0.0
 11
214.4215746990697
 21
55.22485625509069
 31
0.0
  0
LINE
  5
189D39B
  8
2
 10
212.5723070719209
 20
50.22485625509069
 30
0.0
 11
212.5723070719209
 21
60.22485625509068
 31
0.0
  0
LINE
  5
189D39C
  8
2
 10
202.5723070719209
 20
60.22485625509068
 30
0.0
 11
202.5723070719209
 21
50.22485625509069
 31
0.0
  0
ARC
  5
189D39D
  8
2
 10
207.5723070719209
 20
60.22485625509068
 30
0.0
 40
5.0
 50
0.0
 51
180.0
  0
ARC
  5
189D39E
  8
2
 10
207.5723070719209
 20
50.22485625509069
 30
0.0
 40
5.0
 50
180.0
 51
0.0
  0
DIMENSION
  5
189D39F
  8
DIM
  2
*D12
 10
193.1307757893188
 20
45.2248562550907
 30
0.0
 11
189.1307757893188
 21
55.22485625509064
 31
0.0
 70
    32
  1
20
 13
207.5723070719209
 23
65.22485625509069
 33
0.0
 14
207.5723070719209
 24
45.22485625509069
 34
0.0
 50
90.0
  0
DIMENSION
  5
189D3A0
  8
DIM
  2
*D13
 10
212.5723070719209
 20
33.27286165252474
 30
0.0
 11
207.5723070719209
 21
37.27286165252474
 31
0.0
 70
    32
  1
10
 13
202.5723070719209
 23
50.22485625509069
 33
0.0
 14
212.5723070719209
 24
50.22485625509071
 34
0.0
  0
LINE
  5
189D5DB
  8
CEN
 10
22.7838667652918
 20
192.1239969433897
 30
0.0
 11
341.3966104326125
 21
192.1239969433897
 31
0.0
  0
CIRCLE
  5
189D5DC
  8
2
 10
43.2907532006659
 20
192.1239969433897
 30
0.0
 40
1.25
  0
CIRCLE
  5
189D5DD
  8
2
 10
88.2907532006659
 20
192.1239969433897
 30
0.0
 40
1.25
  0
CIRCLE
  5
189D5DE
  8
2
 10
133.2907532006659
 20
192.1239969433897
 30
0.0
 40
1.25
  0
CIRCLE
  5
189D5DF
  8
2
 10
178.2907532006659
 20
192.1239969433897
 30
0.0
 40
1.25
  0
CIRCLE
  5
189D5E0
  8
2
 10
223.2907532006659
 20
192.1239969433897
 30
0.0
 40
1.25
  0
CIRCLE
  5
189D5E1
  8
2
 10
268.2907532006659
 20
192.1239969433897
 30
0.0
 40
1.25
  0
CIRCLE
  5
189D5E2
  8
2
 10
313.2907532006659
 20
192.1239969433897
 30
0.0
 40
1.25
  0
POINT
  5
189D5E3
  8
DEFPOINTS
  6
BYBLOCK
 62
     0
 10
328.2907532006659
 20
194.6239969433897
 30
0.0
  0
POINT
  5
189D5E4
  8
DEFPOINTS
  6
BYBLOCK
 62
     0
 10
43.2907532006659
 20
192.1239969433897
 30
0.0
  0
POINT
  5
189D5E5
  8
DEFPOINTS
  6
BYBLOCK
 62
     0
 10
313.2907532006659
 20
192.1239969433897
 30
0.0
  0
POINT
  5
189D5E6
  8
DEFPOINTS
  6
BYBLOCK
 62
     0
 10
43.2907532006659
 20
192.1239969433897
 30
0.0
  0
POINT
  5
189D5E7
  8
DEFPOINTS
  6
BYBLOCK
 62
     0
 10
313.2907532006659
 20
192.1239969433897
 30
0.0
  0
POINT
  5
189D5E8
  8
DEFPOINTS
  6
BYBLOCK
 62
     0
 10
328.2907532006659
 20
194.6239969433897
 30
0.0
  0
LINE
  5
189D5E9
  8
DIM
 62
     2
 10
328.2907532006659
 20
196.6239969433897
 30
0.0
 11
328.2907532006659
 21
212.1954256070193
 31
0.0
  0
LINE
  5
189D5EA
  8
DIM
 62
     2
 10
316.2907532006659
 20
210.1954256070193
 30
0.0
 11
325.2907532006659
 21
210.1954256070193
 31
0.0
  0
INSERT
  5
189D5EB
  8
DIM
 62
     2
  2
_OPEN
 10
313.2907532006659
 20
210.1954256070193
 30
0.0
 41
3.0
 42
3.0
 43
3.0
 50
180.0
  0
INSERT
  5
189D5EC
  8
DIM
 62
     2
  2
_OPEN
 10
328.2907532006659
 20
210.1954256070193
 30
0.0
 41
3.0
 42
3.0
 43
3.0
  0
TEXT
  5
189D5ED
  8
DIM
  6
CONTINUOUS
 62
     2
 10
317.3240865339993
 20
212.606192189512
 30
0.0
 40
4.0
  1
150
 41
0.8
  0
POINT
  5
189D5EE
  8
DEFPOINTS
  6
BYBLOCK
 62
     0
 10
313.2907532006659
 20
192.1239969433897
 30
0.0
  0
POINT
  5
189D5EF
  8
DEFPOINTS
  6
BYBLOCK
 62
     0
 10
328.2907532006659
 20
194.6239969433897
 30
0.0
  0
LINE
  5
189D5F1
  8
DIM
 62
     2
 10
46.2907532006659
 20
210.1954256070193
 30
0.0
 11
310.2907532006659
 21
210.1954256070193
 31
0.0
  0
INSERT
  5
189D5F2
  8
DIM
 62
     2
  2
_OPEN
 10
43.2907532006659
 20
210.1954256070193
 30
0.0
 41
3.0
 42
3.0
 43
3.0
 50
180.0
  0
INSERT
  5
189D5F3
  8
DIM
 62
     2
  2
_OPEN
 10
313.2907532006659
 20
210.1954256070193
 30
0.0
 41
3.0
 42
3.0
 43
3.0
  0
POINT
  5
189D5F4
  8
DEFPOINTS
  6
BYBLOCK
 62
     0
 10
43.2907532006659
 20
192.1239969433897
 30
0.0
  0
POINT
  5
189D5F5
  8
DEFPOINTS
  6
BYBLOCK
 62
     0
 10
313.2907532006659
 20
192.1239969433897
 30
0.0
  0
LINE
  5
189D5F6
  8
DIM
 62
     2
 10
28.2907532006659
 20
196.6239969433897
 30
0.0
 11
28.2907532006659
 21
212.1954256070193
 31
0.0
  0
LINE
  5
189D5F7
  8
DIM
 62
     2
 10
43.2907532006659
 20
196.8902409429504
 30
0.0
 11
43.2907532006659
 21
212.1954256070193
 31
0.0
  0
LINE
  5
189D5F8
  8
DIM
 62
     2
 10
31.2907532006659
 20
210.1954256070193
 30
0.0
 11
40.2907532006659
 21
210.1954256070193
 31
0.0
  0
INSERT
  5
189D5F9
  8
DIM
 62
     2
  2
_OPEN
 10
28.2907532006659
 20
210.1954256070193
 30
0.0
 41
3.0
 42
3.0
 43
3.0
 50
180.0
  0
INSERT
  5
189D5FA
  8
DIM
 62
     2
  2
_OPEN
 10
43.2907532006659
 20
210.1954256070193
 30
0.0
 41
3.0
 42
3.0
 43
3.0
  0
TEXT
  5
189D5FB
  8
DIM
  6
CONTINUOUS
 62
     2
 10
32.32408653399924
 20
212.3739184416168
 30
0.0
 40
4.0
  1
150
 41
0.8
  0
POINT
  5
189D5FC
  8
DEFPOINTS
  6
BYBLOCK
 62
     0
 10
43.2907532006659
 20
192.1239969433897
 30
0.0
  0
LINE
  5
189D5FD
  8
DIM
 62
     2
 10
28.2907532006659
 20
196.6239969433897
 30
0.0
 11
28.2907532006659
 21
225.5525681414589
 31
0.0
  0
LINE
  5
189D5FE
  8
DIM
 62
     2
 10
328.2907532006659
 20
196.6239969433897
 30
0.0
 11
328.2907532006659
 21
225.5525681414589
 31
0.0
  0
LINE
  5
189D5FF
  8
DIM
 62
     2
 10
31.2907532006659
 20
223.5525681414589
 30
0.0
 11
325.2907532006659
 21
223.5525681414589
 31
0.0
  0
INSERT
  5
189D600
  8
DIM
 62
     2
  2
_OPEN
 10
28.2907532006659
 20
223.5525681414589
 30
0.0
 41
3.0
 42
3.0
 43
3.0
 50
180.0
  0
INSERT
  5
189D601
  8
DIM
 62
     2
  2
_OPEN
 10
328.2907532006659
 20
223.5525681414589
 30
0.0
 41
3.0
 42
3.0
 43
3.0
  0
POINT
  5
189D602
  8
DEFPOINTS
  6
BYBLOCK
 62
     0
 10
328.2907532006659
 20
194.6239969433897
 30
0.0
  0
TEXT
  5
189D603
  8
DIM
 62
     2
 10
166.0454198673326
 20
213.272869794283
 30
0.0
 40
4.0
  1
6×450＝2700
 41
0.8
  0
TEXT
  5
189D604
  8
DIM
 62
     2
 10
174.2374198673326
 20
226.6371728838348
 30
0.0
 40
4.0
  1
3000
 41
0.8
  0
LINE
  5
189D605
  8
2
 10
28.2907532006659
 20
192.1239969433897
 30
0.0
 11
28.2907532006659
 21
195.6239969433897
 31
0.0
  0
LINE
  5
189D606
  8
2
 10
28.2907532006659
 20
195.6239969433897
 30
0.0
 11
328.2907532006659
 21
195.6239969433897
 31
0.0
  0
LINE
  5
189D607
  8
2
 10
28.2907532006659
 20
192.1239969433897
 30
0.0
 11
28.2907532006659
 21
188.6239969433897
 31
0.0
  0
LINE
  5
189D608
  8
2
 10
28.2907532006659
 20
188.6239969433897
 30
0.0
 11
328.2907532006659
 21
188.6239969433897
 31
0.0
  0
LINE
  5
189D609
  8
2
 10
328.2907532006659
 20
188.6239969433897
 30
0.0
 11
328.2907532006659
 21
195.6239969433897
 31
0.0
  0
LINE
  5
189D60A
  8
2
 10
28.2907532006659
 20
160.6954250538134
 30
0.0
 11
28.2907532006659
 21
157.4954250538134
 31
0.0
  0
LINE
  5
189D60B
  8
2
 10
28.2907532006659
 20
157.4954250538134
 30
0.0
 11
327.2907532006659
 21
157.4954250538134
 31
0.0
  0
LINE
  5
189D60C
  8
2
 10
28.2907532006659
 20
160.6954250538134
 30
0.0
 11
327.2907532006659
 21
160.6954250538134
 31
0.0
  0
ARC
  5
189D60D
  8
2
 10
42.2907532006659
 20
159.0954250538134
 30
0.0
 40
0.5
 50
90.0
 51
270.0
  0
LINE
  5
189D60E
  8
2
 10
43.2907532006659
 20
159.5954250538134
 30
0.0
 11
42.2907532006659
 21
159.5954250538134
 31
0.0
  0
ARC
  5
189D60F
  8
2
 10
43.2907532006659
 20
159.0954250538134
 30
0.0
 40
0.5
 50
270.0
 51
90.0
  0
LINE
  5
189D610
  8
2
 10
42.2907532006659
 20
158.5954250538134
 30
0.0
 11
43.2907532006659
 21
158.5954250538134
 31
0.0
  0
LINE
  5
189D611
  8
CEN
 10
42.7907532006659
 20
159.0954250538134
 30
0.0
 11
42.7907532006659
 21
159.8566364091697
 31
0.0
  0
LINE
  5
189D612
  8
CEN
 10
42.7907532006659
 20
159.0954250538134
 30
0.0
 11
42.7907532006659
 21
158.3253842531791
 31
0.0
  0
LINE
  5
189D613
  8
CEN
 10
42.7907532006659
 20
159.0954250538134
 30
0.0
 11
41.57241131795445
 21
159.0954250538134
 31
0.0
  0
LINE
  5
189D614
  8
CEN
 10
42.7907532006659
 20
159.0954250538134
 30
0.0
 11
44.023045325054
 21
159.0954250538134
 31
0.0
  0
LINE
  5
189D619
  8
2
 10
87.2907532006659
 20
158.5954250538134
 30
0.0
 11
88.2907532006659
 21
158.5954250538134
 31
0.0
  0
ARC
  5
189D61A
  8
2
 10
88.2907532006659
 20
159.0954250538134
 30
0.0
 40
0.5
 50
270.0
 51
90.0
  0
LINE
  5
189D61B
  8
2
 10
88.2907532006659
 20
159.5954250538134
 30
0.0
 11
87.2907532006659
 21
159.5954250538134
 31
0.0
  0
ARC
  5
189D61C
  8
2
 10
87.2907532006659
 20
159.0954250538134
 30
0.0
 40
0.5
 50
90.0
 51
270.0
  0
LINE
  5
189D621
  8
2
 10
132.2907532006659
 20
158.5954250538134
 30
0.0
 11
133.2907532006659
 21
158.5954250538134
 31
0.0
  0
ARC
  5
189D622
  8
2
 10
133.2907532006659
 20
159.0954250538134
 30
0.0
 40
0.5
 50
270.0
 51
90.0
  0
LINE
  5
189D623
  8
2
 10
133.2907532006659
 20
159.5954250538134
 30
0.0
 11
132.2907532006659
 21
159.5954250538134
 31
0.0
  0
ARC
  5
189D624
  8
2
 10
132.2907532006659
 20
159.0954250538134
 30
0.0
 40
0.5
 50
90.0
 51
270.0
  0
LINE
  5
189D629
  8
2
 10
177.2907532006659
 20
158.5954250538134
 30
0.0
 11
178.2907532006659
 21
158.5954250538134
 31
0.0
  0
ARC
  5
189D62A
  8
2
 10
178.2907532006659
 20
159.0954250538134
 30
0.0
 40
0.5
 50
270.0
 51
90.0
  0
LINE
  5
189D62B
  8
2
 10
178.2907532006659
 20
159.5954250538134
 30
0.0
 11
177.2907532006659
 21
159.5954250538134
 31
0.0
  0
ARC
  5
189D62C
  8
2
 10
177.2907532006659
 20
159.0954250538134
 30
0.0
 40
0.5
 50
90.0
 51
270.0
  0
LINE
  5
189D631
  8
2
 10
222.2907532006659
 20
158.5954250538134
 30
0.0
 11
223.2907532006659
 21
158.5954250538134
 31
0.0
  0
ARC
  5
189D632
  8
2
 10
223.2907532006659
 20
159.0954250538134
 30
0.0
 40
0.5
 50
270.0
 51
90.0
  0
LINE
  5
189D633
  8
2
 10
223.2907532006659
 20
159.5954250538134
 30
0.0
 11
222.2907532006659
 21
159.5954250538134
 31
0.0
  0
ARC
  5
189D634
  8
2
 10
222.2907532006659
 20
159.0954250538134
 30
0.0
 40
0.5
 50
90.0
 51
270.0
  0
LINE
  5
189D639
  8
2
 10
267.2907532006659
 20
158.5954250538134
 30
0.0
 11
268.2907532006659
 21
158.5954250538134
 31
0.0
  0
ARC
  5
189D63A
  8
2
 10
268.2907532006659
 20
159.0954250538134
 30
0.0
 40
0.5
 50
270.0
 51
90.0
  0
LINE
  5
189D63B
  8
2
 10
268.2907532006659
 20
159.5954250538134
 30
0.0
 11
267.2907532006659
 21
159.5954250538134
 31
0.0
  0
ARC
  5
189D63C
  8
2
 10
267.2907532006659
 20
159.0954250538134
 30
0.0
 40
0.5
 50
90.0
 51
270.0
  0
LINE
  5
189D641
  8
2
 10
312.2907532006659
 20
158.5954250538134
 30
0.0
 11
313.2907532006659
 21
158.5954250538134
 31
0.0
  0
ARC
  5
189D642
  8
2
 10
313.2907532006659
 20
159.0954250538134
 30
0.0
 40
0.5
 50
270.0
 51
90.0
  0
LINE
  5
189D643
  8
2
 10
313.2907532006659
 20
159.5954250538134
 30
0.0
 11
312.2907532006659
 21
159.5954250538134
 31
0.0
  0
ARC
  5
189D644
  8
2
 10
312.2907532006659
 20
159.0954250538134
 30
0.0
 40
0.5
 50
90.0
 51
270.0
  0
DIMENSION
  5
189D645
  8
DIM
  2
*D19
 10
42.7907532006659
 20
145.7668535791415
 30
0.0
 11
35.5407532006659
 21
149.7668535791415
 31
0.0
 70
    32
  1
145
 13
28.2907532006659
 23
157.4954250538134
 33
0.0
 14
42.7907532006659
 24
157.4954250538134
 34
0.0
  0
DIMENSION
  5
189D646
  8
DIM
  2
*D20
 10
312.7907532006659
 20
145.7668535791415
 30
0.0
 11
177.7907532006659
 21
149.7668535791415
 31
0.0
 70
    32
  1
6×450＝2700
 13
42.7907532006659
 23
157.4954250538134
 33
0.0
 14
312.7907532006659
 24
157.4954250538134
 34
0.0
  0
DIMENSION
  5
189D647
  8
DIM
  2
*D21
 10
327.2907532006659
 20
145.7668535791415
 30
0.0
 11
320.0407532006659
 21
149.7668535791415
 31
0.0
 70
    32
  1
145
 13
312.7907532006659
 23
157.4954250538134
 33
0.0
 14
327.2907532006659
 24
157.4954250538134
 34
0.0
  0
DIMENSION
  5
189D648
  8
DIM
  2
*D22
 10
327.2907532006659
 20
136.3382820122687
 30
0.0
 11
177.7907532006659
 21
140.3382820122687
 31
0.0
 70
    32
  1
2990
 13
28.2907532006659
 23
157.4954250538134
 33
0.0
 14
327.2907532006659
 24
155.4954250538134
 34
0.0
  0
LINE
  5
189D649
  8
2
 10
327.2907532006659
 20
160.6954250538134
 30
0.0
 11
327.2907532006659
 21
157.4954250538134
 31
0.0
  0
LINE
  5
189D64A
  8
DIM
 10
331.5333938877852
 20
163.225569370192
 30
0.0
 11
334.0198074817092
 21
165.711982964116
 31
0.0
  0
LINE
  5
189D64B
  8
DIM
 62
     2
 10
329.4120735442256
 20
161.1042490266324
 30
0.0
 11
331.5333938877852
 21
163.225569370192
 31
0.0
  0
LINE
  5
189D64C
  8
DIM
 62
     2
 10
329.7656269348188
 20
160.7506956360391
 30
0.0
 11
327.2907532006659
 21
158.9829286830727
 31
0.0
  0
LINE
  5
189D64D
  8
DIM
 62
     2
 10
327.2907532006659
 20
158.9829286830727
 30
0.0
 11
329.0585201536323
 21
161.4578024172255
 31
0.0
  0
LINE
  5
189D64E
  8
DIM
 62
     2
 10
327.2907532006659
 20
158.9829286830727
 30
0.0
 11
329.4120735442256
 21
161.1042490266324
 31
0.0
  0
TEXT
  5
189D64F
  8
DIM
 10
336.6671049057687
 20
167.303720076658
 30
0.0
 40
3.5
  1
2
 50
0.0000000000000254
 41
0.8
  0
CIRCLE
  5
189D650
  8
DIM
 10
337.555341387642
 20
169.2475168700487
 30
0.0
 40
5.0
  0
LINE
  5
189D651
  8
DIM
 62
     2
 10
328.2907532006659
 20
193.8859229268763
 30
0.0
 11
330.4120735442256
 21
196.007243270436
 31
0.0
  0
LINE
  5
189D652
  8
DIM
 62
     2
 10
328.2907532006659
 20
193.8859229268763
 30
0.0
 11
330.0585201536323
 21
196.3607966610292
 31
0.0
  0
LINE
  5
189D653
  8
DIM
 62
     2
 10
330.7656269348188
 20
195.6536898798427
 30
0.0
 11
328.2907532006659
 21
193.8859229268763
 31
0.0
  0
LINE
  5
189D654
  8
DIM
 62
     2
 10
330.4120735442256
 20
196.007243270436
 30
0.0
 11
332.5333938877852
 21
198.1285636139956
 31
0.0
  0
CIRCLE
  5
189D655
  8
DIM
 10
338.555341387642
 20
204.1505111138524
 30
0.0
 40
5.0
  0
LINE
  5
189D656
  8
DIM
 10
332.5333938877852
 20
198.1285636139956
 30
0.0
 11
335.0198074817092
 21
200.6149772079197
 31
0.0
  0
TEXT
  5
189D657
  8
DIM
 10
337.2638390419343
 20
202.3854707273908
 30
0.0
 40
3.5
  1
１
 41
0.8
  0
LINE
  5
189D658
  8
CEN
 10
43.2907532006659
 20
192.1239969433897
 30
0.0
 11
43.2907532006659
 21
193.6734118770089
 31
0.0
  0
LINE
  5
189D659
  8
CEN
 10
43.2907532006659
 20
192.1239969433897
 30
0.0
 11
43.2907532006659
 21
190.2591673241395
 31
0.0
  0
TEXT
  5
189D8A0
  8
DIM
 10
199.5511406070407
 20
25.02156524779593
 30
0.0
 40
3.5
  1
"B"部詳細
 41
0.8
  0
LINE
  5
189D8A1
  8
DIM
 10
195.8824681558867
 20
23.76268652505019
 30
0.0
 11
219.1401170667596
 21
23.76268652505019
 31
0.0
  0
CIRCLE
  5
189D98B
  8
0
  6
DASHED
 10
87.82993873058064
 20
158.6041124620206
 30
0.0
 40
6.358433258820526
  0
TEXT
  5
189D98C
  8
DIM
 10
85.01567927720305
 20
166.6882556613924
 30
0.0
 40
3.5
  1
"B"
 41
0.8
  0
LINE
  5
189D9DF
  8
DIM
 10
88.09531116729909
 20
197.8866574677925
 30
0.0
 11
88.09531116729909
 21
199.6905162714801
 31
0.0
  0
INSERT
  5
189D9E0
  8
DIM
  2
*X25
 10
0.0
 20
0.0
 30
0.0
  0
LINE
  5
189D9E1
  8
DIM
 10
88.09531116729909
 20
185.8580054967727
 30
0.0
 11
88.09531116729909
 21
184.0541466930851
 31
0.0
  0
INSERT
  5
189D9E2
  8
DIM
  2
*X26
 10
0.0
 20
0.0
 30
0.0
  0
TEXT
  5
189D9E3
  8
DIM
 10
97.0315594207886
 20
198.5085564005477
 30
0.0
 40
3.5
  1
"A"
 41
0.8
  0
TEXT
  5
189D9E4
  8
DIM
 10
97.0315594207886
 20
182.4323242211165
 30
0.0
 40
3.5
  1
"A"
 41
0.8
  0
TEXT
  5
189D9ED
  8
DIM
 10
92.05840952561289
 20
14.35542630735472
 30
0.0
 40
3.5
  1
"A"-"A"断面
 41
0.8
  0
LINE
  5
189D9EE
  8
DIM
 10
88.38973707445894
 20
13.09654758460897
 30
0.0
 11
116.4738786050109
 21
13.09654758460897
 31
0.0
  0
LINE
  5
189DA59
  8
CEN
 10
87.7907532006659
 20
159.0954250538134
 30
0.0
 11
87.7907532006659
 21
159.8566364091697
 31
0.0
  0
LINE
  5
189DA5A
  8
CEN
 10
87.7907532006659
 20
159.0954250538134
 30
0.0
 11
87.7907532006659
 21
158.3253842531791
 31
0.0
  0
LINE
  5
189DA5B
  8
CEN
 10
87.7907532006659
 20
159.0954250538134
 30
0.0
 11
86.57241131795445
 21
159.0954250538134
 31
0.0
  0
LINE
  5
189DA5C
  8
CEN
 10
87.7907532006659
 20
159.0954250538134
 30
0.0
 11
89.023045325054
 21
159.0954250538134
 31
0.0
  0
LINE
  5
189DA67
  8
CEN
 10
132.7907532006659
 20
159.0954250538134
 30
0.0
 11
132.7907532006659
 21
159.8566364091697
 31
0.0
  0
LINE
  5
189DA68
  8
CEN
 10
132.7907532006659
 20
159.0954250538134
 30
0.0
 11
132.7907532006659
 21
158.3253842531791
 31
0.0
  0
LINE
  5
189DA69
  8
CEN
 10
132.7907532006659
 20
159.0954250538134
 30
0.0
 11
131.5724113179544
 21
159.0954250538134
 31
0.0
  0
LINE
  5
189DA6A
  8
CEN
 10
132.7907532006659
 20
159.0954250538134
 30
0.0
 11
134.023045325054
 21
159.0954250538134
 31
0.0
  0
LINE
  5
189DA75
  8
CEN
 10
177.7907532006659
 20
159.0954250538134
 30
0.0
 11
177.7907532006659
 21
159.8566364091697
 31
0.0
  0
LINE
  5
189DA76
  8
CEN
 10
177.7907532006659
 20
159.0954250538134
 30
0.0
 11
177.7907532006659
 21
158.3253842531791
 31
0.0
  0
LINE
  5
189DA77
  8
CEN
 10
177.7907532006659
 20
159.0954250538134
 30
0.0
 11
176.5724113179544
 21
159.0954250538134
 31
0.0
  0
LINE
  5
189DA78
  8
CEN
 10
177.7907532006659
 20
159.0954250538134
 30
0.0
 11
179.023045325054
 21
159.0954250538134
 31
0.0
  0
LINE
  5
189DA83
  8
CEN
 10
222.7907532006659
 20
159.0954250538134
 30
0.0
 11
222.7907532006659
 21
159.8566364091697
 31
0.0
  0
LINE
  5
189DA84
  8
CEN
 10
222.7907532006659
 20
159.0954250538134
 30
0.0
 11
222.7907532006659
 21
158.3253842531791
 31
0.0
  0
LINE
  5
189DA85
  8
CEN
 10
222.7907532006659
 20
159.0954250538134
 30
0.0
 11
221.5724113179544
 21
159.0954250538134
 31
0.0
  0
LINE
  5
189DA86
  8
CEN
 10
222.7907532006659
 20
159.0954250538134
 30
0.0
 11
224.023045325054
 21
159.0954250538134
 31
0.0
  0
LINE
  5
189DA91
  8
CEN
 10
267.7907532006659
 20
159.0954250538134
 30
0.0
 11
267.7907532006659
 21
159.8566364091697
 31
0.0
  0
LINE
  5
189DA92
  8
CEN
 10
267.7907532006659
 20
159.0954250538134
 30
0.0
 11
267.7907532006659
 21
158.3253842531791
 31
0.0
  0
LINE
  5
189DA93
  8
CEN
 10
267.7907532006659
 20
159.0954250538134
 30
0.0
 11
266.5724113179544
 21
159.0954250538134
 31
0.0
  0
LINE
  5
189DA94
  8
CEN
 10
267.7907532006659
 20
159.0954250538134
 30
0.0
 11
269.023045325054
 21
159.0954250538134
 31
0.0
  0
LINE
  5
189DA9F
  8
CEN
 10
312.7907532006659
 20
159.0954250538134
 30
0.0
 11
312.7907532006659
 21
159.8566364091697
 31
0.0
  0
LINE
  5
189DAA0
  8
CEN
 10
312.7907532006659
 20
159.0954250538134
 30
0.0
 11
312.7907532006659
 21
158.3253842531791
 31
0.0
  0
LINE
  5
189DAA1
  8
CEN
 10
312.7907532006659
 20
159.0954250538134
 30
0.0
 11
311.5724113179544
 21
159.0954250538134
 31
0.0
  0
LINE
  5
189DAA2
  8
CEN
 10
312.7907532006659
 20
159.0954250538134
 30
0.0
 11
314.023045325054
 21
159.0954250538134
 31
0.0
  0
LINE
  5
189DAAB
  8
CEN
 10
88.2907532006659
 20
192.1239969433897
 30
0.0
 11
88.2907532006659
 21
193.6734118770089
 31
0.0
  0
LINE
  5
189DAAC
  8
CEN
 10
88.2907532006659
 20
192.1239969433897
 30
0.0
 11
88.2907532006659
 21
190.2591673241395
 31
0.0
  0
LINE
  5
189DAB5
  8
CEN
 10
133.2907532006659
 20
192.1239969433897
 30
0.0
 11
133.2907532006659
 21
193.6734118770089
 31
0.0
  0
LINE
  5
189DAB6
  8
CEN
 10
133.2907532006659
 20
192.1239969433897
 30
0.0
 11
133.2907532006659
 21
190.2591673241395
 31
0.0
  0
LINE
  5
189DABF
  8
CEN
 10
178.2907532006659
 20
192.1239969433897
 30
0.0
 11
178.2907532006659
 21
193.6734118770089
 31
0.0
  0
LINE
  5
189DAC0
  8
CEN
 10
178.2907532006659
 20
192.1239969433897
 30
0.0
 11
178.2907532006659
 21
190.2591673241395
 31
0.0
  0
LINE
  5
189DAC9
  8
CEN
 10
223.2907532006659
 20
192.1239969433897
 30
0.0
 11
223.2907532006659
 21
193.6734118770089
 31
0.0
  0
LINE
  5
189DACA
  8
CEN
 10
223.2907532006659
 20
192.1239969433897
 30
0.0
 11
223.2907532006659
 21
190.2591673241395
 31
0.0
  0
LINE
  5
189DAD3
  8
CEN
 10
268.2907532006659
 20
192.1239969433897
 30
0.0
 11
268.2907532006659
 21
193.6734118770089
 31
0.0
  0
LINE
  5
189DAD4
  8
CEN
 10
268.2907532006659
 20
192.1239969433897
 30
0.0
 11
268.2907532006659
 21
190.2591673241395
 31
0.0
  0
LINE
  5
189DADD
  8
CEN
 10
313.2907532006659
 20
192.1239969433897
 30
0.0
 11
313.2907532006659
 21
193.6734118770089
 31
0.0
  0
LINE
  5
189DADE
  8
CEN
 10
313.2907532006659
 20
192.1239969433897
 30
0.0
 11
313.2907532006659
 21
190.2591673241395
 31
0.0
  0
LINE
  5
189DAF7
  8
DIM
 62
     2
 10
313.2907532006659
 20
196.3982135091237
 30
0.0
 11
313.2907532006659
 21
212.4794646200226
 31
0.0
  0
ENDSEC
  0
EOF
