  0
SECTION
  2
HEADER
  9
$ACADVER
  1
AC1006
  9
$DWGCODEPAGE
  3
ansi_932
  9
$INSBASE
 10
0.0
 20
0.0
 30
0.0
  9
$EXTMIN
 10
-0.0128164049386896
 20
-0.0090630292066862
  9
$EXTMAX
 10
390.02014254455
 20
272.0158545442575
  9
$LIMMIN
 10
0.0
 20
0.0
  9
$LIMMAX
 10
420.0
 20
297.0
  9
$ORTHOMODE
 70
     0
  9
$REGENMODE
 70
     1
  9
$FILLMODE
 70
     1
  9
$QTEXTMODE
 70
     0
  9
$MIRRTEXT
 70
     0
  9
$DRAGMODE
 70
     2
  9
$LTSCALE
 40
1.0
  9
$OSMODE
 70
    37
  9
$ATTMODE
 70
     1
  9
$TEXTSIZE
 40
3.5
  9
$TRACEWID
 40
0.05
  9
$TEXTSTYLE
  7
STANDARD
  9
$CLAYER
  8
0
  9
$CELTYPE
  6
BYLAYER
  9
$CECOLOR
 62
   256
  9
$DIMSCALE
 40
1.0
  9
$DIMASZ
 40
3.0
  9
$DIMEXO
 40
2.0
  9
$DIMDLI
 40
10.0
  9
$DIMRND
 40
0.0
  9
$DIMDLE
 40
0.0
  9
$DIMEXE
 40
2.0
  9
$DIMTP
 40
0.0
  9
$DIMTM
 40
0.0
  9
$DIMTXT
 40
3.2
  9
$DIMCEN
 40
0.09
  9
$DIMTSZ
 40
0.0
  9
$DIMTOL
 70
     0
  9
$DIMLIM
 70
     0
  9
$DIMTIH
 70
     0
  9
$DIMTOH
 70
     0
  9
$DIMSE1
 70
     0
  9
$DIMSE2
 70
     0
  9
$DIMTAD
 70
     1
  9
$DIMZIN
 70
     0
  9
$DIMBLK
  1

  9
$DIMASO
 70
     1
  9
$DIMSHO
 70
     0
  9
$DIMPOST
  1

  9
$DIMAPOST
  1

  9
$DIMALT
 70
     0
  9
$DIMALTD
 70
     2
  9
$DIMALTF
 40
25.4
  9
$DIMLFAC
 40
1.0
  9
$DIMTOFL
 70
     1
  9
$DIMTVP
 40
0.0
  9
$DIMTIX
 70
     1
  9
$DIMSOXD
 70
     0
  9
$DIMSAH
 70
     1
  9
$DIMBLK1
  1
OPEN
  9
$DIMBLK2
  1
OPEN
  9
$LUNITS
 70
     2
  9
$LUPREC
 70
     2
  9
$SKETCHINC
 40
0.1
  9
$FILLETRAD
 40
1.0
  9
$AUNITS
 70
     0
  9
$AUPREC
 70
     2
  9
$MENU
  1
dash
  9
$ELEVATION
 40
0.0
  9
$THICKNESS
 40
0.0
  9
$LIMCHECK
 70
     0
  9
$CHAMFERA
 40
0.0
  9
$CHAMFERB
 40
0.0
  9
$SKPOLY
 70
     0
  9
$TDCREATE
 40
2451025.359548611
  9
$TDUPDATE
 40
2459449.751304919
  9
$TDINDWG
 40
0.2010035069
  9
$TDUSRTIMER
 40
0.2010035069
  9
$USRTIMER
 70
     1
  9
$ANGBASE
 50
0.0
  9
$ANGDIR
 70
     0
  9
$PDMODE
 70
    35
  9
$PDSIZE
 40
1.0
  9
$PLINEWID
 40
0.0
  9
$COORDS
 70
     1
  9
$SPLFRAME
 70
     0
  9
$SPLINETYPE
 70
     6
  9
$SPLINESEGS
 70
     8
  9
$ATTDIA
 70
     0
  9
$ATTREQ
 70
     1
  9
$HANDLING
 70
     1
  9
$HANDSEED
  5
189E4A6
  9
$SURFTAB1
 70
     6
  9
$SURFTAB2
 70
     6
  9
$SURFTYPE
 70
     6
  9
$SURFU
 70
     6
  9
$SURFV
 70
     6
  9
$UCSNAME
  2

  9
$UCSORG
 10
0.0
 20
0.0
 30
0.0
  9
$UCSXDIR
 10
1.0
 20
0.0
 30
0.0
  9
$UCSYDIR
 10
0.0
 20
1.0
 30
0.0
  9
$USERI1
 70
     0
  9
$USERI2
 70
     0
  9
$USERI3
 70
     0
  9
$USERI4
 70
     0
  9
$USERI5
 70
     0
  9
$USERR1
 40
0.0
  9
$USERR2
 40
0.0
  9
$USERR3
 40
0.0
  9
$USERR4
 40
0.0
  9
$USERR5
 40
0.0
  9
$WORLDVIEW
 70
     1
  0
ENDSEC
  0
SECTION
  2
TABLES
  0
TABLE
  2
VPORT
 70
     1
  0
VPORT
  2
*ACTIVE
 70
     0
 10
0.0
 20
0.0
 11
1.0
 21
1.0
 12
158.1978236870179
 22
105.3278362349651
 13
0.0
 23
0.0
 14
1.0
 24
1.0
 15
0.0
 25
0.0
 16
0.0
 26
0.0
 36
1.0
 17
0.0
 27
0.0
 37
0.0
 40
444.4345508612741
 41
1.825270347182698
 42
50.0
 43
0.0
 44
0.0
 50
0.0
 51
0.0
 71
     0
 72
   500
 73
     1
 74
     3
 75
     0
 76
     0
 77
     0
 78
     0
  0
ENDTAB
  0
TABLE
  2
LTYPE
 70
     3
  0
LTYPE
  2
CONTINUOUS
 70
     0
  3
Solid line
 72
    65
 73
     0
 40
0.0
  0
LTYPE
  2
DASHED
 70
     0
  3
__ __ __ __ __ __ __ __ __ __ __ __ __ __ __
 72
    65
 73
     2
 40
3.0
 49
2.0
 49
-1.0
  0
LTYPE
  2
CENTER
 70
     0
  3
____ _ ____ _ ____ _ ____ _ ____ _ ____ _ ____
 72
    65
 73
     4
 40
12.0
 49
9.0
 49
-1.0
 49
1.0
 49
-1.0
  0
ENDTAB
  0
TABLE
  2
LAYER
 70
    13
  0
LAYER
  2
0
 70
     0
 62
     7
  6
CONTINUOUS
  0
LAYER
  2
THN
 70
     0
 62
    -4
  6
CONTINUOUS
  0
LAYER
  2
CEN
 70
     0
 62
     4
  6
CENTER
  0
LAYER
  2
HID
 70
     0
 62
     3
  6
DASHED
  0
LAYER
  2
DIM
 70
     0
 62
     2
  6
CONTINUOUS
  0
LAYER
  2
WAKU
 70
     0
 62
    10
  6
CONTINUOUS
  0
LAYER
  2
HOJO
 70
     0
 62
     5
  6
CONTINUOUS
  0
LAYER
  2
HATCH
 70
     0
 62
     6
  6
CONTINUOUS
  0
LAYER
  2
DIMTEXT
 70
     0
 62
     1
  6
CONTINUOUS
  0
LAYER
  2
1
 70
     0
 62
     7
  6
CONTINUOUS
  0
LAYER
  2
2
 70
     0
 62
     7
  6
CONTINUOUS
  0
LAYER
  2
DEFPOINTS
 70
     0
 62
     7
  6
CONTINUOUS
  0
LAYER
  2
寸法線
 70
     0
 62
     2
  6
CONTINUOUS
  0
ENDTAB
  0
TABLE
  2
STYLE
 70
     3
  0
STYLE
  2
STANDARD
 70
     0
 40
0.0
 41
0.8
 50
0.0
 71
     0
 42
3.5
  3
TXT
  4
bigfont
  0
STYLE
  2
KANJI1
 70
     0
 40
0.0
 41
1.0
 50
0.0
 71
     0
 42
2.0
  3
ROMANS
  4
EXTFONT
  0
STYLE
  2
KANJI2
 70
     0
 40
0.0
 41
1.0
 50
0.0
 71
     0
 42
10.0
  3
ROMANS
  4
EXTFONT
  0
ENDTAB
  0
TABLE
  2
VIEW
 70
     0
  0
ENDTAB
  0
TABLE
  2
UCS
 70
     0
  0
ENDTAB
  0
ENDSEC
  0
SECTION
  2
BLOCKS
  0
BLOCK
  8
0
  2
WK_A3Y0
 70
     0
 10
0.0
 20
0.0
 30
0.0
  0
LINE
  5
189D03D
  8
WAKU
 10
390.0
 20
272.0
 30
0.0
 11
0.0000000000000568
 21
272.0
 31
0.0
  0
LINE
  5
189D03E
  8
WAKU
 10
389.9999999999999
 20
0.0
 30
0.0
 11
389.9999999999999
 21
272.0
 31
0.0
  0
TEXT
  5
189D03F
  8
WAKU
 62
     6
 10
327.3307147859031
 20
268.0703844795598
 30
0.0
 40
3.0
  1
図　面　来　歴
  7
KANJI1
 72
     1
 11
339.6307147859031
 21
269.5703844795598
 31
0.0
  0
TEXT
  5
189D040
  8
WAKU
 62
     6
 10
332.659572288814
 20
264.5803800559038
 30
0.0
 40
2.5
  1
CAREER
  7
KANJI2
 72
     1
 11
339.7429056221473
 21
265.8303800559038
 31
0.0
  0
LINE
  5
189D041
  8
WAKU
 10
390.0
 20
263.4999999999999
 30
0.0
 11
290.0
 21
263.4999999999999
 31
0.0
  0
LINE
  5
189D042
  8
WAKU
 10
390.0
 20
254.9999999999999
 30
0.0
 11
290.0
 21
254.9999999999999
 31
0.0
  0
LINE
  5
189D043
  8
WAKU
 10
390.0
 20
246.4999999999999
 30
0.0
 11
290.0
 21
246.4999999999999
 31
0.0
  0
LINE
  5
189D044
  8
WAKU
 10
390.0
 20
237.9999999999999
 30
0.0
 11
290.0
 21
237.9999999999999
 31
0.0
  0
LINE
  5
189D045
  8
WAKU
 10
305.0
 20
237.9999999999999
 30
0.0
 11
305.0
 21
263.5
 31
0.0
  0
LINE
  5
189D046
  8
WAKU
 10
322.0
 20
237.9999999999999
 30
0.0
 11
322.0
 21
263.5
 31
0.0
  0
LINE
  5
189D047
  8
WAKU
 10
290.0
 20
237.9999999999999
 30
0.0
 11
290.0
 21
272.0
 31
0.0
  0
TEXT
  5
189D048
  8
WAKU
 62
     6
 10
293.0708350650743
 20
255.750947451817
 30
0.0
 40
2.5
  1
MARK
  7
KANJI2
  0
TEXT
  5
189D049
  8
WAKU
 62
     6
 10
294.5486203294193
 20
259.3696918904864
 30
0.0
 40
3.0
  1
記号
  7
KANJI1
 72
     1
 11
297.7486203294193
 21
260.8696918904864
 31
0.0
  0
TEXT
  5
189D04A
  8
WAKU
 62
     6
 10
308.6915347592192
 20
259.5181394579755
 30
0.0
 40
3.0
  1
年月日
  7
KANJI1
 72
     1
 11
313.4915347592192
 21
261.0181394579755
 31
0.0
  0
TEXT
  5
189D04B
  8
WAKU
 62
     6
 10
308.974136542129
 20
255.5347361087015
 30
0.0
 40
2.5
  1
DATE
  7
KANJI2
 72
     1
 11
313.4979460659385
 21
256.7847361087015
 31
0.0
  0
TEXT
  5
189D04C
  8
WAKU
 62
     6
 10
342.4488221121451
 20
259.5181394579755
 30
0.0
 40
3.0
  1
記　　　　事
  7
KANJI1
 72
     1
 11
352.8488221121451
 21
261.0181394579755
 31
0.0
  0
TEXT
  5
189D04D
  8
WAKU
 62
     6
 10
340.9759790736705
 20
255.7931828195535
 30
0.0
 40
2.5
  1
EXPLANATION
  7
KANJI2
 72
     1
 11
353.0593124070038
 21
257.0431828195535
 31
0.0
  0
LINE
  5
189D04E
  8
WAKU
 10
389.9999999999999
 20
0.0
 30
0.0
 11
0.0
 21
0.0
 31
0.0
  0
LINE
  5
189D04F
  8
WAKU
 10
389.9999999999999
 20
25.96560095650418
 30
0.0
 11
269.4999999999999
 21
25.96560095650418
 31
0.0
  0
LINE
  5
189D050
  8
WAKU
 10
389.9999999999999
 20
16.96560095650415
 30
0.0
 11
269.5
 21
16.96560095650415
 31
0.0
  0
LINE
  5
189D051
  8
WAKU
 10
389.9999999999999
 20
25.96560095650418
 30
0.0
 11
269.4999999999999
 21
25.96560095650418
 31
0.0
  0
LINE
  5
189D052
  8
WAKU
 10
389.9999999999999
 20
40.96560095650418
 30
0.0
 11
269.4999999999999
 21
40.96560095650418
 31
0.0
  0
LINE
  5
189D053
  8
WAKU
 10
389.9999999999999
 20
50.46560095650418
 30
0.0
 11
269.4999999999999
 21
50.46560095650418
 31
0.0
  0
TEXT
  5
189D054
  8
WAKU
 62
     6
 10
330.5254792130129
 20
42.54507345808153
 30
0.0
 40
2.0
  1
NO.REQ'D
  7
KANJI2
 72
     1
 11
337.573098260632
 21
43.54507345808153
 31
0.0
  0
TEXT
  5
189D055
  8
WAKU
 10
290.3608414812278
 20
3.018918169471476
 30
0.0
 40
3.0
  1
OHJI RUBBER & CHEMICALS CO.,LTD.
  7
KANJI1
 72
     1
 11
330.7465557669421
 21
4.518918169471476
 31
0.0
  0
TEXT
  5
189D056
  8
WAKU
 10
290.6368794421599
 20
8.435898150440751
 30
0.0
 40
5.0
  1
王子ゴム化成株式会社
  7
KANJI1
  0
LINE
  5
189D057
  8
WAKU
 10
269.4999999999999
 20
0.2775261612657403
 30
0.0
 11
269.4999999999999
 21
50.46560095650418
 31
0.0
  0
TEXT
  5
189D058
  8
WAKU
 62
     6
 10
274.4302862977678
 20
34.49938230180913
 30
0.0
 40
3.0
  1
名称
  7
KANJI1
 72
     1
 11
277.6302862977678
 21
35.99938230180913
 31
0.0
  0
TEXT
  5
189D059
  8
WAKU
 62
     6
 10
274.3750642144256
 20
21.97352750024902
 30
0.0
 40
3.0
  1
日付
  7
KANJI1
 72
     1
 11
277.7750642144256
 21
23.47352750024902
 31
0.0
  0
TEXT
  5
189D05A
  8
WAKU
 62
     6
 10
273.1030160745985
 20
17.98745289994386
 30
0.0
 40
2.5
  1
DATE
  7
KANJI2
 72
     1
 11
277.6268255984081
 21
19.23745289994386
 31
0.0
  0
TEXT
  5
189D05B
  8
WAKU
 62
     6
 10
272.9814329339567
 20
29.08063670589539
 30
0.0
 40
2.5
  1
TITLE
  7
KANJI2
 72
     1
 11
277.4457186482424
 21
30.33063670589539
 31
0.0
  0
ARC
  5
189D05C
  8
WAKU
 10
280.5297613168935
 20
4.23879501804371
 30
0.0
 40
8.339568020092239
 50
50.42889192608803
 51
129.571108073912
  0
ARC
  5
189D05D
  8
WAKU
 10
280.5297613168935
 20
12.4220516779968
 30
0.0
 40
8.30220306308398
 50
230.0944008649057
 51
309.9055991350943
  0
INSERT
  5
189D05E
  8
WAKU
  2
*X1
 10
-4.569770156038373
 20
12.16099840676171
 30
0.0
  0
ARC
  5
189D05F
  8
WAKU
 10
277.1282676259526
 20
8.354718646062203
 30
0.0
 40
3.0
 50
129.571108073912
 51
230.0944008649059
  0
TEXT
  5
189D060
  8
WAKU
 10
277.0585403240342
 20
6.849167749767538
 30
0.0
 40
3.0
  1
OJI
  7
KANJI1
 72
     1
 11
280.2728260383199
 21
8.349167749767538
 31
0.0
  0
CIRCLE
  5
189D061
  8
WAKU
 10
280.4331570707386
 20
8.329794039836123
 30
0.0
 40
3.98009326329651
  0
ARC
  5
189D062
  8
WAKU
 10
283.9312550078345
 20
8.354718646062203
 30
0.0
 40
3.0
 50
309.9055991350942
 51
50.42889192608803
  0
LINE
  5
189D063
  8
WAKU
 10
347.75
 20
25.96560095650412
 30
0.0
 11
347.75
 21
16.96560095650415
 31
0.0
  0
LINE
  5
189D064
  8
WAKU
 10
329.75
 20
25.96560095650412
 30
0.0
 11
329.75
 21
16.96560095650415
 31
0.0
  0
TEXT
  5
189D065
  8
WAKU
 62
     6
 10
335.4690291190192
 20
22.29925509968402
 30
0.0
 40
3.0
  1
尺度
  7
KANJI1
 72
     1
 11
338.6690291190192
 21
23.79925509968402
 31
0.0
  0
TEXT
  5
189D066
  8
WAKU
 62
     6
 10
332.9470076486102
 20
18.34949264807071
 30
0.0
 40
2.5
  1
SCALE
  7
KANJI2
 72
     1
 11
338.6612933628959
 21
19.59949264807071
 31
0.0
  0
TEXT
  5
189D067
  8
WAKU
 62
     6
 10
270.4741355076006
 20
42.7260928787758
 30
0.0
 40
2.0
  1
PART NO.
  7
KANJI2
 72
     1
 11
277.2646116980767
 21
43.7260928787758
 31
0.0
  0
TEXT
  5
189D068
  8
WAKU
 62
     6
 10
274.306087205489
 20
46.03925385519743
 30
0.0
 40
3.0
  1
部番
  7
KANJI1
 72
     1
 11
277.5060872054889
 21
47.53925385519743
 31
0.0
  0
TEXT
  5
189D069
  8
WAKU
 62
     6
 10
298.8752169493111
 20
46.11187543236623
 30
0.0
 40
3.0
  1
名　　　称
  7
KANJI1
 72
     1
 11
307.4752169493111
 21
47.61187543236623
 31
0.0
  0
TEXT
  5
189D06A
  8
WAKU
 62
     6
 10
294.1667046023672
 20
42.29507345808153
 30
0.0
 40
2.5
  1
NAME OF PART
  7
KANJI2
 72
     1
 11
307.6905141261768
 21
43.54507345808153
 31
0.0
  0
LINE
  5
189D06B
  8
WAKU
 10
329.8
 20
50.46560095650418
 30
0.0
 11
329.8
 21
40.89921495727378
 31
0.0
  0
TEXT
  5
189D06C
  8
WAKU
 62
     6
 10
334.6786817215328
 20
46.40129360332428
 30
0.0
 40
3.0
  1
数量
  7
KANJI1
 72
     1
 11
337.8786817215328
 21
47.90129360332428
 31
0.0
  0
TEXT
  5
189D06D
  8
WAKU
 62
     6
 10
367.8800570676003
 20
42.4760928787758
 30
0.0
 40
2.5
  1
REMARKS
  7
KANJI2
 72
     1
 11
376.5110094485527
 21
43.7260928787758
 31
0.0
  0
TEXT
  5
189D06E
  8
WAKU
 62
     6
 10
369.4449600353063
 20
46.76333244471282
 30
0.0
 40
3.0
  1
備　　考
  7
KANJI1
 72
     1
 11
376.2449600353063
 21
48.26333244471282
 31
0.0
  0
TEXT
  5
189D06F
  8
WAKU
 62
     6
 10
351.3281983879257
 20
46.40129360332428
 30
0.0
 40
3.0
  1
材質
  7
KANJI1
 72
     1
 11
354.5281983879257
 21
47.90129360332428
 31
0.0
  0
TEXT
  5
189D070
  8
WAKU
 62
     6
 10
347.3777590227992
 20
42.7260928787758
 30
0.0
 40
2.0
  1
MATERIAL
  7
KANJI2
 72
     1
 11
354.234901879942
 21
43.7260928787758
 31
0.0
  0
LINE
  5
189D071
  8
WAKU
 10
345.8
 20
50.46560095650418
 30
0.0
 11
345.8
 21
40.96560095650418
 31
0.0
  0
LINE
  5
189D072
  8
WAKU
 10
362.8
 20
50.46560095650418
 30
0.0
 11
362.8
 21
40.96560095650418
 31
0.0
  0
LINE
  5
189D073
  8
WAKU
 10
0.0000000000000002
 20
272.0
 30
0.0
 11
0.0
 21
0.0
 31
0.0
  0
LINE
  5
189D088
  8
WAKU
 10
286.8772637348418
 20
50.46560095650418
 30
0.0
 11
286.8772637348418
 21
16.96560095650415
 31
0.0
  0
ENDBLK
  8
0
  0
BLOCK
  8
0
  2
*X1
 70
     1
 10
0.0
 20
0.0
 30
0.0
  0
LINE
  5
1493710
  8
0
 62
     0
 10
278.6985657303572
 20
-3.75
 30
0.0
 11
281.0236624409996
 21
-3.75
 31
0.0
  0
LINE
  5
1493711
  8
0
 62
     0
 10
288.9821920125545
 20
-3.75
 30
0.0
 11
291.5004972155068
 21
-3.75
 31
0.0
  0
LINE
  5
1493712
  8
0
 62
     0
 10
278.7443377717706
 20
-3.28125
 30
0.0
 11
281.0610123901988
 21
-3.28125
 31
0.0
  0
LINE
  5
1493713
  8
0
 62
     0
 10
288.9448420633553
 20
-3.28125
 30
0.0
 11
291.4547251740934
 21
-3.28125
 31
0.0
  0
LINE
  5
1493714
  8
0
 62
     0
 10
278.8674191592831
 20
-2.8125
 30
0.0
 11
281.1554106514596
 21
-2.8125
 31
0.0
  0
LINE
  5
1493715
  8
0
 62
     0
 10
288.8504438020945
 20
-2.8125
 30
0.0
 11
291.3316437865809
 21
-2.8125
 31
0.0
  0
LINE
  5
1493716
  8
0
 62
     0
 10
279.0786854385548
 20
-2.34375
 30
0.0
 11
281.3112308835156
 21
-2.34375
 31
0.0
  0
LINE
  5
1493717
  8
0
 62
     0
 10
288.6946235700385
 20
-2.34375
 30
0.0
 11
291.1203775073092
 21
-2.34375
 31
0.0
  0
LINE
  5
1493718
  8
0
 62
     0
 10
279.4023552068276
 20
-1.875
 30
0.0
 11
281.5367467843654
 21
-1.875
 31
0.0
  0
LINE
  5
1493719
  8
0
 62
     0
 10
288.4691076691887
 20
-1.875
 30
0.0
 11
290.7967077390364
 21
-1.875
 31
0.0
  0
LINE
  5
149371A
  8
0
 62
     0
 10
279.8946543180132
 20
-1.40625
 30
0.0
 11
281.8468634278553
 21
-1.40625
 31
0.0
  0
LINE
  5
149371B
  8
0
 62
     0
 10
288.1589910256988
 20
-1.40625
 30
0.0
 11
290.3044086278508
 21
-1.40625
 31
0.0
  0
LINE
  5
149371C
  8
0
 62
     0
 10
280.5429633198838
 20
-0.9375
 30
0.0
 11
282.2702330577615
 21
-0.9375
 31
0.0
  0
LINE
  5
149371D
  8
0
 62
     0
 10
287.7356213957926
 20
-0.9375
 30
0.0
 11
289.6560996259801
 21
-0.9375
 31
0.0
  0
LINE
  5
149371E
  8
0
 62
     0
 10
281.3586188377653
 20
-0.46875
 30
0.0
 11
282.8733631833919
 21
-0.46875
 31
0.0
  0
LINE
  5
149371F
  8
0
 62
     0
 10
287.1324912701622
 20
-0.46875
 30
0.0
 11
288.8404441080986
 21
-0.46875
 31
0.0
  0
LINE
  5
1493720
  8
0
 62
     0
 10
282.4943274061598
 20
0.0
 30
0.0
 11
283.9244952709328
 21
0.0
 31
0.0
  0
LINE
  5
1493721
  8
0
 62
     0
 10
286.0813591826213
 20
0.0
 30
0.0
 11
287.7047355397042
 21
0.0
 31
0.0
  0
LINE
  5
1493722
  8
0
 62
     0
 10
278.7265283504583
 20
-4.21875
 30
0.0
 11
281.0417467503507
 21
-4.21875
 31
0.0
  0
LINE
  5
1493723
  8
0
 62
     0
 10
288.9641077032034
 20
-4.21875
 30
0.0
 11
291.4725345954057
 21
-4.21875
 31
0.0
  0
LINE
  5
1493724
  8
0
 62
     0
 10
278.8303817897486
 20
-4.6875
 30
0.0
 11
281.1160389889557
 21
-4.6875
 31
0.0
  0
LINE
  5
1493725
  8
0
 62
     0
 10
288.8898154645984
 20
-4.6875
 30
0.0
 11
291.3686811561154
 21
-4.6875
 31
0.0
  0
LINE
  5
1493726
  8
0
 62
     0
 10
279.0189371207617
 20
-5.15625
 30
0.0
 11
281.2498756077866
 21
-5.15625
 31
0.0
  0
LINE
  5
1493727
  8
0
 62
     0
 10
288.7559788457675
 20
-5.15625
 30
0.0
 11
291.1801258251023
 21
-5.15625
 31
0.0
  0
LINE
  5
1493728
  8
0
 62
     0
 10
279.3121927134345
 20
-5.625
 30
0.0
 11
281.4499792098059
 21
-5.625
 31
0.0
  0
LINE
  5
1493729
  8
0
 62
     0
 10
288.5558752437482
 20
-5.625
 30
0.0
 11
290.8868702324295
 21
-5.625
 31
0.0
  0
LINE
  5
149372A
  8
0
 62
     0
 10
279.7570380642396
 20
-6.09375
 30
0.0
 11
281.7284761822824
 21
-6.09375
 31
0.0
  0
LINE
  5
149372B
  8
0
 62
     0
 10
288.2773782712717
 20
-6.09375
 30
0.0
 11
290.4420248816244
 21
-6.09375
 31
0.0
  0
LINE
  5
149372C
  8
0
 62
     0
 10
280.3702930083053
 20
-6.5625
 30
0.0
 11
282.1079027796808
 21
-6.5625
 31
0.0
  0
LINE
  5
149372D
  8
0
 62
     0
 10
287.8979516738733
 20
-6.5625
 30
0.0
 11
289.8287699375586
 21
-6.5625
 31
0.0
  0
LINE
  5
149372E
  8
0
 62
     0
 10
281.1310445193159
 20
-7.03125
 30
0.0
 11
282.6363156551883
 21
-7.03125
 31
0.0
  0
LINE
  5
149372F
  8
0
 62
     0
 10
287.3695387983658
 20
-7.03125
 30
0.0
 11
289.0680184265481
 21
-7.03125
 31
0.0
  0
LINE
  5
1493730
  8
0
 62
     0
 10
282.151205198291
 20
-7.5
 30
0.0
 11
283.4598520545089
 21
-7.5
 31
0.0
  0
LINE
  5
1493731
  8
0
 62
     0
 10
286.5460023990452
 20
-7.5
 30
0.0
 11
288.0478577475729
 21
-7.5
 31
0.0
  0
LINE
  5
1493732
  8
0
 62
     0
 10
284.0054959079454
 20
-7.96875
 30
0.0
 11
286.1935670379185
 21
-7.96875
 31
0.0
  0
LINE
  5
1493733
  8
0
 62
     0
 10
285.0
 20
-8.040553150812588
 30
0.0
 11
285.0
 21
-7.811296553782535
 31
0.0
  0
LINE
  5
1493734
  8
0
 62
     0
 10
285.0
 20
0.1488878199312955
 30
0.0
 11
285.0
 21
0.4167706637441677
 31
0.0
  0
LINE
  5
1493735
  8
0
 62
     0
 10
283.125
 20
-7.80292844768568
 30
0.0
 11
283.125
 21
-7.340411074354741
 31
0.0
  0
LINE
  5
1493736
  8
0
 62
     0
 10
283.125
 20
-0.3219976594964984
 30
0.0
 11
283.125
 21
0.1802419350186826
 31
0.0
  0
LINE
  5
1493737
  8
0
 62
     0
 10
281.25
 20
-7.094739217653751
 30
0.0
 11
281.25
 21
-5.156602275122101
 31
0.0
  0
LINE
  5
1493738
  8
0
 62
     0
 10
281.25
 20
-2.505806458729138
 30
0.0
 11
281.25
 21
-0.524264337830413
 31
0.0
  0
LINE
  5
1493739
  8
0
 62
     0
 10
279.375
 20
-5.704567268807491
 30
0.0
 11
279.375
 21
-1.907992252591516
 31
0.0
  0
LINE
  5
149373A
  8
0
 62
     0
 10
286.875
 20
-7.849081574134509
 30
0.0
 11
286.875
 21
-7.343537767429249
 31
0.0
  0
LINE
  5
149373B
  8
0
 62
     0
 10
286.875
 20
-0.3188709664219913
 30
0.0
 11
286.875
 21
0.2261772032237017
 31
0.0
  0
LINE
  5
149373C
  8
0
 62
     0
 10
288.75
 20
-7.195531418391459
 30
0.0
 11
288.75
 21
-5.173064276419643
 31
0.0
  0
LINE
  5
149373D
  8
0
 62
     0
 10
288.75
 20
-2.489344457431597
 30
0.0
 11
288.75
 21
-0.424038660290976
 31
0.0
  0
LINE
  5
149373E
  8
0
 62
     0
 10
290.625
 20
-5.924942285854444
 30
0.0
 11
290.625
 21
-1.687617235544558
 31
0.0
  0
ENDBLK
  8
0
  0
BLOCK
  8
0
  2
DIMSTAT
 70
     2
 10
0.0
 20
0.0
 30
0.0
  0
ATTDEF
  5
189C7F4
  8
0
 10
0.0
 20
1.0
 30
0.0
 40
1.0
  1

 41
0.7
 51
15.0
  3

  2
DIMEXT
 70
     1
  0
ATTDEF
  5
189C7F5
  8
0
 10
0.0
 20
0.0
 30
0.0
 40
1.0
  1

 41
0.7
 51
15.0
  3

  2
DIMBAL
 70
     1
  0
ATTDEF
  5
189C7F6
  8
0
 10
-0.4428095427696519
 20
-0.911649989012119
 30
0.0
 40
1.0
  1

 41
0.7
 51
15.0
 72
     1
 11
1.507190457230351
 21
-0.911649989012119
 31
0.0
  3

  2
SYMSCL
 70
     1
  0
ENDBLK
  8
0
  0
BLOCK
  8
0
  2
DIMSTAT2
 70
     2
 10
0.0
 20
0.0
 30
0.0
  0
ATTDEF
  5
189C7FF
  8
0
 10
0.0
 20
0.0
 30
0.0
 40
1.0
  1

 41
0.7
  3

  2
DIMSIZ
 70
     1
  0
ENDBLK
  8
0
  0
BLOCK
  8
0
  2
_OPEN
 70
     0
 10
0.0
 20
0.0
 30
0.0
  0
LINE
  5
189C983
  8
0
  6
BYBLOCK
 62
     0
 10
-1.0
 20
0.1666666666666667
 30
0.0
 11
0.0
 21
0.0
 31
0.0
  0
LINE
  5
189C984
  8
0
  6
BYBLOCK
 62
     0
 10
0.0
 20
0.0
 30
0.0
 11
-1.0
 21
-0.1666666666666667
 31
0.0
  0
LINE
  5
189C985
  8
0
  6
BYBLOCK
 62
     0
 10
0.0
 20
0.0
 30
0.0
 11
-1.0
 21
0.0
 31
0.0
  0
ENDBLK
  8
0
  0
BLOCK
  8
0
  2
*D5
 70
     1
 10
0.0
 20
0.0
 30
0.0
  0
LINE
  5
189D464
  8
0
  6
BYBLOCK
 62
     0
 10
21.6341979656695
 20
163.3357141474129
 30
0.0
 11
21.6341979656695
 21
151.607142672741
 31
0.0
  0
LINE
  5
189D465
  8
0
  6
BYBLOCK
 62
     0
 10
36.1341979656695
 20
163.3357141474129
 30
0.0
 11
36.1341979656695
 21
151.607142672741
 31
0.0
  0
LINE
  5
189D466
  8
0
  6
BYBLOCK
 62
     0
 10
24.6341979656695
 20
153.607142672741
 30
0.0
 11
33.1341979656695
 21
153.607142672741
 31
0.0
  0
INSERT
  5
189D467
  8
0
  6
BYBLOCK
 62
     0
  2
_OPEN
 10
21.6341979656695
 20
153.607142672741
 30
0.0
 41
3.0
 42
3.0
 43
3.0
 50
180.0
  0
INSERT
  5
189D468
  8
0
  6
BYBLOCK
 62
     0
  2
_OPEN
 10
36.1341979656695
 20
153.607142672741
 30
0.0
 41
3.0
 42
3.0
 43
3.0
  0
TEXT
  5
189D469
  8
0
  6
CONTINUOUS
 62
     0
 10
25.89753129900283
 20
153.697142672741
 30
0.0
 40
3.2
  1
145
 41
0.8
  0
POINT
  5
189D46A
  8
DEFPOINTS
  6
BYBLOCK
 62
     0
 10
21.6341979656695
 20
165.3357141474129
 30
0.0
  0
POINT
  5
189D46B
  8
DEFPOINTS
  6
BYBLOCK
 62
     0
 10
36.1341979656695
 20
165.3357141474129
 30
0.0
  0
POINT
  5
189D46C
  8
DEFPOINTS
  6
BYBLOCK
 62
     0
 10
36.1341979656695
 20
153.607142672741
 30
0.0
  0
ENDBLK
  8
0
  0
BLOCK
  8
0
  2
*D6
 70
     1
 10
0.0
 20
0.0
 30
0.0
  0
LINE
  5
189D470
  8
0
  6
BYBLOCK
 62
     0
 10
306.1341979656695
 20
163.3357141474129
 30
0.0
 11
306.1341979656695
 21
151.607142672741
 31
0.0
  0
LINE
  5
189D471
  8
0
  6
BYBLOCK
 62
     0
 10
39.1341979656695
 20
153.607142672741
 30
0.0
 11
303.1341979656695
 21
153.607142672741
 31
0.0
  0
INSERT
  5
189D472
  8
0
  6
BYBLOCK
 62
     0
  2
_OPEN
 10
36.1341979656695
 20
153.607142672741
 30
0.0
 41
3.0
 42
3.0
 43
3.0
 50
180.0
  0
INSERT
  5
189D473
  8
0
  6
BYBLOCK
 62
     0
  2
_OPEN
 10
306.1341979656695
 20
153.607142672741
 30
0.0
 41
3.0
 42
3.0
 43
3.0
  0
TEXT
  5
189D474
  8
0
  6
CONTINUOUS
 62
     0
 10
159.8275312990028
 20
153.697142672741
 30
0.0
 40
3.2
  1
6×450＝2700
 41
0.8
  0
POINT
  5
189D475
  8
DEFPOINTS
  6
BYBLOCK
 62
     0
 10
36.1341979656695
 20
165.3357141474129
 30
0.0
  0
POINT
  5
189D476
  8
DEFPOINTS
  6
BYBLOCK
 62
     0
 10
306.1341979656695
 20
165.3357141474129
 30
0.0
  0
POINT
  5
189D477
  8
DEFPOINTS
  6
BYBLOCK
 62
     0
 10
306.1341979656695
 20
153.607142672741
 30
0.0
  0
ENDBLK
  8
0
  0
BLOCK
  8
0
  2
*D7
 70
     1
 10
0.0
 20
0.0
 30
0.0
  0
LINE
  5
189D47B
  8
0
  6
BYBLOCK
 62
     0
 10
320.6341979656695
 20
163.3357141474129
 30
0.0
 11
320.6341979656695
 21
151.607142672741
 31
0.0
  0
LINE
  5
189D47C
  8
0
  6
BYBLOCK
 62
     0
 10
309.1341979656695
 20
153.607142672741
 30
0.0
 11
317.6341979656695
 21
153.607142672741
 31
0.0
  0
INSERT
  5
189D47D
  8
0
  6
BYBLOCK
 62
     0
  2
_OPEN
 10
306.1341979656695
 20
153.607142672741
 30
0.0
 41
3.0
 42
3.0
 43
3.0
 50
180.0
  0
INSERT
  5
189D47E
  8
0
  6
BYBLOCK
 62
     0
  2
_OPEN
 10
320.6341979656695
 20
153.607142672741
 30
0.0
 41
3.0
 42
3.0
 43
3.0
  0
TEXT
  5
189D47F
  8
0
  6
CONTINUOUS
 62
     0
 10
310.3975312990028
 20
153.697142672741
 30
0.0
 40
3.2
  1
145
 41
0.8
  0
POINT
  5
189D480
  8
DEFPOINTS
  6
BYBLOCK
 62
     0
 10
306.1341979656695
 20
165.3357141474129
 30
0.0
  0
POINT
  5
189D481
  8
DEFPOINTS
  6
BYBLOCK
 62
     0
 10
320.6341979656695
 20
165.3357141474129
 30
0.0
  0
POINT
  5
189D482
  8
DEFPOINTS
  6
BYBLOCK
 62
     0
 10
320.6341979656695
 20
153.607142672741
 30
0.0
  0
ENDBLK
  8
0
  0
BLOCK
  8
0
  2
*D8
 70
     1
 10
0.0
 20
0.0
 30
0.0
  0
LINE
  5
189D486
  8
0
  6
BYBLOCK
 62
     0
 10
21.6341979656695
 20
163.3357141474129
 30
0.0
 11
21.6341979656695
 21
142.1785711058682
 31
0.0
  0
LINE
  5
189D487
  8
0
  6
BYBLOCK
 62
     0
 10
320.6341979656695
 20
161.3357141474129
 30
0.0
 11
320.6341979656695
 21
142.1785711058682
 31
0.0
  0
LINE
  5
189D488
  8
0
  6
BYBLOCK
 62
     0
 10
24.6341979656695
 20
144.1785711058682
 30
0.0
 11
317.6341979656695
 21
144.1785711058682
 31
0.0
  0
INSERT
  5
189D489
  8
0
  6
BYBLOCK
 62
     0
  2
_OPEN
 10
21.6341979656695
 20
144.1785711058682
 30
0.0
 41
3.0
 42
3.0
 43
3.0
 50
180.0
  0
INSERT
  5
189D48A
  8
0
  6
BYBLOCK
 62
     0
  2
_OPEN
 10
320.6341979656695
 20
144.1785711058682
 30
0.0
 41
3.0
 42
3.0
 43
3.0
  0
TEXT
  5
189D48B
  8
0
  6
CONTINUOUS
 62
     0
 10
166.6541979656695
 20
144.2685711058682
 30
0.0
 40
3.2
  1
2990
 41
0.8
  0
POINT
  5
189D48C
  8
DEFPOINTS
  6
BYBLOCK
 62
     0
 10
21.6341979656695
 20
165.3357141474129
 30
0.0
  0
POINT
  5
189D48D
  8
DEFPOINTS
  6
BYBLOCK
 62
     0
 10
320.6341979656695
 20
163.3357141474129
 30
0.0
  0
POINT
  5
189D48E
  8
DEFPOINTS
  6
BYBLOCK
 62
     0
 10
320.6341979656695
 20
144.1785711058682
 30
0.0
  0
ENDBLK
  8
0
  0
BLOCK
  8
0
  2
A$CD8B4DF68
 70
     0
 10
0.0
 20
0.0
 30
0.0
  0
LINE
  5
189D491
  8
CEN
 10
0.0
 20
57.78571493112099
 30
0.0
 11
318.6127436673207
 21
57.78571493112099
 31
0.0
  0
CIRCLE
  5
189D492
  8
2
 10
20.5068864353741
 20
57.78571493112099
 30
0.0
 40
1.25
  0
CIRCLE
  5
189D493
  8
2
 10
65.5068864353741
 20
57.78571493112099
 30
0.0
 40
1.25
  0
CIRCLE
  5
189D494
  8
2
 10
110.5068864353741
 20
57.78571493112099
 30
0.0
 40
1.25
  0
CIRCLE
  5
189D495
  8
2
 10
155.5068864353741
 20
57.78571493112099
 30
0.0
 40
1.25
  0
CIRCLE
  5
189D496
  8
2
 10
200.5068864353741
 20
57.78571493112099
 30
0.0
 40
1.25
  0
CIRCLE
  5
189D497
  8
2
 10
245.5068864353741
 20
57.78571493112099
 30
0.0
 40
1.25
  0
CIRCLE
  5
189D498
  8
2
 10
290.5068864353741
 20
57.78571493112099
 30
0.0
 40
1.25
  0
POINT
  5
189D499
  8
DEFPOINTS
  6
BYBLOCK
 62
     0
 10
305.5068864353741
 20
60.28571493112099
 30
0.0
  0
POINT
  5
189D49A
  8
DEFPOINTS
  6
BYBLOCK
 62
     0
 10
20.5068864353741
 20
57.78571493112099
 30
0.0
  0
POINT
  5
189D49B
  8
DEFPOINTS
  6
BYBLOCK
 62
     0
 10
290.5068864353741
 20
57.78571493112099
 30
0.0
  0
POINT
  5
189D49C
  8
DEFPOINTS
  6
BYBLOCK
 62
     0
 10
20.5068864353741
 20
57.78571493112099
 30
0.0
  0
POINT
  5
189D49D
  8
DEFPOINTS
  6
BYBLOCK
 62
     0
 10
290.5068864353741
 20
57.78571493112099
 30
0.0
  0
POINT
  5
189D49E
  8
DEFPOINTS
  6
BYBLOCK
 62
     0
 10
305.5068864353741
 20
60.28571493112099
 30
0.0
  0
LINE
  5
189D49F
  8
DIM
 62
     2
 10
305.5068864353741
 20
62.28571493112099
 30
0.0
 11
305.5068864353741
 21
77.8571435947506
 31
0.0
  0
LINE
  5
189D4A0
  8
DIM
 62
     2
 10
293.5068864353741
 20
75.8571435947506
 30
0.0
 11
302.5068864353741
 21
75.8571435947506
 31
0.0
  0
INSERT
  5
189D4A1
  8
DIM
 62
     2
  2
_OPEN
 10
290.5068864353741
 20
75.8571435947506
 30
0.0
 41
3.0
 42
3.0
 43
3.0
 50
180.0
  0
INSERT
  5
189D4A2
  8
DIM
 62
     2
  2
_OPEN
 10
305.5068864353741
 20
75.8571435947506
 30
0.0
 41
3.0
 42
3.0
 43
3.0
  0
TEXT
  5
189D4A3
  8
DIM
  6
CONTINUOUS
 62
     2
 10
295.2335531020408
 20
76.52782831024201
 30
0.0
 40
3.2
  1
150
 41
0.8
  0
POINT
  5
189D4A4
  8
DEFPOINTS
  6
BYBLOCK
 62
     0
 10
290.5068864353741
 20
57.78571493112099
 30
0.0
  0
POINT
  5
189D4A5
  8
DEFPOINTS
  6
BYBLOCK
 62
     0
 10
305.5068864353741
 20
60.28571493112099
 30
0.0
  0
LINE
  5
189D4A6
  8
DIM
 62
     2
 10
290.5068864353741
 20
59.78571493112099
 30
0.0
 11
290.5068864353741
 21
77.8571435947506
 31
0.0
  0
LINE
  5
189D4A7
  8
DIM
 62
     2
 10
23.5068864353741
 20
75.8571435947506
 30
0.0
 11
287.5068864353741
 21
75.8571435947506
 31
0.0
  0
INSERT
  5
189D4A8
  8
DIM
 62
     2
  2
_OPEN
 10
20.5068864353741
 20
75.8571435947506
 30
0.0
 41
3.0
 42
3.0
 43
3.0
 50
180.0
  0
INSERT
  5
189D4A9
  8
DIM
 62
     2
  2
_OPEN
 10
290.5068864353741
 20
75.8571435947506
 30
0.0
 41
3.0
 42
3.0
 43
3.0
  0
POINT
  5
189D4AA
  8
DEFPOINTS
  6
BYBLOCK
 62
     0
 10
20.5068864353741
 20
57.78571493112099
 30
0.0
  0
POINT
  5
189D4AB
  8
DEFPOINTS
  6
BYBLOCK
 62
     0
 10
290.5068864353741
 20
57.78571493112099
 30
0.0
  0
LINE
  5
189D4AC
  8
DIM
 62
     2
 10
5.506886435374099
 20
62.28571493112099
 30
0.0
 11
5.506886435374099
 21
77.8571435947506
 31
0.0
  0
LINE
  5
189D4AD
  8
DIM
 62
     2
 10
20.5068864353741
 20
59.78571493112099
 30
0.0
 11
20.5068864353741
 21
77.8571435947506
 31
0.0
  0
LINE
  5
189D4AE
  8
DIM
 62
     2
 10
8.5068864353741
 20
75.8571435947506
 30
0.0
 11
17.5068864353741
 21
75.8571435947506
 31
0.0
  0
INSERT
  5
189D4AF
  8
DIM
 62
     2
  2
_OPEN
 10
5.506886435374099
 20
75.8571435947506
 30
0.0
 41
3.0
 42
3.0
 43
3.0
 50
180.0
  0
INSERT
  5
189D4B0
  8
DIM
 62
     2
  2
_OPEN
 10
20.5068864353741
 20
75.8571435947506
 30
0.0
 41
3.0
 42
3.0
 43
3.0
  0
TEXT
  5
189D4B1
  8
DIM
  6
CONTINUOUS
 62
     2
 10
10.23355310204077
 20
76.29555456234682
 30
0.0
 40
3.2
  1
150
 41
0.8
  0
POINT
  5
189D4B2
  8
DEFPOINTS
  6
BYBLOCK
 62
     0
 10
20.5068864353741
 20
57.78571493112099
 30
0.0
  0
LINE
  5
189D4B3
  8
DIM
 62
     2
 10
5.506886435374099
 20
62.28571493112099
 30
0.0
 11
5.506886435374099
 21
91.21428612919021
 31
0.0
  0
LINE
  5
189D4B4
  8
DIM
 62
     2
 10
305.5068864353741
 20
62.28571493112099
 30
0.0
 11
305.5068864353741
 21
91.21428612919021
 31
0.0
  0
LINE
  5
189D4B5
  8
DIM
 62
     2
 10
8.5068864353741
 20
89.21428612919021
 30
0.0
 11
302.5068864353741
 21
89.21428612919021
 31
0.0
  0
INSERT
  5
189D4B6
  8
DIM
 62
     2
  2
_OPEN
 10
5.506886435374099
 20
89.21428612919021
 30
0.0
 41
3.0
 42
3.0
 43
3.0
 50
180.0
  0
INSERT
  5
189D4B7
  8
DIM
 62
     2
  2
_OPEN
 10
305.5068864353741
 20
89.21428612919021
 30
0.0
 41
3.0
 42
3.0
 43
3.0
  0
POINT
  5
189D4B8
  8
DEFPOINTS
  6
BYBLOCK
 62
     0
 10
305.5068864353741
 20
60.28571493112099
 30
0.0
  0
TEXT
  5
189D4B9
  8
DIM
 62
     2
 10
143.2615531020408
 20
76.79450591501299
 30
0.0
 40
3.2
  1
6×450＝2700
 41
0.8
  0
TEXT
  5
189D4BA
  8
DIM
 62
     2
 10
151.4535531020408
 20
90.15880900456486
 30
0.0
 40
3.2
  1
3000
 41
0.8
  0
LINE
  5
189D4BB
  8
2
 10
5.506886435374099
 20
57.78571493112099
 30
0.0
 11
5.506886435374099
 21
61.28571493112099
 31
0.0
  0
LINE
  5
189D4BC
  8
2
 10
5.506886435374099
 20
61.28571493112099
 30
0.0
 11
305.5068864353741
 21
61.28571493112099
 31
0.0
  0
LINE
  5
189D4BD
  8
2
 10
5.506886435374099
 20
57.78571493112099
 30
0.0
 11
5.506886435374099
 21
54.28571493112099
 31
0.0
  0
LINE
  5
189D4BE
  8
2
 10
5.506886435374099
 20
54.28571493112099
 30
0.0
 11
305.5068864353741
 21
54.28571493112099
 31
0.0
  0
LINE
  5
189D4BF
  8
2
 10
305.5068864353741
 20
54.28571493112099
 30
0.0
 11
305.5068864353741
 21
61.28571493112099
 31
0.0
  0
LINE
  5
189D4C0
  8
2
 10
5.506886435374099
 20
26.35714304154476
 30
0.0
 11
5.506886435374099
 21
23.15714304154477
 31
0.0
  0
LINE
  5
189D4C1
  8
2
 10
5.506886435374099
 20
23.15714304154477
 30
0.0
 11
304.5068864353741
 21
23.15714304154477
 31
0.0
  0
LINE
  5
189D4C2
  8
2
 10
5.506886435374099
 20
26.35714304154476
 30
0.0
 11
304.5068864353741
 21
26.35714304154476
 31
0.0
  0
ARC
  5
189D4C3
  8
2
 10
19.5068864353741
 20
24.75714304154477
 30
0.0
 40
0.5
 50
90.0
 51
270.0
  0
LINE
  5
189D4C4
  8
2
 10
20.5068864353741
 20
25.25714304154477
 30
0.0
 11
19.5068864353741
 21
25.25714304154477
 31
0.0
  0
ARC
  5
189D4C5
  8
2
 10
20.5068864353741
 20
24.75714304154477
 30
0.0
 40
0.5
 50
270.0
 51
90.0
  0
LINE
  5
189D4C6
  8
2
 10
19.5068864353741
 20
24.25714304154477
 30
0.0
 11
20.5068864353741
 21
24.25714304154477
 31
0.0
  0
LINE
  5
189D4C7
  8
CEN
 10
20.0068864353741
 20
24.75714304154477
 30
0.0
 11
20.0068864353741
 21
27.78049751071308
 31
0.0
  0
LINE
  5
189D4C8
  8
CEN
 10
20.0068864353741
 20
24.75714304154477
 30
0.0
 11
20.0068864353741
 21
22.10482232096126
 31
0.0
  0
LINE
  5
189D4C9
  8
CEN
 10
20.0068864353741
 20
24.75714304154477
 30
0.0
 11
17.88258808965566
 21
24.75714304154477
 31
0.0
  0
LINE
  5
189D4CA
  8
CEN
 10
20.0068864353741
 20
24.75714304154477
 30
0.0
 11
22.13738864976563
 21
24.75714304154477
 31
0.0
  0
LINE
  5
189D4CB
  8
CEN
 10
65.0068864353741
 20
24.75714304154477
 30
0.0
 11
67.13738864976563
 21
24.75714304154477
 31
0.0
  0
LINE
  5
189D4CC
  8
CEN
 10
65.0068864353741
 20
24.75714304154477
 30
0.0
 11
62.88258808965566
 21
24.75714304154477
 31
0.0
  0
LINE
  5
189D4CD
  8
CEN
 10
65.0068864353741
 20
24.75714304154477
 30
0.0
 11
65.0068864353741
 21
22.10482232096126
 31
0.0
  0
LINE
  5
189D4CE
  8
CEN
 10
65.0068864353741
 20
24.75714304154477
 30
0.0
 11
65.0068864353741
 21
27.78049751071308
 31
0.0
  0
LINE
  5
189D4CF
  8
2
 10
64.5068864353741
 20
24.25714304154477
 30
0.0
 11
65.5068864353741
 21
24.25714304154477
 31
0.0
  0
ARC
  5
189D4D0
  8
2
 10
65.5068864353741
 20
24.75714304154477
 30
0.0
 40
0.5
 50
270.0
 51
90.0
  0
LINE
  5
189D4D1
  8
2
 10
65.5068864353741
 20
25.25714304154477
 30
0.0
 11
64.5068864353741
 21
25.25714304154477
 31
0.0
  0
ARC
  5
189D4D2
  8
2
 10
64.5068864353741
 20
24.75714304154477
 30
0.0
 40
0.5
 50
90.0
 51
270.0
  0
LINE
  5
189D4D3
  8
CEN
 10
110.0068864353741
 20
24.75714304154477
 30
0.0
 11
112.1373886497656
 21
24.75714304154477
 31
0.0
  0
LINE
  5
189D4D4
  8
CEN
 10
110.0068864353741
 20
24.75714304154477
 30
0.0
 11
107.8825880896557
 21
24.75714304154477
 31
0.0
  0
LINE
  5
189D4D5
  8
CEN
 10
110.0068864353741
 20
24.75714304154477
 30
0.0
 11
110.0068864353741
 21
22.10482232096126
 31
0.0
  0
LINE
  5
189D4D6
  8
CEN
 10
110.0068864353741
 20
24.75714304154477
 30
0.0
 11
110.0068864353741
 21
27.78049751071308
 31
0.0
  0
LINE
  5
189D4D7
  8
2
 10
109.5068864353741
 20
24.25714304154477
 30
0.0
 11
110.5068864353741
 21
24.25714304154477
 31
0.0
  0
ARC
  5
189D4D8
  8
2
 10
110.5068864353741
 20
24.75714304154477
 30
0.0
 40
0.5
 50
270.0
 51
90.0
  0
LINE
  5
189D4D9
  8
2
 10
110.5068864353741
 20
25.25714304154477
 30
0.0
 11
109.5068864353741
 21
25.25714304154477
 31
0.0
  0
ARC
  5
189D4DA
  8
2
 10
109.5068864353741
 20
24.75714304154477
 30
0.0
 40
0.5
 50
90.0
 51
270.0
  0
LINE
  5
189D4DB
  8
CEN
 10
155.0068864353741
 20
24.75714304154477
 30
0.0
 11
157.1373886497656
 21
24.75714304154477
 31
0.0
  0
LINE
  5
189D4DC
  8
CEN
 10
155.0068864353741
 20
24.75714304154477
 30
0.0
 11
152.8825880896557
 21
24.75714304154477
 31
0.0
  0
LINE
  5
189D4DD
  8
CEN
 10
155.0068864353741
 20
24.75714304154477
 30
0.0
 11
155.0068864353741
 21
22.10482232096126
 31
0.0
  0
LINE
  5
189D4DE
  8
CEN
 10
155.0068864353741
 20
24.75714304154477
 30
0.0
 11
155.0068864353741
 21
27.78049751071308
 31
0.0
  0
LINE
  5
189D4DF
  8
2
 10
154.5068864353741
 20
24.25714304154477
 30
0.0
 11
155.5068864353741
 21
24.25714304154477
 31
0.0
  0
ARC
  5
189D4E0
  8
2
 10
155.5068864353741
 20
24.75714304154477
 30
0.0
 40
0.5
 50
270.0
 51
90.0
  0
LINE
  5
189D4E1
  8
2
 10
155.5068864353741
 20
25.25714304154477
 30
0.0
 11
154.5068864353741
 21
25.25714304154477
 31
0.0
  0
ARC
  5
189D4E2
  8
2
 10
154.5068864353741
 20
24.75714304154477
 30
0.0
 40
0.5
 50
90.0
 51
270.0
  0
LINE
  5
189D4E3
  8
CEN
 10
200.0068864353741
 20
24.75714304154477
 30
0.0
 11
202.1373886497656
 21
24.75714304154477
 31
0.0
  0
LINE
  5
189D4E4
  8
CEN
 10
200.0068864353741
 20
24.75714304154477
 30
0.0
 11
197.8825880896557
 21
24.75714304154477
 31
0.0
  0
LINE
  5
189D4E5
  8
CEN
 10
200.0068864353741
 20
24.75714304154477
 30
0.0
 11
200.0068864353741
 21
22.10482232096126
 31
0.0
  0
LINE
  5
189D4E6
  8
CEN
 10
200.0068864353741
 20
24.75714304154477
 30
0.0
 11
200.0068864353741
 21
27.78049751071308
 31
0.0
  0
LINE
  5
189D4E7
  8
2
 10
199.5068864353741
 20
24.25714304154477
 30
0.0
 11
200.5068864353741
 21
24.25714304154477
 31
0.0
  0
ARC
  5
189D4E8
  8
2
 10
200.5068864353741
 20
24.75714304154477
 30
0.0
 40
0.5
 50
270.0
 51
90.0
  0
LINE
  5
189D4E9
  8
2
 10
200.5068864353741
 20
25.25714304154477
 30
0.0
 11
199.5068864353741
 21
25.25714304154477
 31
0.0
  0
ARC
  5
189D4EA
  8
2
 10
199.5068864353741
 20
24.75714304154477
 30
0.0
 40
0.5
 50
90.0
 51
270.0
  0
LINE
  5
189D4EB
  8
CEN
 10
245.0068864353741
 20
24.75714304154477
 30
0.0
 11
247.1373886497656
 21
24.75714304154477
 31
0.0
  0
LINE
  5
189D4EC
  8
CEN
 10
245.0068864353741
 20
24.75714304154477
 30
0.0
 11
242.8825880896557
 21
24.75714304154477
 31
0.0
  0
LINE
  5
189D4ED
  8
CEN
 10
245.0068864353741
 20
24.75714304154477
 30
0.0
 11
245.0068864353741
 21
22.10482232096126
 31
0.0
  0
LINE
  5
189D4EE
  8
CEN
 10
245.0068864353741
 20
24.75714304154477
 30
0.0
 11
245.0068864353741
 21
27.78049751071308
 31
0.0
  0
LINE
  5
189D4EF
  8
2
 10
244.5068864353741
 20
24.25714304154477
 30
0.0
 11
245.5068864353741
 21
24.25714304154477
 31
0.0
  0
ARC
  5
189D4F0
  8
2
 10
245.5068864353741
 20
24.75714304154477
 30
0.0
 40
0.5
 50
270.0
 51
90.0
  0
LINE
  5
189D4F1
  8
2
 10
245.5068864353741
 20
25.25714304154477
 30
0.0
 11
244.5068864353741
 21
25.25714304154477
 31
0.0
  0
ARC
  5
189D4F2
  8
2
 10
244.5068864353741
 20
24.75714304154477
 30
0.0
 40
0.5
 50
90.0
 51
270.0
  0
LINE
  5
189D4F3
  8
CEN
 10
290.0068864353741
 20
24.75714304154477
 30
0.0
 11
292.1373886497656
 21
24.75714304154477
 31
0.0
  0
LINE
  5
189D4F4
  8
CEN
 10
290.0068864353741
 20
24.75714304154477
 30
0.0
 11
287.8825880896557
 21
24.75714304154477
 31
0.0
  0
LINE
  5
189D4F5
  8
CEN
 10
290.0068864353741
 20
24.75714304154477
 30
0.0
 11
290.0068864353741
 21
22.10482232096126
 31
0.0
  0
LINE
  5
189D4F6
  8
CEN
 10
290.0068864353741
 20
24.75714304154477
 30
0.0
 11
290.0068864353741
 21
27.78049751071308
 31
0.0
  0
LINE
  5
189D4F7
  8
2
 10
289.5068864353741
 20
24.25714304154477
 30
0.0
 11
290.5068864353741
 21
24.25714304154477
 31
0.0
  0
ARC
  5
189D4F8
  8
2
 10
290.5068864353741
 20
24.75714304154477
 30
0.0
 40
0.5
 50
270.0
 51
90.0
  0
LINE
  5
189D4F9
  8
2
 10
290.5068864353741
 20
25.25714304154477
 30
0.0
 11
289.5068864353741
 21
25.25714304154477
 31
0.0
  0
ARC
  5
189D4FA
  8
2
 10
289.5068864353741
 20
24.75714304154477
 30
0.0
 40
0.5
 50
90.0
 51
270.0
  0
DIMENSION
  5
189D4FB
  8
DIM
  2
*D5
 10
20.0068864353741
 20
11.42857156687285
 30
0.0
 11
12.7568864353741
 21
13.11857156687284
 31
0.0
 12
-16.1273115302954
 22
-142.1785711058682
 32
0.0
 70
     0
  1
145
 13
5.506886435374099
 23
23.15714304154477
 33
0.0
 14
20.0068864353741
 24
23.15714304154477
 34
0.0
  0
DIMENSION
  5
189D4FC
  8
DIM
  2
*D6
 10
290.0068864353741
 20
11.42857156687285
 30
0.0
 11
155.0068864353741
 21
13.11857156687284
 31
0.0
 12
-16.1273115302954
 22
-142.1785711058682
 32
0.0
 70
     0
  1
6×450＝2700
 13
20.0068864353741
 23
23.15714304154477
 33
0.0
 14
290.0068864353741
 24
23.15714304154477
 34
0.0
  0
DIMENSION
  5
189D4FD
  8
DIM
  2
*D7
 10
304.5068864353741
 20
11.42857156687285
 30
0.0
 11
297.2568864353741
 21
13.11857156687284
 31
0.0
 12
-16.1273115302954
 22
-142.1785711058682
 32
0.0
 70
     0
  1
145
 13
290.0068864353741
 23
23.15714304154477
 33
0.0
 14
304.5068864353741
 24
23.15714304154477
 34
0.0
  0
DIMENSION
  5
189D4FE
  8
DIM
  2
*D8
 10
304.5068864353741
 20
2.0
 30
0.0
 11
155.0068864353741
 21
3.689999999999998
 31
0.0
 12
-16.1273115302954
 22
-142.1785711058682
 32
0.0
 70
     0
  1
2990
 13
5.506886435374099
 23
23.15714304154477
 33
0.0
 14
304.5068864353741
 24
21.15714304154477
 34
0.0
  0
LINE
  5
189D4FF
  8
2
 10
304.5068864353741
 20
26.35714304154476
 30
0.0
 11
304.5068864353741
 21
23.15714304154477
 31
0.0
  0
LINE
  5
189D500
  8
DIM
 10
308.7495271224934
 20
28.8872873579233
 30
0.0
 11
311.2359407164174
 21
31.37370095184735
 31
0.0
  0
LINE
  5
189D501
  8
DIM
 62
     2
 10
306.6282067789338
 20
26.7659670143637
 30
0.0
 11
308.7495271224934
 21
28.8872873579233
 31
0.0
  0
LINE
  5
189D502
  8
DIM
 62
     2
 10
306.981760169527
 20
26.41241362377042
 30
0.0
 11
304.5068864353741
 21
24.64464667080404
 31
0.0
  0
LINE
  5
189D503
  8
DIM
 62
     2
 10
304.5068864353741
 20
24.64464667080404
 30
0.0
 11
306.2746533883405
 21
27.11952040495686
 31
0.0
  0
LINE
  5
189D504
  8
DIM
 62
     2
 10
304.5068864353741
 20
24.64464667080404
 30
0.0
 11
306.6282067789338
 21
26.7659670143637
 31
0.0
  0
TEXT
  5
189D505
  8
DIM
 10
313.8832381404769
 20
32.96543806438933
 30
0.0
 40
3.5
  1
2
 50
0.0000000000000254
 41
0.8
  0
CIRCLE
  5
189D506
  8
DIM
 10
314.7714746223502
 20
34.90923485778006
 30
0.0
 40
5.0
  0
LINE
  5
189D507
  8
DIM
 62
     2
 10
305.5068864353741
 20
59.54764091460765
 30
0.0
 11
307.6282067789338
 21
61.66896125816731
 31
0.0
  0
LINE
  5
189D508
  8
DIM
 62
     2
 10
305.5068864353741
 20
59.54764091460765
 30
0.0
 11
307.2746533883405
 21
62.02251464876048
 31
0.0
  0
LINE
  5
189D509
  8
DIM
 62
     2
 10
307.981760169527
 20
61.31540786757404
 30
0.0
 11
305.5068864353741
 21
59.54764091460765
 31
0.0
  0
LINE
  5
189D50A
  8
DIM
 62
     2
 10
307.6282067789338
 20
61.66896125816731
 30
0.0
 11
309.7495271224934
 21
63.79028160172692
 31
0.0
  0
CIRCLE
  5
189D50B
  8
DIM
 10
315.7714746223502
 20
69.81222910158368
 30
0.0
 40
5.0
  0
LINE
  5
189D50C
  8
DIM
 10
309.7495271224934
 20
63.79028160172692
 30
0.0
 11
312.2359407164174
 21
66.27669519565097
 31
0.0
  0
TEXT
  5
189D50D
  8
DIM
 10
314.4799722766425
 20
68.04718871512216
 30
0.0
 40
3.5
  1
１
 41
0.8
  0
LINE
  5
189D50E
  8
CEN
 10
20.5068864353741
 20
57.78571493112099
 30
0.0
 11
20.5068864353741
 21
60.30938982619864
 31
0.0
  0
LINE
  5
189D50F
  8
CEN
 10
20.5068864353741
 20
57.78571493112099
 30
0.0
 11
20.5068864353741
 21
55.12984187447466
 31
0.0
  0
LINE
  5
189D510
  8
CEN
 10
65.5068864353741
 20
57.78571493112099
 30
0.0
 11
65.5068864353741
 21
55.12984187447466
 31
0.0
  0
LINE
  5
189D511
  8
CEN
 10
65.5068864353741
 20
57.78571493112099
 30
0.0
 11
65.5068864353741
 21
60.30938982619864
 31
0.0
  0
LINE
  5
189D512
  8
CEN
 10
110.5068864353741
 20
57.78571493112099
 30
0.0
 11
110.5068864353741
 21
55.12984187447466
 31
0.0
  0
LINE
  5
189D513
  8
CEN
 10
110.5068864353741
 20
57.78571493112099
 30
0.0
 11
110.5068864353741
 21
60.30938982619864
 31
0.0
  0
LINE
  5
189D514
  8
CEN
 10
155.5068864353741
 20
57.78571493112099
 30
0.0
 11
155.5068864353741
 21
55.12984187447466
 31
0.0
  0
LINE
  5
189D515
  8
CEN
 10
155.5068864353741
 20
57.78571493112099
 30
0.0
 11
155.5068864353741
 21
60.30938982619864
 31
0.0
  0
LINE
  5
189D516
  8
CEN
 10
200.5068864353741
 20
57.78571493112099
 30
0.0
 11
200.5068864353741
 21
55.12984187447466
 31
0.0
  0
LINE
  5
189D517
  8
CEN
 10
200.5068864353741
 20
57.78571493112099
 30
0.0
 11
200.5068864353741
 21
60.30938982619864
 31
0.0
  0
LINE
  5
189D518
  8
CEN
 10
245.5068864353741
 20
57.78571493112099
 30
0.0
 11
245.5068864353741
 21
55.12984187447466
 31
0.0
  0
LINE
  5
189D519
  8
CEN
 10
245.5068864353741
 20
57.78571493112099
 30
0.0
 11
245.5068864353741
 21
60.30938982619864
 31
0.0
  0
LINE
  5
189D51A
  8
CEN
 10
290.5068864353741
 20
57.78571493112099
 30
0.0
 11
290.5068864353741
 21
55.12984187447466
 31
0.0
  0
LINE
  5
189D51B
  8
CEN
 10
290.5068864353741
 20
57.78571493112099
 30
0.0
 11
290.5068864353741
 21
60.30938982619864
 31
0.0
  0
ENDBLK
  8
0
  0
BLOCK
  8
0
  2
A$C794173BC
 70
     0
 10
0.0
 20
0.0
 30
0.0
  0
TEXT
  5
189D78F
  8
DIM
 10
-0.0000006210366337
 20
-0.0000002423274736
 30
0.0
 40
3.5
  1
( )寸法は参考値を示す。保証値ではありません。
 41
0.8
  0
ENDBLK
  8
0
  0
BLOCK
  8
0
  2
_CLOSED
 70
     0
 10
0.0
 20
0.0
 30
0.0
  0
LINE
  5
189D793
  8
0
  6
BYBLOCK
 62
     0
 10
-1.0
 20
0.1666666666666667
 30
0.0
 11
0.0
 21
0.0
 31
0.0
  0
LINE
  5
189D794
  8
0
  6
BYBLOCK
 62
     0
 10
0.0
 20
0.0
 30
0.0
 11
-1.0
 21
-0.1666666666666667
 31
0.0
  0
LINE
  5
189D795
  8
0
  6
BYBLOCK
 62
     0
 10
-1.0
 20
0.1666666666666667
 30
0.0
 11
-1.0
 21
-0.1666666666666667
 31
0.0
  0
LINE
  5
189D796
  8
0
  6
BYBLOCK
 62
     0
 10
0.0
 20
0.0
 30
0.0
 11
-1.0
 21
0.0
 31
0.0
  0
ENDBLK
  8
0
  0
BLOCK
  8
0
  2
A$C3CC249BE
 70
     0
 10
0.0
 20
0.0
 30
0.0
  0
TEXT
  5
189DBAF
  8
DIM
 10
-0.0000006210366337
 20
-0.0000002423274736
 30
0.0
 40
3.5
  1
( )寸法は参考値を示す。保証値ではありません。
 41
0.8
  0
ENDBLK
  8
0
  0
BLOCK
  8
0
  2
_OPEN30
 70
     0
 10
0.0
 20
0.0
 30
0.0
  0
LINE
  5
189E37A
  8
寸法線
 62
     0
 10
-1.0
 20
0.26794919
 30
0.0
 11
0.0
 21
0.0
 31
0.0
  0
LINE
  5
189E37B
  8
寸法線
 62
     0
 10
0.0
 20
0.0
 30
0.0
 11
-1.0
 21
-0.26794919
 31
0.0
  0
LINE
  5
189E37C
  8
寸法線
 62
     0
 10
0.0
 20
0.0
 30
0.0
 11
-1.0
 21
0.0
 31
0.0
  0
ENDBLK
  8
0
  0
BLOCK
  8
0
  2
*D14
 70
     1
 10
0.0
 20
0.0
 30
0.0
  0
LINE
  5
189E40E
  8
寸法線
 62
     0
 10
84.94424499177947
 20
121.138964871949
 30
0.0
 11
76.76796712602643
 21
121.138964871949
 31
0.0
  0
LINE
  5
189E40F
  8
寸法線
 62
     0
 10
84.94424499177947
 20
111.138964871949
 30
0.0
 11
76.76796712602643
 21
111.138964871949
 31
0.0
  0
LINE
  5
189E410
  8
寸法線
 62
     0
 10
77.26796712602643
 20
126.138964871949
 30
0.0
 11
77.26796712602643
 21
131.138964871949
 31
0.0
  0
LINE
  5
189E411
  8
寸法線
 62
     0
 10
77.26796712602643
 20
106.138964871949
 30
0.0
 11
77.26796712602643
 21
101.138964871949
 31
0.0
  0
LINE
  5
189E412
  8
寸法線
 62
     0
 10
77.26796712602643
 20
121.138964871949
 30
0.0
 11
77.26796712602643
 21
111.138964871949
 31
0.0
  0
INSERT
  5
189E413
  8
寸法線
 62
     0
  2
_OPEN30
 10
77.26796712602643
 20
121.138964871949
 30
0.0
 41
5.0
 42
5.0
 43
5.0
 50
270.0
  0
INSERT
  5
189E414
  8
寸法線
 62
     0
  2
_OPEN30
 10
77.26796712602643
 20
111.138964871949
 30
0.0
 41
5.0
 42
5.0
 43
5.0
 50
90.0
  0
TEXT
  5
189E415
  8
寸法線
  6
CONTINUOUS
 62
     0
 10
76.26796712602645
 20
113.8056315386156
 30
0.0
 40
5.0
  1
10
 50
90.0
 41
0.8
  0
POINT
  5
189E416
  8
DEFPOINTS
 62
     0
 10
85.94424499177947
 20
121.138964871949
 30
0.0
  0
POINT
  5
189E417
  8
DEFPOINTS
 62
     0
 10
85.94424499177947
 20
111.138964871949
 30
0.0
  0
POINT
  5
189E418
  8
DEFPOINTS
 62
     0
 10
77.26796712602643
 20
111.138964871949
 30
0.0
  0
ENDBLK
  8
0
  0
BLOCK
  8
0
  2
*D15
 70
     1
 10
0.0
 20
0.0
 30
0.0
  0
LINE
  5
189E419
  8
寸法線
 62
     0
 10
85.94424499177944
 20
110.1389648719489
 30
0.0
 11
85.94424499177944
 21
98.87271017706121
 31
0.0
  0
LINE
  5
189E41A
  8
寸法線
 62
     0
 10
181.9442449917794
 20
110.1389648719489
 30
0.0
 11
181.9442449917794
 21
98.87271017706121
 31
0.0
  0
LINE
  5
189E41B
  8
寸法線
 62
     0
 10
90.94424499177944
 20
99.37271017706121
 30
0.0
 11
176.9442449917794
 21
99.37271017706121
 31
0.0
  0
INSERT
  5
189E41C
  8
寸法線
 62
     0
  2
_OPEN30
 10
85.94424499177944
 20
99.37271017706121
 30
0.0
 41
5.0
 42
5.0
 43
5.0
 50
180.0
  0
INSERT
  5
189E41D
  8
寸法線
 62
     0
  2
_OPEN30
 10
181.9442449917794
 20
99.37271017706121
 30
0.0
 41
5.0
 42
5.0
 43
5.0
  0
TEXT
  5
189E41E
  8
寸法線
  6
CONTINUOUS
 62
     0
 10
130.6109116584461
 20
100.3727101770612
 30
0.0
 40
5.0
  1
96
 41
0.8
  0
POINT
  5
189E41F
  8
DEFPOINTS
 62
     0
 10
85.94424499177944
 20
111.1389648719489
 30
0.0
  0
POINT
  5
189E420
  8
DEFPOINTS
 62
     0
 10
181.9442449917794
 20
111.1389648719489
 30
0.0
  0
POINT
  5
189E421
  8
DEFPOINTS
 62
     0
 10
181.9442449917794
 20
99.37271017706121
 30
0.0
  0
ENDBLK
  8
0
  0
BLOCK
  8
0
  2
*D16
 70
     1
 10
0.0
 20
0.0
 30
0.0
  0
LINE
  5
189E464
  8
寸法線
 62
     0
 10
85.94424499177944
 20
110.1389648719489
 30
0.0
 11
85.94424499177944
 21
86.7403095396146
 31
0.0
  0
LINE
  5
189E465
  8
寸法線
 62
     0
 10
215.9442449917795
 20
170.1389648719489
 30
0.0
 11
215.9442449917795
 21
86.7403095396146
 31
0.0
  0
LINE
  5
189E466
  8
寸法線
 62
     0
 10
90.94424499177944
 20
87.2403095396146
 30
0.0
 11
210.9442449917795
 21
87.2403095396146
 31
0.0
  0
TEXT
  5
189E467
  8
寸法線
  6
CONTINUOUS
 62
     0
 10
129.9481025140416
 20
88.2403095396146
 30
0.0
 40
5.0
  1
130
 41
0.8
  0
INSERT
  5
189E468
  8
寸法線
 62
     0
  2
_OPEN30
 10
85.94424499177944
 20
87.2403095396146
 30
0.0
 41
5.0
 42
5.0
 43
5.0
 50
180.0
  0
INSERT
  5
189E469
  8
寸法線
 62
     0
  2
_OPEN30
 10
215.9442449917795
 20
87.2403095396146
 30
0.0
 41
5.0
 42
5.0
 43
5.0
  0
POINT
  5
189E46A
  8
DEFPOINTS
 62
     0
 10
85.94424499177944
 20
111.1389648719489
 30
0.0
  0
POINT
  5
189E46B
  8
DEFPOINTS
 62
     0
 10
215.9442449917795
 20
171.1389648719489
 30
0.0
  0
POINT
  5
189E46C
  8
DEFPOINTS
 62
     0
 10
215.9442449917795
 20
87.2403095396146
 30
0.0
  0
ENDBLK
  8
0
  0
BLOCK
  8
0
  2
*D17
 70
     1
 10
0.0
 20
0.0
 30
0.0
  0
LINE
  5
189E42B
  8
寸法線
 62
     0
 10
182.9442449917795
 20
111.138964871949
 30
0.0
 11
229.6977747112225
 21
111.138964871949
 31
0.0
  0
LINE
  5
189E42C
  8
寸法線
 62
     0
 10
216.9442449917803
 20
171.1389648719485
 30
0.0
 11
229.6977747112225
 21
171.1389648719485
 31
0.0
  0
LINE
  5
189E42D
  8
寸法線
 62
     0
 10
229.1977747112225
 20
116.138964871949
 30
0.0
 11
229.1977747112225
 21
166.1389648719485
 31
0.0
  0
INSERT
  5
189E42E
  8
寸法線
 62
     0
  2
_OPEN30
 10
229.1977747112225
 20
111.138964871949
 30
0.0
 41
5.0
 42
5.0
 43
5.0
 50
270.0
  0
INSERT
  5
189E42F
  8
寸法線
 62
     0
  2
_OPEN30
 10
229.1977747112225
 20
171.1389648719485
 30
0.0
 41
5.0
 42
5.0
 43
5.0
 50
90.0
  0
TEXT
  5
189E430
  8
寸法線
  6
CONTINUOUS
 62
     0
 10
228.1977747112225
 20
138.1389648719487
 30
0.0
 40
5.0
  1
60
 50
90.0
 41
0.8
  0
POINT
  5
189E431
  8
DEFPOINTS
 62
     0
 10
181.9442449917795
 20
111.138964871949
 30
0.0
  0
POINT
  5
189E432
  8
DEFPOINTS
 62
     0
 10
215.9442449917803
 20
171.1389648719485
 30
0.0
  0
POINT
  5
189E433
  8
DEFPOINTS
 62
     0
 10
229.1977747112225
 20
171.1389648719485
 30
0.0
  0
ENDBLK
  8
0
  0
BLOCK
  8
0
  2
*D18
 70
     1
 10
0.0
 20
0.0
 30
0.0
  0
LINE
  5
189E434
  8
寸法線
 62
     0
 10
164.5903510018227
 20
142.9566901971518
 30
0.0
 11
177.2798043495746
 21
123.374960854497
 31
0.0
  0
TEXT
  5
189E435
  8
寸法線
  6
CONTINUOUS
 62
     0
 10
165.973373865685
 20
142.6613128824606
 30
0.0
 40
5.0
  1
R50
 50
302.9442528258054
 41
0.8
  0
INSERT
  5
189E436
  8
寸法線
 62
     0
  2
_OPEN30
 10
179.9989182225024
 20
119.1789604081134
 30
0.0
 41
5.0
 42
5.0
 43
5.0
 50
302.9442528258054
  0
POINT
  5
189E437
  8
DEFPOINTS
 62
     0
 10
179.9989182225024
 20
119.1789604081134
 30
0.0
  0
POINT
  5
189E438
  8
DEFPOINTS
 62
     0
 10
152.8077794932238
 20
161.1389648719498
 30
0.0
  0
ENDBLK
  8
0
  0
ENDSEC
  0
SECTION
  2
ENTITIES
  0
INSERT
  5
189C7F1
  8
WAKU
  2
WK_A3Y0
 10
0.0
 20
0.0
 30
0.0
  0
INSERT
  5
189C7F9
  8
WAKU
 66
     1
  2
DIMSTAT
 10
0.0
 20
0.0
 30
0.0
  0
ATTRIB
  5
189C7FA
  8
0
 10
0.0
 20
1.0
 30
0.0
 40
1.0
  1
1.000
 41
0.7
 51
15.0
  2
DIMEXT
 70
     1
  0
ATTRIB
  5
189C7FB
  8
0
 10
0.0
 20
0.0
 30
0.0
 40
1.0
  1
10.000 
 41
0.7
 51
15.0
  2
DIMBAL
 70
     1
  0
ATTRIB
  5
189C7FC
  8
0
 10
-0.0444762094363156
 20
-0.911649989012119
 30
0.0
 40
1.0
  1
4.000 
 41
0.7
 51
15.0
 72
     1
 11
1.507190457230351
 21
-0.911649989012119
 31
0.0
  2
SYMSCL
 70
     1
  0
SEQEND
  5
189C7FD
  8
WAKU
  0
INSERT
  5
189C801
  8
WAKU
 66
     1
  2
DIMSTAT2
 10
0.0
 20
0.0
 30
0.0
  0
ATTRIB
  5
189C802
  8
0
 10
0.0
 20
0.0
 30
0.0
 40
1.0
  1
(1.280 1.920 0.000 0.000 0.000 0.000 0.000 3.200 12.000 0 )
 41
0.7
  2
DIMSIZ
 70
     1
  0
SEQEND
  5
189C803
  8
WAKU
  0
POINT
  5
189C901
  8
THN
 10
97.15721905596911
 20
40.46428525328065
 30
0.0
  0
LINE
  5
189CA0B
  8
THN
 10
72.15721905596911
 20
59.00340085453638
 30
0.0
 11
72.15721905596911
 21
10.42630284761617
 31
0.0
  0
LINE
  5
189CA0D
  8
THN
 10
122.1572190559691
 20
10.42630284761617
 30
0.0
 11
122.1572190559691
 21
54.26417206741291
 31
0.0
  0
LINE
  5
189CA0E
  8
THN
 10
97.15721905596911
 20
40.46428525328065
 30
0.0
 11
125.8016869030598
 21
40.46428525328065
 31
0.0
  0
LINE
  5
189CA0F
  8
THN
 10
97.15721905596911
 20
40.46428525328065
 30
0.0
 11
66.4656049077762
 21
40.46428525328065
 31
0.0
  0
LINE
  5
189CA1D
  8
THN
 10
97.15721905596911
 20
90.46428525328065
 30
0.0
 11
66.45555373412708
 21
90.46428525328065
 31
0.0
  0
TEXT
  5
189CAB8
  8
DIM
 10
291.617305808529
 20
30.79693782135507
 30
0.0
 40
5.0
  1
塞ぎゴム　LB-5
 41
0.8
  0
TEXT
  5
189CAB9
  8
DIM
 10
298.7874382443983
 20
19.56538702759497
 30
0.0
 40
3.2
  1
2021.8.20
 41
0.8
  0
LINE
  5
189CABB
  8
WAKU
 10
269.4999999999999
 20
50.46560095650418
 30
0.0
 11
269.4999999999999
 21
60.06560095650417
 31
0.0
  0
LINE
  5
189CABC
  8
WAKU
 10
269.4999999999999
 20
60.06560095650417
 30
0.0
 11
389.9999999999999
 21
60.06560095650417
 31
0.0
  0
LINE
  5
189CABF
  8
WAKU
 10
285.9999999999999
 20
50.46560095650418
 30
0.0
 11
285.9999999999999
 21
59.76560095650417
 31
0.0
  0
LINE
  5
189CAC0
  8
WAKU
 10
329.8
 20
50.46560095650418
 30
0.0
 11
329.8
 21
60.06560095650417
 31
0.0
  0
LINE
  5
189CAC2
  8
WAKU
 10
362.8
 20
50.46560095650418
 30
0.0
 11
362.8
 21
60.06560095650417
 31
0.0
  0
LINE
  5
189CAC3
  8
WAKU
 10
345.8
 20
50.46560095650418
 30
0.0
 11
345.8
 21
59.76560095650417
 31
0.0
  0
TEXT
  5
189CAC6
  8
DIM
 10
288.532950255882
 20
52.62324542773231
 30
0.0
 40
5.0
  1
ゴ　ム
 41
0.8
  0
TEXT
  5
189CACA
  8
DIM
 10
365.1798273801699
 20
52.62324542773231
 30
0.0
 40
3.2
  1
Hs 55
 41
0.8
  0
TEXT
  5
189CACC
  8
DIM
 10
377.5974766843947
 20
54.2695044162862
 30
0.0
 40
2.5
  1
±5
 41
0.8
  0
TEXT
  5
189CACD
  8
DIM
 10
351.4321959071722
 20
52.62324542773231
 30
0.0
 40
3.2
  1
CR
 41
0.8
  0
LINE
  5
189CBA9
  8
THN
 10
35.53419796566945
 20
154.9581280517933
 30
0.0
 11
36.73419796566944
 21
154.9581280517933
 31
0.0
  0
POINT
  5
189CBAA
  8
THN
 10
36.13419796566944
 20
154.9581280517933
 30
0.0
  0
POINT
  5
189CBAB
  8
THN
 10
81.13419796566944
 20
154.9581280517933
 30
0.0
  0
LINE
  5
189CBAC
  8
THN
 10
80.53419796566945
 20
154.9581280517933
 30
0.0
 11
81.73419796566944
 21
154.9581280517933
 31
0.0
  0
POINT
  5
189CBB5
  8
THN
 10
126.1341979656694
 20
154.9581280517933
 30
0.0
  0
LINE
  5
189CBB6
  8
THN
 10
125.5341979656694
 20
154.9581280517933
 30
0.0
 11
126.7341979656694
 21
154.9581280517933
 31
0.0
  0
POINT
  5
189CBBF
  8
THN
 10
171.1341979656694
 20
154.9581280517933
 30
0.0
  0
LINE
  5
189CBC0
  8
THN
 10
170.5341979656694
 20
154.9581280517933
 30
0.0
 11
171.7341979656694
 21
154.9581280517933
 31
0.0
  0
POINT
  5
189CBC9
  8
THN
 10
216.1341979656694
 20
154.9581280517933
 30
0.0
  0
LINE
  5
189CBCA
  8
THN
 10
215.5341979656694
 20
154.9581280517933
 30
0.0
 11
216.7341979656694
 21
154.9581280517933
 31
0.0
  0
POINT
  5
189CBD3
  8
THN
 10
261.1341979656694
 20
154.9581280517933
 30
0.0
  0
LINE
  5
189CBD4
  8
THN
 10
260.5341979656694
 20
154.9581280517933
 30
0.0
 11
261.7341979656695
 21
154.9581280517933
 31
0.0
  0
POINT
  5
189CBDD
  8
THN
 10
306.1341979656694
 20
154.9581280517933
 30
0.0
  0
LINE
  5
189CBDE
  8
THN
 10
305.5341979656694
 20
154.9581280517933
 30
0.0
 11
306.7341979656695
 21
154.9581280517933
 31
0.0
  0
POINT
  5
189CC55
  8
THN
 10
178.8521686270337
 20
37.3111488125852
 30
0.0
  0
TEXT
  5
189CC9D
  8
DIM
 10
336.3040854897181
 20
53.41581618987541
 30
0.0
 40
3.5
  1
１
 41
0.8
  0
TEXT
  5
189CD21
  8
DIM
 10
363.2447005438396
 20
19.44686450729193
 30
0.0
 40
3.5
  1
N.T.S
 41
0.8
  0
POLYLINE
  5
189E3CE
  8
0
 66
     1
 10
0.0
 20
0.0
 30
0.0
  0
VERTEX
  5
189E49C
  8
0
 10
85.94424499177944
 20
111.1389648719489
 30
0.0
  0
VERTEX
  5
189E49D
  8
0
 10
85.94424499177944
 20
121.1389648719489
 30
0.0
  0
VERTEX
  5
189E49E
  8
0
 10
152.8077794932239
 20
121.1389648719489
 30
0.0
 42
0.2701072879313088
  0
VERTEX
  5
189E49F
  8
0
 10
187.6086669271683
 20
141.4184619927139
 30
0.0
  0
VERTEX
  5
189E4A0
  8
0
 10
207.2440231332933
 20
176.0690905917579
 30
0.0
  0
VERTEX
  5
189E4A1
  8
0
 10
215.9442449917795
 20
171.1389648719489
 30
0.0
  0
VERTEX
  5
189E4A2
  8
0
 10
196.3088887856545
 20
136.4883362729049
 30
0.0
 42
-0.2701072879313088
  0
VERTEX
  5
189E4A3
  8
0
 10
152.8077794932239
 20
111.1389648719489
 30
0.0
  0
VERTEX
  5
189E4A4
  8
0
 10
85.94424499177944
 20
111.1389648719489
 30
0.0
  0
SEQEND
  5
189E4A5
  8
0
  0
DIMENSION
  5
189E3CF
  8
寸法線
  2
*D14
 10
77.26796712602643
 20
111.138964871949
 30
0.0
 11
73.76796712602646
 21
116.1389648719489
 31
0.0
 70
    32
 13
85.94424499177944
 23
121.1389648719489
 33
0.0
 14
85.94424499177944
 24
111.1389648719489
 34
0.0
 50
90.0
  0
DIMENSION
  5
189E3D0
  8
寸法線
  2
*D15
 10
181.9442449917794
 20
99.37271017706121
 30
0.0
 11
133.9442449917794
 21
102.8727101770612
 31
0.0
 70
    32
 13
85.94424499177944
 23
111.1389648719489
 33
0.0
 14
181.9442449917794
 24
111.1389648719489
 34
0.0
  0
DIMENSION
  5
189E3D1
  8
寸法線
  2
*D16
 10
215.9442449917795
 20
87.2403095396146
 30
0.0
 11
134.281435847375
 21
87.2403095396146
 31
0.0
 70
   160
 13
85.94424499177944
 23
111.1389648719489
 33
0.0
 14
215.9442449917795
 24
171.1389648719489
 34
0.0
  0
DIMENSION
  5
189E3D2
  8
寸法線
  2
*D17
 10
229.1977747112225
 20
171.1389648719485
 30
0.0
 11
225.6977747112225
 21
141.1389648719487
 31
0.0
 70
    32
 13
181.9442449917794
 23
111.1389648719489
 33
0.0
 14
215.9442449917802
 24
171.1389648719485
 34
0.0
 50
90.0
  0
DIMENSION
  5
189E3D3
  8
寸法線
  2
*D18
 10
152.8077794932238
 20
161.1389648719498
 30
0.0
 11
167.8532876493361
 21
137.9214896614915
 31
0.0
 70
   164
 15
179.9989182225024
 25
119.1789604081134
 35
0.0
 40
0.0
  0
LINE
  5
189E473
  8
0
  6
DASHED
 10
181.9442449917794
 20
111.1389648719489
 30
0.0
 11
152.8077794932239
 21
111.1389648719489
 31
0.0
  0
LINE
  5
189E474
  8
0
  6
DASHED
 10
196.3088887856545
 20
136.4883362729049
 30
0.0
 11
181.9442449917794
 21
111.1389648719489
 31
0.0
  0
ENDSEC
  0
EOF
