  0
SECTION
  2
HEADER
  9
$ACADVER
  1
AC1006
  9
$DWGCODEPAGE
  3
ansi_932
  9
$INSBASE
 10
0.0
 20
0.0
 30
0.0
  9
$EXTMIN
 10
25.10150303317641
 20
10.14053954865869
  9
$EXTMAX
 10
290.0
 20
50.15746668529695
  9
$LIMMIN
 10
0.0
 20
0.0
  9
$LIMMAX
 10
420.0
 20
297.0
  9
$ORTHOMODE
 70
     0
  9
$REGENMODE
 70
     1
  9
$FILLMODE
 70
     1
  9
$QTEXTMODE
 70
     0
  9
$MIRRTEXT
 70
     1
  9
$DRAGMODE
 70
     2
  9
$LTSCALE
 40
0.5
  9
$OSMODE
 70
    37
  9
$ATTMODE
 70
     1
  9
$TEXTSIZE
 40
2.0
  9
$TRACEWID
 40
1.0
  9
$TEXTSTYLE
  7
STANDARD
  9
$CLAYER
  8
寸法線
  9
$CELTYPE
  6
BYLAYER
  9
$CECOLOR
 62
   256
  9
$DIMSCALE
 40
1.0
  9
$DIMASZ
 40
1.0
  9
$DIMEXO
 40
0.625
  9
$DIMDLI
 40
3.75
  9
$DIMRND
 40
0.0
  9
$DIMDLE
 40
0.0
  9
$DIMEXE
 40
1.25
  9
$DIMTP
 40
0.0
  9
$DIMTM
 40
0.0
  9
$DIMTXT
 40
1.5
  9
$DIMCEN
 40
1.0
  9
$DIMTSZ
 40
0.0
  9
$DIMTOL
 70
     0
  9
$DIMLIM
 70
     0
  9
$DIMTIH
 70
     0
  9
$DIMTOH
 70
     0
  9
$DIMSE1
 70
     0
  9
$DIMSE2
 70
     0
  9
$DIMTAD
 70
     1
  9
$DIMZIN
 70
     8
  9
$DIMBLK
  1
OPEN30
  9
$DIMASO
 70
     1
  9
$DIMSHO
 70
     1
  9
$DIMPOST
  1

  9
$DIMAPOST
  1

  9
$DIMALT
 70
     0
  9
$DIMALTD
 70
     3
  9
$DIMALTF
 40
0.03937007874016
  9
$DIMLFAC
 40
1.0
  9
$DIMTOFL
 70
     1
  9
$DIMTVP
 40
0.0
  9
$DIMTIX
 70
     0
  9
$DIMSOXD
 70
     0
  9
$DIMSAH
 70
     0
  9
$DIMBLK1
  1

  9
$DIMBLK2
  1

  9
$LUNITS
 70
     2
  9
$LUPREC
 70
     4
  9
$SKETCHINC
 40
1.0
  9
$FILLETRAD
 40
1.0
  9
$AUNITS
 70
     0
  9
$AUPREC
 70
     0
  9
$MENU
  1
.
  9
$ELEVATION
 40
0.0
  9
$THICKNESS
 40
0.0
  9
$LIMCHECK
 70
     0
  9
$CHAMFERA
 40
2.0
  9
$CHAMFERB
 40
2.0
  9
$SKPOLY
 70
     0
  9
$TDCREATE
 40
2452705.193565278
  9
$TDUPDATE
 40
2459449.751504097
  9
$TDINDWG
 40
6.5960667361
  9
$TDUSRTIMER
 40
6.5960643981
  9
$USRTIMER
 70
     1
  9
$ANGBASE
 50
0.0
  9
$ANGDIR
 70
     0
  9
$PDMODE
 70
     0
  9
$PDSIZE
 40
0.0
  9
$PLINEWID
 40
0.0
  9
$COORDS
 70
     1
  9
$SPLFRAME
 70
     0
  9
$SPLINETYPE
 70
     6
  9
$SPLINESEGS
 70
     8
  9
$ATTDIA
 70
     0
  9
$ATTREQ
 70
     1
  9
$HANDLING
 70
     1
  9
$HANDSEED
  5
1A620
  9
$SURFTAB1
 70
     6
  9
$SURFTAB2
 70
     6
  9
$SURFTYPE
 70
     6
  9
$SURFU
 70
     6
  9
$SURFV
 70
     6
  9
$UCSNAME
  2

  9
$UCSORG
 10
0.0
 20
0.0
 30
0.0
  9
$UCSXDIR
 10
1.0
 20
0.0
 30
0.0
  9
$UCSYDIR
 10
0.0
 20
1.0
 30
0.0
  9
$USERI1
 70
     0
  9
$USERI2
 70
     0
  9
$USERI3
 70
     0
  9
$USERI4
 70
     0
  9
$USERI5
 70
     0
  9
$USERR1
 40
0.0
  9
$USERR2
 40
0.0
  9
$USERR3
 40
0.0
  9
$USERR4
 40
0.0
  9
$USERR5
 40
0.0
  9
$WORLDVIEW
 70
     1
  0
ENDSEC
  0
SECTION
  2
TABLES
  0
TABLE
  2
VPORT
 70
     1
  0
VPORT
  2
*ACTIVE
 70
     0
 10
0.0
 20
0.0
 11
1.0
 21
1.0
 12
103.6919909540529
 22
35.84762958991368
 13
0.0
 23
0.0
 14
10.0
 24
10.0
 15
10.0
 25
10.0
 16
0.0
 26
0.0
 36
1.0
 17
0.0
 27
0.0
 37
0.0
 40
94.49160588031825
 41
2.0
 42
50.0
 43
0.0
 44
0.0
 50
0.0
 51
0.0
 71
     0
 72
   100
 73
     1
 74
     3
 75
     0
 76
     0
 77
     0
 78
     0
  0
ENDTAB
  0
TABLE
  2
LTYPE
 70
     7
  0
LTYPE
  2
CONTINUOUS
 70
     0
  3
Solid line
 72
    65
 73
     0
 40
0.0
  0
LTYPE
  2
CENTER2
 70
     0
  3
Center (.5x) ___ _ ___ _ ___ _ ___ _ ___ _ ___
 72
    65
 73
     4
 40
28.575
 49
19.05
 49
-3.175
 49
3.175
 49
-3.175
  0
LTYPE
  2
DASHED2
 70
     0
  3
Dashed (.5x) _ _ _ _ _ _ _ _ _ _ _ _ _ _ _ _ _
 72
    65
 73
     2
 40
9.524999999999999
 49
6.35
 49
-3.175
  0
LTYPE
  2
HIDDEN2
 70
     0
  3
Hidden (.5x) _ _ _ _ _ _ _ _ _ _ _ _ _ _ _ _ _
 72
    65
 73
     2
 40
4.762499999999999
 49
3.175
 49
-1.5875
  0
LTYPE
  2
PHANTOM2
 70
     0
  3
Phantom (.5x) ___ _ _ ___ _ _ ___ _ _ ___ _ _
 72
    65
 73
     6
 40
31.75
 49
15.875
 49
-3.175
 49
3.175
 49
-3.175
 49
3.175
 49
-3.175
  0
LTYPE
  2
DASHDOT2
 70
     0
  3
Dash dot (.5x) _._._._._._._._._._._._._._._.
 72
    65
 73
     4
 40
12.7
 49
6.35
 49
-3.175
 49
0.0
 49
-3.175
  0
LTYPE
  2
DOT
 70
     0
  3
Dot . . . . . . . . . . . . . . . . . . . . . .
 72
    65
 73
     2
 40
0.25
 49
0.0
 49
-0.25
  0
ENDTAB
  0
TABLE
  2
LAYER
 70
     9
  0
LAYER
  2
0
 70
     0
 62
     7
  6
CONTINUOUS
  0
LAYER
  2
センター線
 70
     0
 62
     4
  6
CENTER2
  0
LAYER
  2
補助線
 70
     0
 62
     2
  6
CONTINUOUS
  0
LAYER
  2
DEFPOINTS
 70
     0
 62
     7
  6
CONTINUOUS
  0
LAYER
  2
隠線
 70
     0
 62
     8
  6
HIDDEN2
  0
LAYER
  2
外径線
 70
     0
 62
     5
  6
CONTINUOUS
  0
LAYER
  2
画層5
 70
     0
 62
     6
  6
DASHED2
  0
LAYER
  2
枠
 70
     0
 62
     7
  6
CONTINUOUS
  0
LAYER
  2
寸法線
 70
     0
 62
     3
  6
CONTINUOUS
  0
ENDTAB
  0
TABLE
  2
STYLE
 70
     2
  0
STYLE
  2
STANDARD
 70
     0
 40
0.0
 41
1.0
 50
0.0
 71
     0
 42
2.0
  3
romans.shx
  4
bigfont.shx
  0
STYLE
  2

 70
     1
 40
0.0
 41
1.0
 50
0.0
 71
     0
 42
2.5
  3
ltypeshp.shx
  4

  0
ENDTAB
  0
TABLE
  2
VIEW
 70
     0
  0
ENDTAB
  0
TABLE
  2
UCS
 70
     0
  0
ENDTAB
  0
ENDSEC
  0
SECTION
  2
BLOCKS
  0
BLOCK
  8
0
  2
_OPEN30
 70
     0
 10
0.0
 20
0.0
 30
0.0
  0
LINE
  5
9A1
  8
補助線
 62
     0
 10
-1.0
 20
0.26794919
 30
0.0
 11
0.0
 21
0.0
 31
0.0
  0
LINE
  5
9A2
  8
補助線
 62
     0
 10
0.0
 20
0.0
 30
0.0
 11
-1.0
 21
-0.26794919
 31
0.0
  0
LINE
  5
9A3
  8
補助線
 62
     0
 10
0.0
 20
0.0
 30
0.0
 11
-1.0
 21
0.0
 31
0.0
  0
ENDBLK
  8
0
  0
BLOCK
  8
0
  2
A$C27AF58EE
 70
     0
 10
0.0
 20
0.0
 30
0.0
  0
TEXT
  5
5516
  8
寸法線
  6
CONTINUOUS
 10
-0.4285717510906417
 20
14.92176606841309
 30
0.0
 40
3.0
  1
仕　様
  0
TEXT
  5
5517
  8
寸法線
  6
CONTINUOUS
 10
3.844093856596731
 20
0.00000024768309
 30
0.0
 40
3.0
  1
硬　　さ　：　ﾃﾞｭﾛﾒｰﾀAﾀｲﾌﾟ　７０±5
  0
TEXT
  5
5518
  8
寸法線
  6
CONTINUOUS
 10
3.844093856596731
 20
7.659072610947192
 30
0.0
 40
3.0
  1
ゴム材質　：　EPDM
  0
ENDBLK
  8
0
  0
BLOCK
  8
0
  2
A$C09A73ABD
 70
     0
 10
0.0
 20
0.0
 30
0.0
  0
TEXT
  5
5D47
  8
寸法線
  6
CONTINUOUS
 10
6.974862829712769
 20
41.59703390664651
 30
0.0
 40
2.0
  1
製品公差　３級
  0
TEXT
  5
5D48
  8
寸法線
  6
CONTINUOUS
 10
7.166770043033986
 20
36.49763584663531
 30
0.0
 40
1.5
  1
3未満
  0
TEXT
  5
5D49
  8
寸法線
  6
CONTINUOUS
 10
3.695205921218709
 20
31.57479022324087
 30
0.0
 40
1.5
  1
3以上～6未満
  0
LINE
  5
5D4A
  8
外径線
 10
0.0000000841159817
 20
45.00000001150772
 30
0.0
 11
0.0000000841159817
 21
0.0000000115077228
 31
0.0
  0
LINE
  5
5D4B
  8
外径線
 10
18.60000008411598
 20
40.00000001150772
 30
0.0
 11
18.60000008411598
 21
0.0000000115077228
 31
0.0
  0
LINE
  5
5D4C
  8
外径線
 10
30.00000008411598
 20
45.00000001150772
 30
0.0
 11
30.00000008411598
 21
0.0000000115077228
 31
0.0
  0
LINE
  5
5D4D
  8
外径線
 10
0.0000000841159817
 20
45.00000001150772
 30
0.0
 11
30.00000008411598
 21
45.00000001150772
 31
0.0
  0
LINE
  5
5D4E
  8
外径線
 10
0.0000000841159817
 20
40.00000001150772
 30
0.0
 11
30.00000008411598
 21
40.00000001150772
 31
0.0
  0
LINE
  5
5D4F
  8
外径線
 10
0.0000000841159817
 20
35.00000001150772
 30
0.0
 11
30.00000008411598
 21
35.00000001150772
 31
0.0
  0
LINE
  5
5D50
  8
外径線
 10
0.0000000841159817
 20
30.00000001150772
 30
0.0
 11
30.00000008411598
 21
30.00000001150772
 31
0.0
  0
LINE
  5
5D51
  8
外径線
 10
0.0000000841159817
 20
25.00000001150772
 30
0.0
 11
30.00000008411598
 21
25.00000001150772
 31
0.0
  0
LINE
  5
5D52
  8
外径線
 10
0.0000000841159817
 20
20.00000001150772
 30
0.0
 11
30.00000008411598
 21
20.00000001150772
 31
0.0
  0
LINE
  5
5D53
  8
外径線
 10
0.0000000841159817
 20
0.0000000115077228
 30
0.0
 11
30.00000008411598
 21
0.0000000115077228
 31
0.0
  0
LINE
  5
5D54
  8
外径線
 10
0.0000000841159817
 20
5.000000011507723
 30
0.0
 11
30.00000008411598
 21
5.000000011507723
 31
0.0
  0
LINE
  5
5D55
  8
外径線
 10
0.0000000841159817
 20
15.00000001150772
 30
0.0
 11
30.00000008411598
 21
15.00000001150772
 31
0.0
  0
LINE
  5
5D56
  8
外径線
 10
0.0000000841159817
 20
10.00000001150772
 30
0.0
 11
30.00000008411598
 21
10.00000001150772
 31
0.0
  0
TEXT
  5
5D57
  8
寸法線
  6
CONTINUOUS
 10
21.31136972492373
 20
36.7189986512717
 30
0.0
 40
1.5
  1
±0.4
  0
TEXT
  5
5D58
  8
寸法線
  6
CONTINUOUS
 10
21.31136972492373
 20
31.57479069058609
 30
0.0
 40
1.5
  1
±0.5
  0
TEXT
  5
5D59
  8
寸法線
  6
CONTINUOUS
 10
21.31136972492373
 20
26.78132437295209
 30
0.0
 40
1.5
  1
±0.6
  0
TEXT
  5
5D5A
  8
寸法線
  6
CONTINUOUS
 10
21.31136972492373
 20
21.5202025312493
 30
0.0
 40
1.5
  1
±0.8
  0
TEXT
  5
5D5B
  8
寸法線
  6
CONTINUOUS
 10
21.31136972492373
 20
16.49290845158088
 30
0.0
 40
1.5
  1
±1.0
  0
TEXT
  5
5D5C
  8
寸法線
  6
CONTINUOUS
 10
21.31136972492373
 20
11.58252825292965
 30
0.0
 40
1.5
  1
±1.5
  0
TEXT
  5
5D5D
  8
寸法線
  6
CONTINUOUS
 10
21.31136972492373
 20
6.789061935295649
 30
0.0
 40
1.5
  1
±2.0
  0
TEXT
  5
5D5E
  8
寸法線
  6
CONTINUOUS
 10
21.31136972492373
 20
1.761767388282067
 30
0.0
 40
1.5
  1
±2.5
  0
TEXT
  5
5D5F
  8
寸法線
  6
CONTINUOUS
 10
2.317457774442305
 20
21.83391360949081
 30
0.0
 40
1.5
  1
10以上～18未満
  0
TEXT
  5
5D60
  8
寸法線
  6
CONTINUOUS
 10
2.317457774442305
 20
16.72394522804001
 30
0.0
 40
1.5
  1
18以上～30未満
  0
TEXT
  5
5D61
  8
寸法線
  6
CONTINUOUS
 10
2.331743488728031
 20
11.77366403031817
 30
0.0
 40
1.5
  1
30以上～50未満
  0
TEXT
  5
5D62
  8
寸法線
  6
CONTINUOUS
 10
2.331743488728031
 20
6.743538773386717
 30
0.0
 40
1.5
  1
50以上～80未満
  0
TEXT
  5
5D63
  8
寸法線
  6
CONTINUOUS
 10
2.331743488728031
 20
1.952943824703539
 30
0.0
 40
1.5
  1
80以上～120未満
  0
TEXT
  5
5D64
  8
寸法線
  6
CONTINUOUS
 10
3.828470170713152
 20
26.46482230913528
 30
0.0
 40
1.5
  1
6以上～10未満
  0
ENDBLK
  8
0
  0
BLOCK
  8
0
  2
*D4
 70
     1
 10
0.0
 20
0.0
 30
0.0
  0
LINE
  5
19E6B
  8
寸法線
 62
     0
 10
31.0
 20
28.275
 30
0.0
 11
31.0
 21
22.94245920590055
 31
0.0
  0
LINE
  5
19E6C
  8
寸法線
 62
     0
 10
81.0
 20
28.375
 30
0.0
 11
81.0
 21
22.94245920590055
 31
0.0
  0
LINE
  5
19E6D
  8
寸法線
 62
     0
 10
32.0
 20
24.19245920590055
 30
0.0
 11
80.0
 21
24.19245920590055
 31
0.0
  0
INSERT
  5
19E6E
  8
寸法線
 62
     0
  2
_OPEN30
 10
31.0
 20
24.19245920590055
 30
0.0
 50
180.0
  0
INSERT
  5
19E6F
  8
寸法線
 62
     0
  2
_OPEN30
 10
81.0
 20
24.19245920590055
 30
0.0
  0
TEXT
  5
19E70
  8
寸法線
  6
CONTINUOUS
 62
     0
 10
54.57142857142857
 20
24.81745920590055
 30
0.0
 40
1.5
  1
50
  0
POINT
  5
19E71
  8
DEFPOINTS
 62
     0
 10
31.0
 20
28.9
 30
0.0
  0
POINT
  5
19E72
  8
DEFPOINTS
 62
     0
 10
81.0
 20
29.0
 30
0.0
  0
POINT
  5
19E73
  8
DEFPOINTS
 62
     0
 10
81.0
 20
24.19245920590055
 30
0.0
  0
ENDBLK
  8
0
  0
BLOCK
  8
0
  2
*D5
 70
     1
 10
0.0
 20
0.0
 30
0.0
  0
LINE
  5
19E8B
  8
寸法線
 62
     0
 10
89.0
 20
28.375
 30
0.0
 11
89.0
 21
22.94245920590055
 31
0.0
  0
LINE
  5
19E8C
  8
寸法線
 62
     0
 10
139.0
 20
28.275
 30
0.0
 11
139.0
 21
22.94245920590055
 31
0.0
  0
LINE
  5
19E8D
  8
寸法線
 62
     0
 10
90.0
 20
24.19245920590055
 30
0.0
 11
138.0
 21
24.19245920590055
 31
0.0
  0
INSERT
  5
19E8E
  8
寸法線
 62
     0
  2
_OPEN30
 10
89.0
 20
24.19245920590055
 30
0.0
 50
180.0
  0
INSERT
  5
19E8F
  8
寸法線
 62
     0
  2
_OPEN30
 10
139.0
 20
24.19245920590055
 30
0.0
  0
TEXT
  5
19E90
  8
寸法線
  6
CONTINUOUS
 62
     0
 10
112.5714285714286
 20
24.81745920590055
 30
0.0
 40
1.5
  1
50
  0
POINT
  5
19E91
  8
DEFPOINTS
 62
     0
 10
89.0
 20
29.0
 30
0.0
  0
POINT
  5
19E92
  8
DEFPOINTS
 62
     0
 10
139.0
 20
28.9
 30
0.0
  0
POINT
  5
19E93
  8
DEFPOINTS
 62
     0
 10
139.0
 20
24.19245920590055
 30
0.0
  0
ENDBLK
  8
0
  0
BLOCK
  8
0
  2
*D6
 70
     1
 10
0.0
 20
0.0
 30
0.0
  0
LINE
  5
19E7D
  8
寸法線
 62
     0
 10
135.625
 20
31.0
 30
0.0
 11
143.9854733457721
 21
31.0
 31
0.0
  0
LINE
  5
19E7E
  8
寸法線
 62
     0
 10
140.125
 20
30.0
 30
0.0
 11
143.9854733457721
 21
30.0
 31
0.0
  0
LINE
  5
19E7F
  8
寸法線
 62
     0
 10
142.7354733457721
 20
32.0
 30
0.0
 11
142.7354733457721
 21
33.0
 31
0.0
  0
LINE
  5
19E80
  8
寸法線
 62
     0
 10
142.7354733457721
 20
29.0
 30
0.0
 11
142.7354733457721
 21
28.0
 31
0.0
  0
LINE
  5
19E81
  8
寸法線
 62
     0
 10
142.7354733457721
 20
30.5
 30
0.0
 11
147.1729733457721
 21
31.83125
 31
0.0
  0
LINE
  5
19E82
  8
寸法線
 62
     0
 10
147.1729733457721
 20
31.83125
 30
0.0
 11
147.1729733457721
 21
33.43839285714285
 31
0.0
  0
TEXT
  5
19E83
  8
寸法線
  6
CONTINUOUS
 62
     0
 10
146.5479733457721
 20
32.02767857142862
 30
0.0
 40
1.5
  1
1
 50
90.0
  0
LINE
  5
19E84
  8
寸法線
 62
     0
 10
142.7354733457721
 20
31.0
 30
0.0
 11
142.7354733457721
 21
30.0
 31
0.0
  0
LINE
  5
19E85
  8
寸法線
 62
     0
 10
142.7354733457721
 20
31.0
 30
0.0
 11
142.7354733457721
 21
30.0
 31
0.0
  0
INSERT
  5
19E86
  8
寸法線
 62
     0
  2
_OPEN30
 10
142.7354733457721
 20
31.0
 30
0.0
 50
270.0
  0
INSERT
  5
19E87
  8
寸法線
 62
     0
  2
_OPEN30
 10
142.7354733457721
 20
30.0
 30
0.0
 50
90.0
  0
POINT
  5
19E88
  8
DEFPOINTS
 62
     0
 10
135.0
 20
31.0
 30
0.0
  0
POINT
  5
19E89
  8
DEFPOINTS
 62
     0
 10
139.5
 20
30.0
 30
0.0
  0
POINT
  5
19E8A
  8
DEFPOINTS
 62
     0
 10
142.7354733457721
 20
30.0
 30
0.0
  0
ENDBLK
  8
0
  0
BLOCK
  8
0
  2
*D7
 70
     1
 10
0.0
 20
0.0
 30
0.0
  0
LINE
  5
19E74
  8
寸法線
 62
     0
 10
29.875
 20
30.0
 30
0.0
 11
25.97650303317641
 21
30.0
 31
0.0
  0
LINE
  5
19E75
  8
寸法線
 62
     0
 10
31.875
 20
35.0
 30
0.0
 11
25.97650303317641
 21
35.0
 31
0.0
  0
LINE
  5
19E76
  8
寸法線
 62
     0
 10
27.22650303317641
 20
31.0
 30
0.0
 11
27.22650303317641
 21
34.0
 31
0.0
  0
INSERT
  5
19E77
  8
寸法線
 62
     0
  2
_OPEN30
 10
27.22650303317641
 20
30.0
 30
0.0
 50
270.0
  0
INSERT
  5
19E78
  8
寸法線
 62
     0
  2
_OPEN30
 10
27.22650303317641
 20
35.0
 30
0.0
 50
90.0
  0
TEXT
  5
19E79
  8
寸法線
  6
CONTINUOUS
 62
     0
 10
26.60150303317641
 20
31.78571428571429
 30
0.0
 40
1.5
  1
5
 50
90.0
  0
POINT
  5
19E7A
  8
DEFPOINTS
 62
     0
 10
30.5
 20
30.0
 30
0.0
  0
POINT
  5
19E7B
  8
DEFPOINTS
 62
     0
 10
32.5
 20
35.0
 30
0.0
  0
POINT
  5
19E7C
  8
DEFPOINTS
 62
     0
 10
27.22650303317641
 20
35.0
 30
0.0
  0
ENDBLK
  8
0
  0
BLOCK
  8
0
  2
*D8
 70
     1
 10
0.0
 20
0.0
 30
0.0
  0
LINE
  5
19E62
  8
寸法線
 62
     0
 10
140.0
 20
31.125
 30
0.0
 11
140.0
 21
39.54840243357432
 31
0.0
  0
LINE
  5
19E63
  8
寸法線
 62
     0
 10
30.0
 20
31.125
 30
0.0
 11
30.0
 21
39.54840243357432
 31
0.0
  0
LINE
  5
19E64
  8
寸法線
 62
     0
 10
139.0
 20
38.29840243357432
 30
0.0
 11
31.0
 21
38.29840243357432
 31
0.0
  0
INSERT
  5
19E65
  8
寸法線
 62
     0
  2
_OPEN30
 10
140.0
 20
38.29840243357432
 30
0.0
  0
INSERT
  5
19E66
  8
寸法線
 62
     0
  2
_OPEN30
 10
30.0
 20
38.29840243357432
 30
0.0
 50
180.0
  0
TEXT
  5
19E67
  8
寸法線
  6
CONTINUOUS
 62
     0
 10
82.75
 20
38.92340243357432
 30
0.0
 40
1.5
  1
110
  0
POINT
  5
19E68
  8
DEFPOINTS
 62
     0
 10
140.0
 20
30.5
 30
0.0
  0
POINT
  5
19E69
  8
DEFPOINTS
 62
     0
 10
30.0
 20
30.5
 30
0.0
  0
POINT
  5
19E6A
  8
DEFPOINTS
 62
     0
 10
30.0
 20
38.29840243357432
 30
0.0
  0
ENDBLK
  8
0
  0
BLOCK
  8
0
  2
*X9
 70
     1
 10
0.0
 20
0.0
 30
0.0
  0
TEXT
  5
1A13D
  8
寸法線
  6
CONTINUOUS
 62
     0
 10
46.04262669511578
 20
13.04803516546732
 30
0.0
 40
1.2
  1
両面ﾃｰﾌﾟ：EBISU両面テープ　＃703（50mm幅×２列）
  0
TEXT
  5
1A13E
  8
寸法線
  6
CONTINUOUS
 62
     0
 10
46.04262669511578
 20
11.04803516546732
 30
0.0
 40
1.2
  1
　　　　　もしくは相当品
  0
ENDBLK
  8
0
  0
BLOCK
  8
0
  2
*X10
 70
     1
 10
0.0
 20
0.0
 30
0.0
  0
INSERT
  5
1A140
  8
寸法線
 62
     0
  2
_OPEN30
 10
42.58253547403321
 20
28.9
 30
0.0
 50
95.7589564266618
  0
LINE
  5
1A141
  8
寸法線
 62
     0
 10
42.68287906703816
 20
27.90504715521646
 30
0.0
 11
44.47447605633428
 21
10.14053954865872
 31
0.0
  0
LINE
  5
1A142
  8
寸法線
 62
     0
 10
44.47447605633428
 20
10.14053954865872
 30
0.0
 11
91.45460985943652
 21
10.14053954865869
 31
0.0
  0
ENDBLK
  8
0
  0
BLOCK
  8
0
  2
*X11
 70
     1
 10
0.0
 20
0.0
 30
0.0
  0
INSERT
  5
1A144
  8
寸法線
 62
     0
  2
_OPEN30
 10
52.34813674338158
 20
35.03010975259769
 30
0.0
 50
305.6250239254682
  0
LINE
  5
1A145
  8
寸法線
 62
     0
 10
51.76565870708678
 20
35.84295619395925
 30
0.0
 11
43.05987544864331
 21
47.99185194615767
 31
0.0
  0
LINE
  5
1A146
  8
寸法線
 62
     0
 10
43.05987544864331
 20
47.99185194615767
 30
0.0
 11
30.5
 21
47.99185194615769
 31
0.0
  0
ENDBLK
  8
0
  0
BLOCK
  8
0
  2
*X12
 70
     1
 10
0.0
 20
0.0
 30
0.0
  0
TEXT
  5
1A1A2
  8
0
  6
CONTINUOUS
 10
59.59962750591926
 20
22.75978930841593
 30
0.0
 40
2.0
  1
（
  0
TEXT
  5
1A1A3
  8
0
  6
CONTINUOUS
 10
61.31391322020497
 20
22.75978930841593
 30
0.0
 40
2.5
  1
1：1）
  0
ENDBLK
  8
0
  0
BLOCK
  8
0
  2
*U13
 70
     1
 10
0.0
 20
0.0
 30
0.0
  0
SOLID
  5
1A1A5
  8
寸法線
  6
CONTINUOUS
 62
     0
 10
198.5514425911984
 20
10.68614300614593
 30
0.0
 11
198.550388451138
 21
10.75681472923389
 31
0.0
 12
198.5514425911984
 22
10.82748645232757
 32
0.0
 13
198.5514425911984
 23
10.82748645232757
 33
0.0
  0
SOLID
  5
1A1A6
  8
寸法線
  6
CONTINUOUS
 62
     0
 10
198.5514425911984
 20
10.68614300614593
 30
0.0
 11
198.5514425911984
 21
10.82748645232185
 31
0.0
 12
198.5546045299344
 22
10.61550356013705
 32
0.0
 13
198.5546045299344
 23
10.61550356013705
 33
0.0
  0
SOLID
  5
1A1A7
  8
寸法線
  6
CONTINUOUS
 62
     0
 10
198.5546045299344
 20
10.61550356013705
 30
0.0
 11
198.5514425911984
 21
10.82748645232185
 31
0.0
 12
198.5546045299344
 22
10.8981258983301
 32
0.0
 13
198.5546045299344
 23
10.8981258983301
 33
0.0
  0
SOLID
  5
1A1A8
  8
寸法線
  6
CONTINUOUS
 62
     0
 10
198.5546045299344
 20
10.61550356013705
 30
0.0
 11
198.5546045299344
 21
10.89812589833073
 31
0.0
 12
198.5598728232301
 22
10.54492865354478
 32
0.0
 13
198.5598728232301
 23
10.54492865354478
 33
0.0
  0
SOLID
  5
1A1A9
  8
寸法線
  6
CONTINUOUS
 62
     0
 10
198.5598728232301
 20
10.54492865354478
 30
0.0
 11
198.5546045299344
 21
10.89812589833073
 31
0.0
 12
198.5598728232301
 22
10.96870080492338
 32
0.0
 13
198.5598728232301
 23
10.96870080492338
 33
0.0
  0
SOLID
  5
1A1AA
  8
寸法線
  6
CONTINUOUS
 62
     0
 10
198.5598728232301
 20
10.54492865354478
 30
0.0
 11
198.5598728232301
 21
10.968700804923
 31
0.0
 12
198.567245064959
 22
10.47445051923034
 32
0.0
 13
198.567245064959
 23
10.47445051923034
 33
0.0
  0
SOLID
  5
1A1AB
  8
寸法線
  6
CONTINUOUS
 62
     0
 10
198.567245064959
 20
10.47445051923034
 30
0.0
 11
198.5598728232301
 21
10.968700804923
 31
0.0
 12
198.567245064959
 22
11.03917893923718
 32
0.0
 13
198.567245064959
 23
11.03917893923718
 33
0.0
  0
SOLID
  5
1A1AC
  8
寸法線
  6
CONTINUOUS
 62
     0
 10
198.567245064959
 20
10.47445051923034
 30
0.0
 11
198.567245064959
 21
11.03917893923745
 31
0.0
 12
198.5767178880824
 22
10.40410134585722
 32
0.0
 13
198.5767178880824
 23
10.40410134585722
 33
0.0
  0
SOLID
  5
1A1AD
  8
寸法線
  6
CONTINUOUS
 62
     0
 10
198.5767178880824
 20
10.40410134585722
 30
0.0
 11
198.567245064959
 21
11.03917893923745
 31
0.0
 12
198.5767178880824
 22
11.10952811261078
 32
0.0
 13
198.5767178880824
 23
11.10952811261078
 33
0.0
  0
SOLID
  5
1A1AE
  8
寸法線
  6
CONTINUOUS
 62
     0
 10
198.5767178880824
 20
10.40410134585722
 30
0.0
 11
198.5767178880824
 21
11.10952811261057
 31
0.0
 12
198.5882869661871
 22
10.33391326319011
 32
0.0
 13
198.5882869661871
 23
10.33391326319011
 33
0.0
  0
SOLID
  5
1A1AF
  8
寸法線
  6
CONTINUOUS
 62
     0
 10
198.5882869661871
 20
10.33391326319011
 30
0.0
 11
198.5767178880824
 21
11.10952811261057
 31
0.0
 12
198.5882869661871
 22
11.17971619527751
 32
0.0
 13
198.5882869661871
 23
11.17971619527751
 33
0.0
  0
SOLID
  5
1A1B0
  8
寸法線
  6
CONTINUOUS
 62
     0
 10
198.5882869661871
 20
10.33391326319011
 30
0.0
 11
198.5882869661871
 21
11.17971619527768
 31
0.0
 12
198.6019470154619
 22
10.26391832742058
 32
0.0
 13
198.6019470154619
 23
10.26391832742058
 33
0.0
  0
SOLID
  5
1A1B1
  8
寸法線
  6
CONTINUOUS
 62
     0
 10
198.6019470154619
 20
10.26391832742058
 30
0.0
 11
198.5882869661871
 21
11.17971619527768
 31
0.0
 12
198.6019470154619
 22
11.24971113104736
 32
0.0
 13
198.6019470154619
 23
11.24971113104736
 33
0.0
  0
SOLID
  5
1A1B2
  8
寸法線
  6
CONTINUOUS
 62
     0
 10
198.6019470154619
 20
10.26391832742058
 30
0.0
 11
198.6019470154619
 21
11.24971113104721
 31
0.0
 12
198.6176917971105
 22
10.19414850652647
 32
0.0
 13
198.6176917971105
 23
10.19414850652647
 33
0.0
  0
SOLID
  5
1A1B3
  8
寸法線
  6
CONTINUOUS
 62
     0
 10
198.6176917971105
 20
10.19414850652647
 30
0.0
 11
198.6019470154619
 21
11.24971113104721
 31
0.0
 12
198.6176917971105
 22
11.3194809519412
 32
0.0
 13
198.6176917971105
 23
11.3194809519412
 33
0.0
  0
SOLID
  5
1A1B4
  8
寸法線
  6
CONTINUOUS
 62
     0
 10
198.6176917971105
 20
10.19414850652647
 30
0.0
 11
198.6176917971105
 21
11.31948095194132
 31
0.0
 12
198.6355141202006
 22
10.12463566567148
 32
0.0
 13
198.6355141202006
 23
10.12463566567148
 33
0.0
  0
SOLID
  5
1A1B5
  8
寸法線
  6
CONTINUOUS
 62
     0
 10
198.6355141202006
 20
10.12463566567148
 30
0.0
 11
198.6176917971105
 21
11.31948095194132
 31
0.0
 12
198.6355141202006
 22
11.38899379279631
 32
0.0
 13
198.6355141202006
 23
11.38899379279631
 33
0.0
  0
SOLID
  5
1A1B6
  8
寸法線
  6
CONTINUOUS
 62
     0
 10
198.6355141202006
 20
10.12463566567148
 30
0.0
 11
198.6355141202006
 21
11.38899379279631
 31
0.0
 12
198.6554058449489
 22
10.05541155265182
 32
0.0
 13
198.6554058449489
 23
10.05541155265182
 33
0.0
  0
SOLID
  5
1A1B7
  8
寸法線
  6
CONTINUOUS
 62
     0
 10
198.6554058449489
 20
10.05541155265182
 30
0.0
 11
198.6355141202006
 21
11.38899379279631
 31
0.0
 12
198.6554058449489
 22
11.45821790581597
 32
0.0
 13
198.6554058449489
 23
11.45821790581597
 33
0.0
  0
SOLID
  5
1A1B8
  8
寸法線
  6
CONTINUOUS
 62
     0
 10
198.6554058449489
 20
10.05541155265182
 30
0.0
 11
198.6554058449489
 21
11.45821790581597
 31
0.0
 12
198.6773578864376
 22
9.986507783396345
 32
0.0
 13
198.6773578864376
 23
9.986507783396345
 33
0.0
  0
SOLID
  5
1A1B9
  8
寸法線
  6
CONTINUOUS
 62
     0
 10
198.6773578864376
 20
9.986507783396345
 30
0.0
 11
198.6554058449489
 21
11.45821790581597
 31
0.0
 12
198.6773578864376
 22
11.52712167507154
 32
0.0
 13
198.6773578864376
 23
11.52712167507154
 33
0.0
  0
SOLID
  5
1A1BA
  8
寸法線
  6
CONTINUOUS
 62
     0
 10
198.6773578864376
 20
9.986507783396345
 30
0.0
 11
198.6773578864376
 21
11.52712167507145
 31
0.0
 12
198.7013602187648
 22
9.917955827527019
 32
0.0
 13
198.7013602187648
 23
9.917955827527019
 33
0.0
  0
SOLID
  5
1A1BB
  8
寸法線
  6
CONTINUOUS
 62
     0
 10
198.7013602187648
 20
9.917955827527019
 30
0.0
 11
198.6773578864376
 21
11.52712167507145
 31
0.0
 12
198.7013602187648
 22
11.59567363094069
 32
0.0
 13
198.7013602187648
 23
11.59567363094069
 33
0.0
  0
SOLID
  5
1A1BC
  8
寸法線
  6
CONTINUOUS
 62
     0
 10
198.7013602187648
 20
9.917955827527019
 30
0.0
 11
198.7013602187648
 21
11.59567363094077
 31
0.0
 12
198.7274018796227
 22
9.849786993986145
 32
0.0
 13
198.7274018796227
 23
9.849786993986145
 33
0.0
  0
SOLID
  5
1A1BD
  8
寸法線
  6
CONTINUOUS
 62
     0
 10
198.7274018796227
 20
9.849786993986145
 30
0.0
 11
198.7013602187648
 21
11.59567363094077
 31
0.0
 12
198.7274018796227
 22
11.66384246448165
 32
0.0
 13
198.7274018796227
 23
11.66384246448165
 33
0.0
  0
SOLID
  5
1A1BE
  8
寸法線
  6
CONTINUOUS
 62
     0
 10
198.7274018796227
 20
9.849786993986145
 30
0.0
 11
198.7274018796227
 21
11.66384246448165
 31
0.0
 12
198.7554709753045
 22
9.78203241673699
 32
0.0
 13
198.7554709753045
 23
9.78203241673699
 33
0.0
  0
SOLID
  5
1A1BF
  8
寸法線
  6
CONTINUOUS
 62
     0
 10
198.7554709753045
 20
9.78203241673699
 30
0.0
 11
198.7274018796227
 21
11.66384246448165
 31
0.0
 12
198.7554709753045
 22
11.7315970417308
 32
0.0
 13
198.7554709753045
 23
11.7315970417308
 33
0.0
  0
SOLID
  5
1A1C0
  8
寸法線
  6
CONTINUOUS
 62
     0
 10
198.7554709753045
 20
9.78203241673699
 30
0.0
 11
198.7554709753045
 21
11.7315970417308
 31
0.0
 12
198.7855546861367
 22
9.714723040544339
 32
0.0
 13
198.7855546861367
 23
9.714723040544339
 33
0.0
  0
SOLID
  5
1A1C1
  8
寸法線
  6
CONTINUOUS
 62
     0
 10
198.7855546861367
 20
9.714723040544339
 30
0.0
 11
198.7554709753045
 21
11.7315970417308
 31
0.0
 12
198.7855546861367
 22
11.79890641792345
 32
0.0
 13
198.7855546861367
 23
11.79890641792345
 33
0.0
  0
SOLID
  5
1A1C2
  8
寸法線
  6
CONTINUOUS
 62
     0
 10
198.7855546861367
 20
9.714723040544339
 30
0.0
 11
198.7855546861367
 21
11.79890641792345
 31
0.0
 12
198.8176392723338
 22
9.647889606841442
 32
0.0
 13
198.8176392723338
 23
9.647889606841442
 33
0.0
  0
SOLID
  5
1A1C3
  8
寸法線
  6
CONTINUOUS
 62
     0
 10
198.8176392723338
 20
9.647889606841442
 30
0.0
 11
198.7855546861367
 21
11.79890641792345
 31
0.0
 12
198.8176392723338
 22
11.86573985162635
 32
0.0
 13
198.8176392723338
 23
11.86573985162635
 33
0.0
  0
SOLID
  5
1A1C4
  8
寸法線
  6
CONTINUOUS
 62
     0
 10
198.8176392723338
 20
9.647889606841442
 30
0.0
 11
198.8176392723338
 21
11.86573985162635
 31
0.0
 12
198.8517100802736
 22
9.581562639689837
 32
0.0
 13
198.8517100802736
 23
9.581562639689837
 33
0.0
  0
SOLID
  5
1A1C5
  8
寸法線
  6
CONTINUOUS
 62
     0
 10
198.8517100802736
 20
9.581562639689837
 30
0.0
 11
198.8176392723338
 21
11.86573985162635
 31
0.0
 12
198.8517100802736
 22
11.9320668187779
 32
0.0
 13
198.8517100802736
 23
11.9320668187779
 33
0.0
  0
SOLID
  5
1A1C6
  8
寸法線
  6
CONTINUOUS
 62
     0
 10
198.8517100802736
 20
9.581562639689837
 30
0.0
 11
198.8517100802736
 21
11.93206681877796
 31
0.0
 12
198.8877515491901
 22
9.515772431838451
 32
0.0
 13
198.8877515491901
 23
9.515772431838451
 33
0.0
  0
SOLID
  5
1A1C7
  8
寸法線
  6
CONTINUOUS
 62
     0
 10
198.8877515491901
 20
9.515772431838451
 30
0.0
 11
198.8517100802736
 21
11.93206681877796
 31
0.0
 12
198.8877515491901
 22
11.9978570266294
 32
0.0
 13
198.8877515491901
 23
11.9978570266294
 33
0.0
  0
SOLID
  5
1A1C8
  8
寸法線
  6
CONTINUOUS
 62
     0
 10
198.8877515491901
 20
9.515772431838451
 30
0.0
 11
198.8877515491901
 21
11.99785702662935
 31
0.0
 12
198.9257472182796
 22
9.450549030888343
 32
0.0
 13
198.9257472182796
 23
9.450549030888343
 33
0.0
  0
SOLID
  5
1A1C9
  8
寸法線
  6
CONTINUOUS
 62
     0
 10
198.9257472182796
 20
9.450549030888343
 30
0.0
 11
198.8877515491901
 21
11.99785702662935
 31
0.0
 12
198.9257472182796
 22
12.06308042757945
 32
0.0
 13
198.9257472182796
 23
12.06308042757945
 33
0.0
  0
SOLID
  5
1A1CA
  8
寸法線
  6
CONTINUOUS
 62
     0
 10
198.9257472182796
 20
9.450549030888343
 30
0.0
 11
198.9257472182796
 21
12.06308042757945
 31
0.0
 12
198.9656797342195
 22
9.385922225569402
 32
0.0
 13
198.9656797342195
 23
9.385922225569402
 33
0.0
  0
SOLID
  5
1A1CB
  8
寸法線
  6
CONTINUOUS
 62
     0
 10
198.9656797342195
 20
9.385922225569402
 30
0.0
 11
198.9257472182796
 21
12.06308042757945
 31
0.0
 12
198.9656797342195
 22
12.12770723289835
 32
0.0
 13
198.9656797342195
 23
12.12770723289835
 33
0.0
  0
SOLID
  5
1A1CC
  8
寸法線
  6
CONTINUOUS
 62
     0
 10
198.9656797342195
 20
9.385922225569402
 30
0.0
 11
198.9656797342195
 21
12.12770723289839
 31
0.0
 12
199.0075308590936
 22
9.3219215321353
 32
0.0
 13
199.0075308590936
 23
9.3219215321353
 33
0.0
  0
SOLID
  5
1A1CD
  8
寸法線
  6
CONTINUOUS
 62
     0
 10
199.0075308590936
 20
9.3219215321353
 30
0.0
 11
198.9656797342195
 21
12.12770723289839
 31
0.0
 12
199.0075308590936
 22
12.19170792633254
 32
0.0
 13
199.0075308590936
 23
12.19170792633254
 33
0.0
  0
SOLID
  5
1A1CE
  8
寸法線
  6
CONTINUOUS
 62
     0
 10
199.0075308590936
 20
9.3219215321353
 30
0.0
 11
199.0075308590936
 21
12.1917079263325
 31
0.0
 12
199.0512814787212
 22
9.258576180882859
 32
0.0
 13
199.0512814787212
 23
9.258576180882859
 33
0.0
  0
SOLID
  5
1A1CF
  8
寸法線
  6
CONTINUOUS
 62
     0
 10
199.0512814787212
 20
9.258576180882859
 30
0.0
 11
199.0075308590936
 21
12.1917079263325
 31
0.0
 12
199.0512814787212
 22
12.25505327758494
 32
0.0
 13
199.0512814787212
 23
12.25505327758494
 33
0.0
  0
SOLID
  5
1A1D0
  8
寸法線
  6
CONTINUOUS
 62
     0
 10
199.0512814787212
 20
9.258576180882859
 30
0.0
 11
199.0512814787212
 21
12.25505327758494
 31
0.0
 12
199.0969116113878
 22
9.195915102802045
 32
0.0
 13
199.0969116113878
 23
9.195915102802045
 33
0.0
  0
SOLID
  5
1A1D1
  8
寸法線
  6
CONTINUOUS
 62
     0
 10
199.0969116113878
 20
9.195915102802045
 30
0.0
 11
199.0512814787212
 21
12.25505327758494
 31
0.0
 12
199.0969116113878
 22
12.31771435566576
 32
0.0
 13
199.0969116113878
 23
12.31771435566576
 33
0.0
  0
SOLID
  5
1A1D2
  8
寸法線
  6
CONTINUOUS
 62
     0
 10
199.0969116113878
 20
9.195915102802045
 30
0.0
 11
199.0969116113878
 21
12.31771435566576
 31
0.0
 12
199.1444004169703
 22
9.133966916362652
 32
0.0
 13
199.1444004169703
 23
9.133966916362652
 33
0.0
  0
SOLID
  5
1A1D3
  8
寸法線
  6
CONTINUOUS
 62
     0
 10
199.1444004169703
 20
9.133966916362652
 30
0.0
 11
199.0969116113878
 21
12.31771435566576
 31
0.0
 12
199.1444004169703
 22
12.37966254210515
 32
0.0
 13
199.1444004169703
 23
12.37966254210515
 33
0.0
  0
SOLID
  5
1A1D4
  8
寸法線
  6
CONTINUOUS
 62
     0
 10
199.1444004169703
 20
9.133966916362652
 30
0.0
 11
199.1444004169703
 21
12.37966254210515
 31
0.0
 12
199.1937262064555
 22
9.072759914443711
 32
0.0
 13
199.1937262064555
 23
9.072759914443711
 33
0.0
  0
SOLID
  5
1A1D5
  8
寸法線
  6
CONTINUOUS
 62
     0
 10
199.1937262064555
 20
9.072759914443711
 30
0.0
 11
199.1444004169703
 21
12.37966254210515
 31
0.0
 12
199.1937262064555
 22
12.44086954402406
 32
0.0
 13
199.1937262064555
 23
12.44086954402406
 33
0.0
  0
SOLID
  5
1A1D6
  8
寸法線
  6
CONTINUOUS
 62
     0
 10
199.1937262064555
 20
9.072759914443711
 30
0.0
 11
199.1937262064555
 21
12.44086954402409
 31
0.0
 12
199.2448664518459
 22
9.012322051411617
 32
0.0
 13
199.2448664518459
 23
9.012322051411617
 33
0.0
  0
SOLID
  5
1A1D7
  8
寸法線
  6
CONTINUOUS
 62
     0
 10
199.2448664518459
 20
9.012322051411617
 30
0.0
 11
199.1937262064555
 21
12.44086954402409
 31
0.0
 12
199.2448664518459
 22
12.50130740705622
 32
0.0
 13
199.2448664518459
 23
12.50130740705622
 33
0.0
  0
SOLID
  5
1A1D8
  8
寸法線
  6
CONTINUOUS
 62
     0
 10
199.2448664518459
 20
9.012322051411617
 30
0.0
 11
199.2448664518459
 21
12.50130740705618
 31
0.0
 12
199.2977977964483
 22
8.952680930352857
 32
0.0
 13
199.2977977964483
 23
8.952680930352857
 33
0.0
  0
SOLID
  5
1A1D9
  8
寸法線
  6
CONTINUOUS
 62
     0
 10
199.2977977964483
 20
8.952680930352857
 30
0.0
 11
199.2448664518459
 21
12.50130740705618
 31
0.0
 12
199.2977977964483
 22
12.56094852811492
 32
0.0
 13
199.2977977964483
 23
12.56094852811492
 33
0.0
  0
SOLID
  5
1A1DA
  8
寸法線
  6
CONTINUOUS
 62
     0
 10
199.2977977964483
 20
8.952680930352857
 30
0.0
 11
199.2977977964483
 21
12.56094852811495
 31
0.0
 12
199.3524960655418
 22
8.89386379046716
 32
0.0
 13
199.3524960655418
 23
8.89386379046716
 33
0.0
  0
SOLID
  5
1A1DB
  8
寸法線
  6
CONTINUOUS
 62
     0
 10
199.3524960655418
 20
8.89386379046716
 30
0.0
 11
199.2977977964483
 21
12.56094852811495
 31
0.0
 12
199.3524960655418
 22
12.61976566800067
 32
0.0
 13
199.3524960655418
 23
12.61976566800067
 33
0.0
  0
SOLID
  5
1A1DC
  8
寸法線
  6
CONTINUOUS
 62
     0
 10
199.3524960655418
 20
8.89386379046716
 30
0.0
 11
199.3524960655418
 21
12.61976566800064
 31
0.0
 12
199.4089362774181
 22
8.835897494626867
 32
0.0
 13
199.4089362774181
 23
8.835897494626867
 33
0.0
  0
SOLID
  5
1A1DD
  8
寸法線
  6
CONTINUOUS
 62
     0
 10
199.4089362774181
 20
8.835897494626867
 30
0.0
 11
199.3524960655418
 21
12.61976566800064
 31
0.0
 12
199.4089362774181
 22
12.67773196384094
 32
0.0
 13
199.4089362774181
 23
12.67773196384094
 33
0.0
  0
SOLID
  5
1A1DE
  8
寸法線
  6
CONTINUOUS
 62
     0
 10
199.4089362774181
 20
8.835897494626867
 30
0.0
 11
199.4089362774181
 21
12.67773196384094
 31
0.0
 12
199.4670926547919
 22
8.778808517108148
 32
0.0
 13
199.4670926547919
 23
8.778808517108148
 33
0.0
  0
SOLID
  5
1A1DF
  8
寸法線
  6
CONTINUOUS
 62
     0
 10
199.4670926547919
 20
8.778808517108148
 30
0.0
 11
199.4089362774181
 21
12.67773196384094
 31
0.0
 12
199.4670926547919
 22
12.73482094135963
 32
0.0
 13
199.4670926547919
 23
12.73482094135963
 33
0.0
  0
SOLID
  5
1A1E0
  8
寸法線
  6
CONTINUOUS
 62
     0
 10
199.4670926547919
 20
8.778808517108148
 30
0.0
 11
199.4670926547919
 21
12.73482094135966
 31
0.0
 12
199.5269386365731
 22
8.722622931499725
 32
0.0
 13
199.5269386365731
 23
8.722622931499725
 33
0.0
  0
SOLID
  5
1A1E1
  8
寸法線
  6
CONTINUOUS
 62
     0
 10
199.5269386365731
 20
8.722622931499725
 30
0.0
 11
199.4670926547919
 21
12.73482094135966
 31
0.0
 12
199.5269386365731
 22
12.79100652696808
 32
0.0
 13
199.5269386365731
 23
12.79100652696808
 33
0.0
  0
SOLID
  5
1A1E2
  8
寸法線
  6
CONTINUOUS
 62
     0
 10
199.5269386365731
 20
8.722622931499725
 30
0.0
 11
199.5269386365731
 21
12.79100652696808
 31
0.0
 12
199.5884468899985
 22
8.66736639879457
 32
0.0
 13
199.5884468899985
 23
8.66736639879457
 33
0.0
  0
SOLID
  5
1A1E3
  8
寸法線
  6
CONTINUOUS
 62
     0
 10
199.5884468899985
 20
8.66736639879457
 30
0.0
 11
199.5269386365731
 21
12.79100652696808
 31
0.0
 12
199.5884468899985
 22
12.84626305967324
 32
0.0
 13
199.5884468899985
 23
12.84626305967324
 33
0.0
  0
SOLID
  5
1A1E4
  8
寸法線
  6
CONTINUOUS
 62
     0
 10
199.5884468899985
 20
8.66736639879457
 30
0.0
 11
199.5884468899985
 21
12.84626305967324
 31
0.0
 12
199.6515893231144
 22
8.613064155670067
 32
0.0
 13
199.6515893231144
 23
8.613064155670067
 33
0.0
  0
SOLID
  5
1A1E5
  8
寸法線
  6
CONTINUOUS
 62
     0
 10
199.6515893231144
 20
8.613064155670067
 30
0.0
 11
199.5884468899985
 21
12.84626305967324
 31
0.0
 12
199.6515893231144
 22
12.90056530279774
 32
0.0
 13
199.6515893231144
 23
12.90056530279774
 33
0.0
  0
SOLID
  5
1A1E6
  8
寸法線
  6
CONTINUOUS
 62
     0
 10
199.6515893231144
 20
8.613064155670067
 30
0.0
 11
199.6515893231144
 21
12.90056530279774
 31
0.0
 12
199.7163370976074
 22
8.559741002961951
 32
0.0
 13
199.7163370976074
 23
8.559741002961951
 33
0.0
  0
SOLID
  5
1A1E7
  8
寸法線
  6
CONTINUOUS
 62
     0
 10
199.7163370976074
 20
8.559741002961951
 30
0.0
 11
199.6515893231144
 21
12.90056530279774
 31
0.0
 12
199.7163370976074
 22
12.95388845550588
 32
0.0
 13
199.7163370976074
 23
12.95388845550588
 33
0.0
  0
SOLID
  5
1A1E8
  8
寸法線
  6
CONTINUOUS
 62
     0
 10
199.7163370976074
 20
8.559741002961951
 30
0.0
 11
199.7163370976074
 21
12.95388845550585
 31
0.0
 12
199.7826606419749
 22
8.507421294337309
 32
0.0
 13
199.7826606419749
 23
8.507421294337309
 33
0.0
  0
SOLID
  5
1A1E9
  8
寸法線
  6
CONTINUOUS
 62
     0
 10
199.7826606419749
 20
8.507421294337309
 30
0.0
 11
199.7163370976074
 21
12.95388845550585
 31
0.0
 12
199.7826606419749
 22
13.00620816413047
 32
0.0
 13
199.7826606419749
 23
13.00620816413047
 33
0.0
  0
SOLID
  5
1A1EA
  8
寸法線
  6
CONTINUOUS
 62
     0
 10
199.7826606419749
 20
8.507421294337309
 30
0.0
 11
199.7826606419749
 21
13.0062081641305
 31
0.0
 12
199.8505296650313
 22
8.456128925171814
 32
0.0
 13
199.8505296650313
 23
8.456128925171814
 33
0.0
  0
SOLID
  5
1A1EB
  8
寸法線
  6
CONTINUOUS
 62
     0
 10
199.8505296650313
 20
8.456128925171814
 30
0.0
 11
199.7826606419749
 21
13.0062081641305
 31
0.0
 12
199.8505296650313
 22
13.05750053329601
 32
0.0
 13
199.8505296650313
 23
13.05750053329601
 33
0.0
  0
SOLID
  5
1A1EC
  8
寸法線
  6
CONTINUOUS
 62
     0
 10
199.8505296650313
 20
8.456128925171814
 30
0.0
 11
199.8505296650313
 21
13.05750053329599
 31
0.0
 12
199.9199131697422
 22
8.405887321636264
 32
0.0
 13
199.9199131697422
 23
8.405887321636264
 33
0.0
  0
SOLID
  5
1A1ED
  8
寸法線
  6
CONTINUOUS
 62
     0
 10
199.9199131697422
 20
8.405887321636264
 30
0.0
 11
199.8505296650313
 21
13.05750053329599
 31
0.0
 12
199.9199131697422
 22
13.10774213683152
 32
0.0
 13
199.9199131697422
 23
13.10774213683152
 33
0.0
  0
SOLID
  5
1A1EE
  8
寸法線
  6
CONTINUOUS
 62
     0
 10
199.9199131697422
 20
8.405887321636264
 30
0.0
 11
199.9199131697422
 21
13.10774213683154
 31
0.0
 12
199.9764242127756
 22
8.366679278704538
 32
0.0
 13
199.9764242127756
 23
8.366679278704538
 33
0.0
  0
SOLID
  5
1A1EF
  8
寸法線
  6
CONTINUOUS
 62
     0
 10
199.9764242127756
 20
8.366679278704538
 30
0.0
 11
199.9199131697422
 21
13.10774213683154
 31
0.0
 12
199.9764242127756
 22
13.14695017976329
 32
0.0
 13
199.9764242127756
 23
13.14695017976329
 33
0.0
  0
SOLID
  5
1A1F0
  8
寸法線
  6
CONTINUOUS
 62
     0
 10
199.9764242127756
 20
8.366679278704538
 30
0.0
 11
199.9764242127756
 21
10.75681472923389
 31
0.0
 12
199.9907794673818
 22
8.356719429997419
 32
0.0
 13
199.9907794673818
 23
8.356719429997419
 33
0.0
  0
SOLID
  5
1A1F1
  8
寸法線
  6
CONTINUOUS
 62
     0
 10
199.9907794673818
 20
8.356719429997419
 30
0.0
 11
199.9764242127756
 21
10.75681472923389
 31
0.0
 12
199.9907794673818
 22
10.61106338326002
 32
0.0
 13
199.9907794673818
 23
10.61106338326002
 33
0.0
  0
SOLID
  5
1A1F2
  8
寸法線
  6
CONTINUOUS
 62
     0
 10
199.9764242127756
 20
10.75681472923389
 30
0.0
 11
199.9764242127756
 21
13.14695017976329
 31
0.0
 12
199.9907794673818
 22
10.91173259819688
 32
0.0
 13
199.9907794673818
 23
10.91173259819688
 33
0.0
  0
SOLID
  5
1A1F3
  8
寸法線
  6
CONTINUOUS
 62
     0
 10
199.9907794673818
 20
10.91173259819688
 30
0.0
 11
199.9764242127756
 21
13.14695017976329
 31
0.0
 12
199.9907794673818
 22
13.15691002847041
 32
0.0
 13
199.9907794673818
 23
13.15691002847041
 33
0.0
  0
SOLID
  5
1A1F4
  8
寸法線
  6
CONTINUOUS
 62
     0
 10
199.9907794673818
 20
8.356719429997419
 30
0.0
 11
199.9907794673818
 21
10.61106338326002
 31
0.0
 12
200.0307419436931
 22
8.330154826359934
 32
0.0
 13
200.0307419436931
 23
8.330154826359934
 33
0.0
  0
SOLID
  5
1A1F5
  8
寸法線
  6
CONTINUOUS
 62
     0
 10
200.0307419436931
 20
8.330154826359934
 30
0.0
 11
199.9907794673818
 21
10.61106338326002
 31
0.0
 12
200.0307419436931
 22
10.20531755215993
 32
0.0
 13
200.0307419436931
 23
10.20531755215993
 33
0.0
  0
SOLID
  5
1A1F6
  8
寸法線
  6
CONTINUOUS
 62
     0
 10
199.9907794673818
 20
10.91173259819688
 30
0.0
 11
199.9907794673818
 21
13.15691002847039
 31
0.0
 12
200.0307419436931
 22
11.34299639939647
 32
0.0
 13
200.0307419436931
 23
11.34299639939647
 33
0.0
  0
SOLID
  5
1A1F7
  8
寸法線
  6
CONTINUOUS
 62
     0
 10
200.0307419436931
 20
11.34299639939647
 30
0.0
 11
199.9907794673818
 21
13.15691002847039
 31
0.0
 12
200.0307419436931
 22
13.18347463210786
 32
0.0
 13
200.0307419436931
 23
13.18347463210786
 33
0.0
  0
SOLID
  5
1A1F8
  8
寸法線
  6
CONTINUOUS
 62
     0
 10
200.0307419436931
 20
8.330154826359934
 30
0.0
 11
200.0307419436931
 21
10.20531755215993
 31
0.0
 12
200.0377213337628
 22
8.325515355837954
 32
0.0
 13
200.0377213337628
 23
8.325515355837954
 33
0.0
  0
SOLID
  5
1A1F9
  8
寸法線
  6
CONTINUOUS
 62
     0
 10
200.0377213337628
 20
8.325515355837954
 30
0.0
 11
200.0307419436931
 21
10.20531755215993
 31
0.0
 12
200.0377213337628
 22
10.13445461558107
 32
0.0
 13
200.0377213337628
 23
10.13445461558107
 33
0.0
  0
SOLID
  5
1A1FA
  8
寸法線
  6
CONTINUOUS
 62
     0
 10
200.0307419436931
 20
11.34299639939647
 30
0.0
 11
200.0307419436931
 21
13.18347463210786
 31
0.0
 12
200.0377213337628
 22
11.36752641107594
 32
0.0
 13
200.0377213337628
 23
11.36752641107594
 33
0.0
  0
SOLID
  5
1A1FB
  8
寸法線
  6
CONTINUOUS
 62
     0
 10
200.0377213337628
 20
11.36752641107594
 30
0.0
 11
200.0307419436931
 21
13.18347463210786
 31
0.0
 12
200.0377213337628
 22
13.18811410262984
 32
0.0
 13
200.0377213337628
 23
13.18811410262984
 33
0.0
  0
SOLID
  5
1A1FC
  8
寸法線
  6
CONTINUOUS
 62
     0
 10
200.0377213337628
 20
8.325515355837954
 30
0.0
 11
200.0377213337628
 21
10.13445461558107
 31
0.0
 12
200.063096192005
 22
8.308647706138013
 32
0.0
 13
200.063096192005
 23
8.308647706138013
 33
0.0
  0
SOLID
  5
1A1FD
  8
寸法線
  6
CONTINUOUS
 62
     0
 10
200.063096192005
 20
8.308647706138013
 30
0.0
 11
200.0377213337628
 21
10.13445461558107
 31
0.0
 12
200.063096192005
 22
10.05080491834201
 32
0.0
 13
200.063096192005
 23
10.05080491834201
 33
0.0
  0
SOLID
  5
1A1FE
  8
寸法線
  6
CONTINUOUS
 62
     0
 10
200.0377213337628
 20
11.36752641107594
 30
0.0
 11
200.0377213337628
 21
13.18811410262984
 31
0.0
 12
200.063096192005
 22
11.45670978710653
 32
0.0
 13
200.063096192005
 23
11.45670978710653
 33
0.0
  0
SOLID
  5
1A1FF
  8
寸法線
  6
CONTINUOUS
 62
     0
 10
200.063096192005
 20
11.45670978710653
 30
0.0
 11
200.0377213337628
 21
13.18811410262984
 31
0.0
 12
200.063096192005
 22
13.20498175232978
 32
0.0
 13
200.063096192005
 23
13.20498175232978
 33
0.0
  0
SOLID
  5
1A200
  8
寸法線
  6
CONTINUOUS
 62
     0
 10
200.063096192005
 20
8.308647706138013
 30
0.0
 11
200.063096192005
 21
10.05080491834201
 31
0.0
 12
200.1368303152304
 22
8.261694105300744
 32
0.0
 13
200.1368303152304
 23
8.261694105300744
 33
0.0
  0
SOLID
  5
1A201
  8
寸法線
  6
CONTINUOUS
 62
     0
 10
200.1368303152304
 20
8.261694105300744
 30
0.0
 11
200.063096192005
 21
10.05080491834201
 31
0.0
 12
200.1368303152304
 22
9.807736089144578
 32
0.0
 13
200.1368303152304
 23
9.807736089144578
 33
0.0
  0
SOLID
  5
1A202
  8
寸法線
  6
CONTINUOUS
 62
     0
 10
200.063096192005
 20
11.45670978710653
 30
0.0
 11
200.063096192005
 21
13.20498175232979
 31
0.0
 12
200.1368303152304
 22
11.71585834963722
 32
0.0
 13
200.1368303152304
 23
11.71585834963722
 33
0.0
  0
SOLID
  5
1A203
  8
寸法線
  6
CONTINUOUS
 62
     0
 10
200.1368303152304
 20
11.71585834963722
 30
0.0
 11
200.063096192005
 21
13.20498175232979
 31
0.0
 12
200.1368303152304
 22
13.25193535316706
 32
0.0
 13
200.1368303152304
 23
13.25193535316706
 33
0.0
  0
SOLID
  5
1A204
  8
寸法線
  6
CONTINUOUS
 62
     0
 10
200.1368303152304
 20
8.261694105300744
 30
0.0
 11
200.1368303152304
 21
9.807736089144578
 31
0.0
 12
200.1918454112662
 22
8.228140648039343
 32
0.0
 13
200.1918454112662
 23
8.228140648039343
 33
0.0
  0
SOLID
  5
1A205
  8
寸法線
  6
CONTINUOUS
 62
     0
 10
200.1918454112662
 20
8.228140648039343
 30
0.0
 11
200.1368303152304
 21
9.807736089144578
 31
0.0
 12
200.1918454112662
 22
9.626375622692281
 32
0.0
 13
200.1918454112662
 23
9.626375622692281
 33
0.0
  0
SOLID
  5
1A206
  8
寸法線
  6
CONTINUOUS
 62
     0
 10
200.1368303152304
 20
11.71585834963722
 30
0.0
 11
200.1368303152304
 21
13.25193535316706
 31
0.0
 12
200.1918454112662
 22
11.9092163558291
 32
0.0
 13
200.1918454112662
 23
11.9092163558291
 33
0.0
  0
SOLID
  5
1A207
  8
寸法線
  6
CONTINUOUS
 62
     0
 10
200.1918454112662
 20
11.9092163558291
 30
0.0
 11
200.1368303152304
 21
13.25193535316706
 31
0.0
 12
200.1918454112662
 22
13.28548881042846
 32
0.0
 13
200.1918454112662
 23
13.28548881042846
 33
0.0
  0
SOLID
  5
1A208
  8
寸法線
  6
CONTINUOUS
 62
     0
 10
200.1918454112662
 20
8.228140648039343
 30
0.0
 11
200.1918454112662
 21
9.626375622692281
 31
0.0
 12
200.2119481613242
 22
8.215880072060916
 32
0.0
 13
200.2119481613242
 23
8.215880072060916
 33
0.0
  0
SOLID
  5
1A209
  8
寸法線
  6
CONTINUOUS
 62
     0
 10
200.2119481613242
 20
8.215880072060916
 30
0.0
 11
200.1918454112662
 21
9.626375622692281
 31
0.0
 12
200.2119481613242
 22
9.560105736966392
 32
0.0
 13
200.2119481613242
 23
9.560105736966392
 33
0.0
  0
SOLID
  5
1A20A
  8
寸法線
  6
CONTINUOUS
 62
     0
 10
200.1918454112662
 20
11.9092163558291
 30
0.0
 11
200.1918454112662
 21
13.28548881042846
 31
0.0
 12
200.2119481613242
 22
11.94958812028236
 32
0.0
 13
200.2119481613242
 23
11.94958812028236
 33
0.0
  0
SOLID
  5
1A20B
  8
寸法線
  6
CONTINUOUS
 62
     0
 10
200.2119481613242
 20
11.94958812028236
 30
0.0
 11
200.1918454112662
 21
13.28548881042846
 31
0.0
 12
200.2119481613242
 22
13.29774938640689
 32
0.0
 13
200.2119481613242
 23
13.29774938640689
 33
0.0
  0
SOLID
  5
1A20C
  8
寸法線
  6
CONTINUOUS
 62
     0
 10
200.2119481613242
 20
8.215880072060916
 30
0.0
 11
200.2119481613242
 21
9.560105736966392
 31
0.0
 12
200.2192570827407
 22
8.21161198110752
 32
0.0
 13
200.2192570827407
 23
8.21161198110752
 33
0.0
  0
SOLID
  5
1A20D
  8
寸法線
  6
CONTINUOUS
 62
     0
 10
200.2192570827407
 20
8.21161198110752
 30
0.0
 11
200.2119481613242
 21
9.560105736966392
 31
0.0
 12
200.2192570827407
 22
9.536011452072362
 32
0.0
 13
200.2192570827407
 23
9.536011452072362
 33
0.0
  0
SOLID
  5
1A20E
  8
寸法線
  6
CONTINUOUS
 62
     0
 10
200.2119481613242
 20
11.94958812028236
 30
0.0
 11
200.2119481613242
 21
13.29774938640689
 31
0.0
 12
200.2192570827407
 22
11.96426641320163
 32
0.0
 13
200.2192570827407
 23
11.96426641320163
 33
0.0
  0
SOLID
  5
1A20F
  8
寸法線
  6
CONTINUOUS
 62
     0
 10
200.2192570827407
 20
11.96426641320163
 30
0.0
 11
200.2119481613242
 21
13.29774938640689
 31
0.0
 12
200.2192570827407
 22
13.30201747736028
 32
0.0
 13
200.2192570827407
 23
13.30201747736028
 33
0.0
  0
SOLID
  5
1A210
  8
寸法線
  6
CONTINUOUS
 62
     0
 10
200.2192570827407
 20
8.21161198110752
 30
0.0
 11
200.2192570827407
 21
9.536011452072362
 31
0.0
 12
200.2884154225809
 22
8.171226530532287
 32
0.0
 13
200.2884154225809
 23
8.171226530532287
 33
0.0
  0
SOLID
  5
1A211
  8
寸法線
  6
CONTINUOUS
 62
     0
 10
200.2884154225809
 20
8.171226530532287
 30
0.0
 11
200.2192570827407
 21
9.536011452072362
 31
0.0
 12
200.2884154225809
 22
9.406625298653399
 32
0.0
 13
200.2884154225809
 23
9.406625298653399
 33
0.0
  0
SOLID
  5
1A212
  8
寸法線
  6
CONTINUOUS
 62
     0
 10
200.2192570827407
 20
11.96426641320163
 30
0.0
 11
200.2192570827407
 21
13.30201747736028
 31
0.0
 12
200.2884154225809
 22
12.10315508256062
 32
0.0
 13
200.2884154225809
 23
12.10315508256062
 33
0.0
  0
SOLID
  5
1A213
  8
寸法線
  6
CONTINUOUS
 62
     0
 10
200.2884154225809
 20
12.10315508256062
 30
0.0
 11
200.2192570827407
 21
13.30201747736028
 31
0.0
 12
200.2884154225809
 22
13.34240292793552
 32
0.0
 13
200.2884154225809
 23
13.34240292793552
 33
0.0
  0
SOLID
  5
1A214
  8
寸法線
  6
CONTINUOUS
 62
     0
 10
200.2884154225809
 20
8.171226530532287
 30
0.0
 11
200.2884154225809
 21
9.406625298653399
 31
0.0
 12
200.3661971749924
 22
8.127753874810661
 32
0.0
 13
200.3661971749924
 23
8.127753874810661
 33
0.0
  0
SOLID
  5
1A215
  8
寸法線
  6
CONTINUOUS
 62
     0
 10
200.3661971749924
 20
8.127753874810661
 30
0.0
 11
200.2884154225809
 21
9.406625298653399
 31
0.0
 12
200.3661971749924
 22
9.261105875053076
 32
0.0
 13
200.3661971749924
 23
9.261105875053076
 33
0.0
  0
SOLID
  5
1A216
  8
寸法線
  6
CONTINUOUS
 62
     0
 10
200.2884154225809
 20
12.10315508256062
 30
0.0
 11
200.2884154225809
 21
13.34240292793552
 31
0.0
 12
200.3661971749924
 22
12.25936189894452
 32
0.0
 13
200.3661971749924
 23
12.25936189894452
 33
0.0
  0
SOLID
  5
1A217
  8
寸法線
  6
CONTINUOUS
 62
     0
 10
200.3661971749924
 20
12.25936189894452
 30
0.0
 11
200.2884154225809
 21
13.34240292793552
 31
0.0
 12
200.3661971749924
 22
13.38587558365714
 32
0.0
 13
200.3661971749924
 23
13.38587558365714
 33
0.0
  0
SOLID
  5
1A218
  8
寸法線
  6
CONTINUOUS
 62
     0
 10
200.3661971749924
 20
8.127753874810661
 30
0.0
 11
200.3661971749924
 21
9.261105875053076
 31
0.0
 12
200.4452578941981
 22
8.085481959659512
 32
0.0
 13
200.4452578941981
 23
8.085481959659512
 33
0.0
  0
SOLID
  5
1A219
  8
寸法線
  6
CONTINUOUS
 62
     0
 10
200.4452578941981
 20
8.085481959659512
 30
0.0
 11
200.3661971749924
 21
9.261105875053076
 31
0.0
 12
200.4452578941981
 22
9.11319367287778
 32
0.0
 13
200.4452578941981
 23
9.11319367287778
 33
0.0
  0
SOLID
  5
1A21A
  8
寸法線
  6
CONTINUOUS
 62
     0
 10
200.3661971749924
 20
12.25936189894452
 30
0.0
 11
200.3661971749924
 21
13.38587558365714
 31
0.0
 12
200.4452578941981
 22
12.41813722690069
 32
0.0
 13
200.4452578941981
 23
12.41813722690069
 33
0.0
  0
SOLID
  5
1A21B
  8
寸法線
  6
CONTINUOUS
 62
     0
 10
200.4452578941981
 20
12.41813722690069
 30
0.0
 11
200.3661971749924
 21
13.38587558365714
 31
0.0
 12
200.4452578941981
 22
13.42814749880829
 32
0.0
 13
200.4452578941981
 23
13.42814749880829
 33
0.0
  0
SOLID
  5
1A21C
  8
寸法線
  6
CONTINUOUS
 62
     0
 10
200.4452578941981
 20
8.085481959659512
 30
0.0
 11
200.4452578941981
 21
9.11319367287778
 31
0.0
 12
200.4542484301289
 22
8.080885921628918
 32
0.0
 13
200.4542484301289
 23
8.080885921628918
 33
0.0
  0
SOLID
  5
1A21D
  8
寸法線
  6
CONTINUOUS
 62
     0
 10
200.4542484301289
 20
8.080885921628918
 30
0.0
 11
200.4452578941981
 21
9.11319367287778
 31
0.0
 12
200.4542484301289
 22
9.096373563199801
 32
0.0
 13
200.4542484301289
 23
9.096373563199801
 33
0.0
  0
SOLID
  5
1A21E
  8
寸法線
  6
CONTINUOUS
 62
     0
 10
200.4452578941981
 20
12.41813722690069
 30
0.0
 11
200.4452578941981
 21
13.42814749880829
 31
0.0
 12
200.4542484301289
 22
12.43619265702143
 32
0.0
 13
200.4542484301289
 23
12.43619265702143
 33
0.0
  0
SOLID
  5
1A21F
  8
寸法線
  6
CONTINUOUS
 62
     0
 10
200.4542484301289
 20
12.43619265702143
 30
0.0
 11
200.4452578941981
 21
13.42814749880829
 31
0.0
 12
200.4542484301289
 22
13.43274353683889
 32
0.0
 13
200.4542484301289
 23
13.43274353683889
 33
0.0
  0
SOLID
  5
1A220
  8
寸法線
  6
CONTINUOUS
 62
     0
 10
200.4542484301289
 20
8.080885921628918
 30
0.0
 11
200.4542484301289
 21
9.096373563199801
 31
0.0
 12
200.5140551426824
 22
8.05031222418792
 32
0.0
 13
200.5140551426824
 23
8.05031222418792
 33
0.0
  0
SOLID
  5
1A221
  8
寸法線
  6
CONTINUOUS
 62
     0
 10
200.5140551426824
 20
8.05031222418792
 30
0.0
 11
200.4542484301289
 21
9.096373563199801
 31
0.0
 12
200.5140551426824
 22
8.984483073870603
 32
0.0
 13
200.5140551426824
 23
8.984483073870603
 33
0.0
  0
SOLID
  5
1A222
  8
寸法線
  6
CONTINUOUS
 62
     0
 10
200.4542484301289
 20
12.43619265702143
 30
0.0
 11
200.4542484301289
 21
13.43274353683889
 31
0.0
 12
200.5140551426824
 22
12.51538954356514
 32
0.0
 13
200.5140551426824
 23
12.51538954356514
 33
0.0
  0
SOLID
  5
1A223
  8
寸法線
  6
CONTINUOUS
 62
     0
 10
200.5140551426824
 20
12.51538954356514
 30
0.0
 11
200.4542484301289
 21
13.43274353683889
 31
0.0
 12
200.5140551426824
 22
13.46331723427988
 32
0.0
 13
200.5140551426824
 23
13.46331723427988
 33
0.0
  0
SOLID
  5
1A224
  8
寸法線
  6
CONTINUOUS
 62
     0
 10
200.5140551426824
 20
8.05031222418792
 30
0.0
 11
200.5140551426824
 21
8.984483073870603
 31
0.0
 12
200.5255614717097
 22
8.044430091441958
 32
0.0
 13
200.5255614717097
 23
8.044430091441958
 33
0.0
  0
SOLID
  5
1A225
  8
寸法線
  6
CONTINUOUS
 62
     0
 10
200.5255614717097
 20
8.044430091441958
 30
0.0
 11
200.5140551426824
 21
8.984483073870603
 31
0.0
 12
200.5255614717097
 22
8.970462571384196
 32
0.0
 13
200.5255614717097
 23
8.970462571384196
 33
0.0
  0
SOLID
  5
1A226
  8
寸法線
  6
CONTINUOUS
 62
     0
 10
200.5140551426824
 20
12.51538954356514
 30
0.0
 11
200.5140551426824
 21
13.46331723427988
 31
0.0
 12
200.5255614717097
 22
12.53062638564537
 32
0.0
 13
200.5255614717097
 23
12.53062638564537
 33
0.0
  0
SOLID
  5
1A227
  8
寸法線
  6
CONTINUOUS
 62
     0
 10
200.5255614717097
 20
12.53062638564537
 30
0.0
 11
200.5140551426824
 21
13.46331723427988
 31
0.0
 12
200.5255614717097
 22
13.46919936702585
 32
0.0
 13
200.5255614717097
 23
13.46919936702585
 33
0.0
  0
SOLID
  5
1A228
  8
寸法線
  6
CONTINUOUS
 62
     0
 10
200.5255614717097
 20
8.044430091441958
 30
0.0
 11
200.5255614717097
 21
8.970462571384196
 31
0.0
 12
200.6070712314026
 22
8.004617019303186
 32
0.0
 13
200.6070712314026
 23
8.004617019303186
 33
0.0
  0
SOLID
  5
1A229
  8
寸法線
  6
CONTINUOUS
 62
     0
 10
200.6070712314026
 20
8.004617019303186
 30
0.0
 11
200.5255614717097
 21
8.970462571384196
 31
0.0
 12
200.6070712314026
 22
8.871142641828584
 32
0.0
 13
200.6070712314026
 23
8.871142641828584
 33
0.0
  0
SOLID
  5
1A22A
  8
寸法線
  6
CONTINUOUS
 62
     0
 10
200.5255614717097
 20
12.53062638564537
 30
0.0
 11
200.5255614717097
 21
13.46919936702585
 31
0.0
 12
200.6070712314026
 22
12.63856275123034
 32
0.0
 13
200.6070712314026
 23
12.63856275123034
 33
0.0
  0
SOLID
  5
1A22B
  8
寸法線
  6
CONTINUOUS
 62
     0
 10
200.6070712314026
 20
12.63856275123034
 30
0.0
 11
200.5255614717097
 21
13.46919936702585
 31
0.0
 12
200.6070712314026
 22
13.50901243916462
 32
0.0
 13
200.6070712314026
 23
13.50901243916462
 33
0.0
  0
SOLID
  5
1A22C
  8
寸法線
  6
CONTINUOUS
 62
     0
 10
200.6070712314026
 20
8.004617019303186
 30
0.0
 11
200.6070712314026
 21
8.871142641828584
 31
0.0
 12
200.6639739902275
 22
7.978081192669819
 32
0.0
 13
200.6639739902275
 23
7.978081192669819
 33
0.0
  0
SOLID
  5
1A22D
  8
寸法線
  6
CONTINUOUS
 62
     0
 10
200.6639739902275
 20
7.978081192669819
 30
0.0
 11
200.6070712314026
 21
8.871142641828584
 31
0.0
 12
200.6639739902275
 22
8.801806429584811
 32
0.0
 13
200.6639739902275
 23
8.801806429584811
 33
0.0
  0
SOLID
  5
1A22E
  8
寸法線
  6
CONTINUOUS
 62
     0
 10
200.6070712314026
 20
12.63856275123034
 30
0.0
 11
200.6070712314026
 21
13.50901243916462
 31
0.0
 12
200.6639739902275
 22
12.7139141815677
 32
0.0
 13
200.6639739902275
 23
12.7139141815677
 33
0.0
  0
SOLID
  5
1A22F
  8
寸法線
  6
CONTINUOUS
 62
     0
 10
200.6639739902275
 20
12.7139141815677
 30
0.0
 11
200.6070712314026
 21
13.50901243916462
 31
0.0
 12
200.6639739902275
 22
13.53554826579799
 32
0.0
 13
200.6639739902275
 23
13.53554826579799
 33
0.0
  0
SOLID
  5
1A230
  8
寸法線
  6
CONTINUOUS
 62
     0
 10
200.6639739902275
 20
7.978081192669819
 30
0.0
 11
200.6639739902275
 21
8.801806429584811
 31
0.0
 12
200.68657590866
 22
7.96754109581873
 32
0.0
 13
200.68657590866
 23
7.96754109581873
 33
0.0
  0
SOLID
  5
1A231
  8
寸法線
  6
CONTINUOUS
 62
     0
 10
200.68657590866
 20
7.96754109581873
 30
0.0
 11
200.6639739902275
 21
8.801806429584811
 31
0.0
 12
200.68657590866
 22
8.774265912289673
 32
0.0
 13
200.68657590866
 23
8.774265912289673
 33
0.0
  0
SOLID
  5
1A232
  8
寸法線
  6
CONTINUOUS
 62
     0
 10
200.68657590866
 20
10.52733360030129
 30
0.0
 11
200.6639739902275
 21
10.75681472923389
 31
0.0
 12
200.68657590866
 22
10.98629585816649
 32
0.0
 13
200.68657590866
 23
10.98629585816649
 33
0.0
  0
SOLID
  5
1A233
  8
寸法線
  6
CONTINUOUS
 62
     0
 10
200.6639739902275
 20
12.7139141815677
 30
0.0
 11
200.6639739902275
 21
13.53554826579799
 31
0.0
 12
200.68657590866
 22
12.74384395856682
 32
0.0
 13
200.68657590866
 23
12.74384395856682
 33
0.0
  0
SOLID
  5
1A234
  8
寸法線
  6
CONTINUOUS
 62
     0
 10
200.68657590866
 20
12.74384395856682
 30
0.0
 11
200.6639739902275
 21
13.53554826579799
 31
0.0
 12
200.68657590866
 22
13.54608836264908
 32
0.0
 13
200.68657590866
 23
13.54608836264908
 33
0.0
  0
SOLID
  5
1A235
  8
寸法線
  6
CONTINUOUS
 62
     0
 10
200.68657590866
 20
7.96754109581873
 30
0.0
 11
200.68657590866
 21
8.774265912289673
 31
0.0
 12
200.6897499462665
 22
7.966060926607373
 32
0.0
 13
200.6897499462665
 23
7.966060926607373
 33
0.0
  0
SOLID
  5
1A236
  8
寸法線
  6
CONTINUOUS
 62
     0
 10
200.6897499462665
 20
7.966060926607373
 30
0.0
 11
200.68657590866
 21
8.774265912289673
 31
0.0
 12
200.6897499462665
 22
8.770398336275806
 32
0.0
 13
200.6897499462665
 23
8.770398336275806
 33
0.0
  0
SOLID
  5
1A237
  8
寸法線
  6
CONTINUOUS
 62
     0
 10
200.68657590866
 20
10.52733360030129
 30
0.0
 11
200.68657590866
 21
10.98629585816649
 31
0.0
 12
200.6897499462665
 22
10.5168702005741
 32
0.0
 13
200.6897499462665
 23
10.5168702005741
 33
0.0
  0
SOLID
  5
1A238
  8
寸法線
  6
CONTINUOUS
 62
     0
 10
200.6897499462665
 20
10.5168702005741
 30
0.0
 11
200.68657590866
 21
10.98629585816649
 31
0.0
 12
200.6897499462665
 22
10.99675925789367
 32
0.0
 13
200.6897499462665
 23
10.99675925789367
 33
0.0
  0
SOLID
  5
1A239
  8
寸法線
  6
CONTINUOUS
 62
     0
 10
200.68657590866
 20
12.74384395856682
 30
0.0
 11
200.68657590866
 21
13.54608836264908
 31
0.0
 12
200.6897499462665
 22
12.74804706362769
 32
0.0
 13
200.6897499462665
 23
12.74804706362769
 33
0.0
  0
SOLID
  5
1A23A
  8
寸法線
  6
CONTINUOUS
 62
     0
 10
200.6897499462665
 20
12.74804706362769
 30
0.0
 11
200.68657590866
 21
13.54608836264908
 31
0.0
 12
200.6897499462665
 22
13.54756853186043
 32
0.0
 13
200.6897499462665
 23
13.54756853186043
 33
0.0
  0
SOLID
  5
1A23B
  8
寸法線
  6
CONTINUOUS
 62
     0
 10
200.6897499462665
 20
7.966060926607373
 30
0.0
 11
200.6897499462665
 21
8.770398336275806
 31
0.0
 12
200.7535130849076
 22
7.937696909380521
 32
0.0
 13
200.7535130849076
 23
7.937696909380521
 33
0.0
  0
SOLID
  5
1A23C
  8
寸法線
  6
CONTINUOUS
 62
     0
 10
200.7535130849076
 20
7.937696909380521
 30
0.0
 11
200.6897499462665
 21
8.770398336275806
 31
0.0
 12
200.7535130849076
 22
8.692702727039082
 32
0.0
 13
200.7535130849076
 23
8.692702727039082
 33
0.0
  0
SOLID
  5
1A23D
  8
寸法線
  6
CONTINUOUS
 62
     0
 10
200.6897499462665
 20
10.5168702005741
 30
0.0
 11
200.6897499462665
 21
10.99675925789367
 31
0.0
 12
200.7535130849076
 22
10.30667130245907
 32
0.0
 13
200.7535130849076
 23
10.30667130245907
 33
0.0
  0
SOLID
  5
1A23E
  8
寸法線
  6
CONTINUOUS
 62
     0
 10
200.7535130849076
 20
10.30667130245907
 30
0.0
 11
200.6897499462665
 21
10.99675925789367
 31
0.0
 12
200.7535130849076
 22
11.20695815600871
 32
0.0
 13
200.7535130849076
 23
11.20695815600871
 33
0.0
  0
SOLID
  5
1A23F
  8
寸法線
  6
CONTINUOUS
 62
     0
 10
200.6897499462665
 20
12.74804706362769
 30
0.0
 11
200.6897499462665
 21
13.54756853186043
 31
0.0
 12
200.7535130849076
 22
12.83248310501883
 32
0.0
 13
200.7535130849076
 23
12.83248310501883
 33
0.0
  0
SOLID
  5
1A240
  8
寸法線
  6
CONTINUOUS
 62
     0
 10
200.7535130849076
 20
12.83248310501883
 30
0.0
 11
200.6897499462665
 21
13.54756853186043
 31
0.0
 12
200.7535130849076
 22
13.57593254908728
 32
0.0
 13
200.7535130849076
 23
13.57593254908728
 33
0.0
  0
SOLID
  5
1A241
  8
寸法線
  6
CONTINUOUS
 62
     0
 10
200.7535130849076
 20
7.937696909380521
 30
0.0
 11
200.7535130849076
 21
8.692702727039082
 31
0.0
 12
200.7735598554079
 22
7.928779422632998
 32
0.0
 13
200.7735598554079
 23
7.928779422632998
 33
0.0
  0
SOLID
  5
1A242
  8
寸法線
  6
CONTINUOUS
 62
     0
 10
200.7735598554079
 20
7.928779422632998
 30
0.0
 11
200.7535130849076
 21
8.692702727039082
 31
0.0
 12
200.7735598554079
 22
8.66827566650785
 32
0.0
 13
200.7735598554079
 23
8.66827566650785
 33
0.0
  0
SOLID
  5
1A243
  8
寸法線
  6
CONTINUOUS
 62
     0
 10
200.7535130849076
 20
10.30667130245907
 30
0.0
 11
200.7535130849076
 21
11.20695815600871
 31
0.0
 12
200.7735598554079
 22
10.26916643277172
 32
0.0
 13
200.7735598554079
 23
10.26916643277172
 33
0.0
  0
SOLID
  5
1A244
  8
寸法線
  6
CONTINUOUS
 62
     0
 10
200.7735598554079
 20
10.26916643277172
 30
0.0
 11
200.7535130849076
 21
11.20695815600871
 31
0.0
 12
200.7735598554079
 22
11.24446302569606
 32
0.0
 13
200.7735598554079
 23
11.24446302569606
 33
0.0
  0
SOLID
  5
1A245
  8
寸法線
  6
CONTINUOUS
 62
     0
 10
200.7535130849076
 20
12.83248310501883
 30
0.0
 11
200.7535130849076
 21
13.57593254908728
 31
0.0
 12
200.7735598554079
 22
12.85902931933314
 32
0.0
 13
200.7735598554079
 23
12.85902931933314
 33
0.0
  0
SOLID
  5
1A246
  8
寸法線
  6
CONTINUOUS
 62
     0
 10
200.7735598554079
 20
12.85902931933314
 30
0.0
 11
200.7535130849076
 21
13.57593254908728
 31
0.0
 12
200.7735598554079
 22
13.58485003583481
 32
0.0
 13
200.7735598554079
 23
13.58485003583481
 33
0.0
  0
SOLID
  5
1A247
  8
寸法線
  6
CONTINUOUS
 62
     0
 10
200.7735598554079
 20
7.928779422632998
 30
0.0
 11
200.7735598554079
 21
8.66827566650785
 31
0.0
 12
200.8090151801917
 22
7.913750085761505
 32
0.0
 13
200.8090151801917
 23
7.913750085761505
 33
0.0
  0
SOLID
  5
1A248
  8
寸法線
  6
CONTINUOUS
 62
     0
 10
200.8090151801917
 20
7.913750085761505
 30
0.0
 11
200.7735598554079
 21
8.66827566650785
 31
0.0
 12
200.8090151801917
 22
8.625073228257945
 32
0.0
 13
200.8090151801917
 23
8.625073228257945
 33
0.0
  0
SOLID
  5
1A249
  8
寸法線
  6
CONTINUOUS
 62
     0
 10
200.7735598554079
 20
10.26916643277172
 30
0.0
 11
200.7735598554079
 21
11.24446302569606
 31
0.0
 12
200.8090151801917
 22
10.20283418560401
 32
0.0
 13
200.8090151801917
 23
10.20283418560401
 33
0.0
  0
SOLID
  5
1A24A
  8
寸法線
  6
CONTINUOUS
 62
     0
 10
200.8090151801917
 20
10.20283418560401
 30
0.0
 11
200.7735598554079
 21
11.24446302569606
 31
0.0
 12
200.8090151801917
 22
11.31079527286377
 32
0.0
 13
200.8090151801917
 23
11.31079527286377
 33
0.0
  0
SOLID
  5
1A24B
  8
寸法線
  6
CONTINUOUS
 62
     0
 10
200.7735598554079
 20
12.85902931933314
 30
0.0
 11
200.7735598554079
 21
13.58485003583481
 31
0.0
 12
200.8090151801917
 22
12.90597975707477
 32
0.0
 13
200.8090151801917
 23
12.90597975707477
 33
0.0
  0
SOLID
  5
1A24C
  8
寸法線
  6
CONTINUOUS
 62
     0
 10
200.8090151801917
 20
12.90597975707477
 30
0.0
 11
200.7735598554079
 21
13.58485003583481
 31
0.0
 12
200.8090151801917
 22
13.5998793727063
 32
0.0
 13
200.8090151801917
 23
13.5998793727063
 33
0.0
  0
SOLID
  5
1A24D
  8
寸法線
  6
CONTINUOUS
 62
     0
 10
200.8090151801917
 20
7.913750085761505
 30
0.0
 11
200.8090151801917
 21
8.625073228257945
 31
0.0
 12
200.8584626812958
 22
7.892789534530377
 32
0.0
 13
200.8584626812958
 23
7.892789534530377
 33
0.0
  0
SOLID
  5
1A24E
  8
寸法線
  6
CONTINUOUS
 62
     0
 10
200.8584626812958
 20
7.892789534530377
 30
0.0
 11
200.8090151801917
 21
8.625073228257945
 31
0.0
 12
200.8584626812958
 22
8.564821273831107
 32
0.0
 13
200.8584626812958
 23
8.564821273831107
 33
0.0
  0
SOLID
  5
1A24F
  8
寸法線
  6
CONTINUOUS
 62
     0
 10
200.8090151801917
 20
10.20283418560401
 30
0.0
 11
200.8090151801917
 21
11.31079527286377
 31
0.0
 12
200.8584626812958
 22
10.11032441774646
 32
0.0
 13
200.8584626812958
 23
10.11032441774646
 33
0.0
  0
SOLID
  5
1A250
  8
寸法線
  6
CONTINUOUS
 62
     0
 10
200.8584626812958
 20
10.11032441774646
 30
0.0
 11
200.8090151801917
 21
11.31079527286377
 31
0.0
 12
200.8584626812958
 22
11.40330504072131
 32
0.0
 13
200.8584626812958
 23
11.40330504072131
 33
0.0
  0
SOLID
  5
1A251
  8
寸法線
  6
CONTINUOUS
 62
     0
 10
200.8090151801917
 20
12.90597975707477
 30
0.0
 11
200.8090151801917
 21
13.5998793727063
 31
0.0
 12
200.8584626812958
 22
12.95105711041485
 32
0.0
 13
200.8584626812958
 23
12.95105711041485
 33
0.0
  0
SOLID
  5
1A252
  8
寸法線
  6
CONTINUOUS
 62
     0
 10
200.8584626812958
 20
12.95105711041485
 30
0.0
 11
200.8090151801917
 21
13.5998793727063
 31
0.0
 12
200.8584626812958
 22
13.62083992393743
 32
0.0
 13
200.8584626812958
 23
13.62083992393743
 33
0.0
  0
SOLID
  5
1A253
  8
寸法線
  6
CONTINUOUS
 62
     0
 10
200.8584626812958
 20
7.892789534530377
 30
0.0
 11
200.8584626812958
 21
8.564821273831107
 31
0.0
 12
200.8622131608259
 22
7.89127629461148
 32
0.0
 13
200.8622131608259
 23
7.89127629461148
 33
0.0
  0
SOLID
  5
1A254
  8
寸法線
  6
CONTINUOUS
 62
     0
 10
200.8622131608259
 20
7.89127629461148
 30
0.0
 11
200.8584626812958
 21
8.564821273831107
 31
0.0
 12
200.8622131608259
 22
8.560251301300987
 32
0.0
 13
200.8622131608259
 23
8.560251301300987
 33
0.0
  0
SOLID
  5
1A255
  8
寸法線
  6
CONTINUOUS
 62
     0
 10
200.8584626812958
 20
10.11032441774646
 30
0.0
 11
200.8584626812958
 21
11.40330504072131
 31
0.0
 12
200.8622131608259
 22
10.10330776406446
 32
0.0
 13
200.8622131608259
 23
10.10330776406446
 33
0.0
  0
SOLID
  5
1A256
  8
寸法線
  6
CONTINUOUS
 62
     0
 10
200.8622131608259
 20
10.10330776406446
 30
0.0
 11
200.8584626812958
 21
11.40330504072131
 31
0.0
 12
200.8622131608259
 22
11.41032169440331
 32
0.0
 13
200.8622131608259
 23
11.41032169440331
 33
0.0
  0
SOLID
  5
1A257
  8
寸法線
  6
CONTINUOUS
 62
     0
 10
200.8584626812958
 20
12.95105711041485
 30
0.0
 11
200.8584626812958
 21
13.62083992393743
 31
0.0
 12
200.8622131608259
 22
12.95447612426186
 32
0.0
 13
200.8622131608259
 23
12.95447612426186
 33
0.0
  0
SOLID
  5
1A258
  8
寸法線
  6
CONTINUOUS
 62
     0
 10
200.8622131608259
 20
12.95447612426186
 30
0.0
 11
200.8584626812958
 21
13.62083992393743
 31
0.0
 12
200.8622131608259
 22
13.62235316385632
 32
0.0
 13
200.8622131608259
 23
13.62235316385632
 33
0.0
  0
SOLID
  5
1A259
  8
寸法線
  6
CONTINUOUS
 62
     0
 10
200.8622131608259
 20
7.89127629461148
 30
0.0
 11
200.8622131608259
 21
8.560251301300987
 31
0.0
 12
200.9107865894691
 22
7.871677933753935
 32
0.0
 13
200.9107865894691
 23
7.871677933753935
 33
0.0
  0
SOLID
  5
1A25A
  8
寸法線
  6
CONTINUOUS
 62
     0
 10
200.9107865894691
 20
7.871677933753935
 30
0.0
 11
200.8622131608259
 21
8.560251301300987
 31
0.0
 12
200.9107865894691
 22
8.501064407249412
 32
0.0
 13
200.9107865894691
 23
8.501064407249412
 33
0.0
  0
SOLID
  5
1A25B
  8
寸法線
  6
CONTINUOUS
 62
     0
 10
200.8622131608259
 20
10.10330776406446
 30
0.0
 11
200.8622131608259
 21
11.41032169440331
 31
0.0
 12
200.9107865894691
 22
10.04412087001288
 32
0.0
 13
200.9107865894691
 23
10.04412087001288
 33
0.0
  0
SOLID
  5
1A25C
  8
寸法線
  6
CONTINUOUS
 62
     0
 10
200.9107865894691
 20
10.04412087001288
 30
0.0
 11
200.8622131608259
 21
11.41032169440331
 31
0.0
 12
200.9107865894691
 22
11.46950858845489
 32
0.0
 13
200.9107865894691
 23
11.46950858845489
 33
0.0
  0
SOLID
  5
1A25D
  8
寸法線
  6
CONTINUOUS
 62
     0
 10
200.8622131608259
 20
12.95447612426186
 30
0.0
 11
200.8622131608259
 21
13.62235316385632
 31
0.0
 12
200.9107865894691
 22
12.99875665526944
 32
0.0
 13
200.9107865894691
 23
12.99875665526944
 33
0.0
  0
SOLID
  5
1A25E
  8
寸法線
  6
CONTINUOUS
 62
     0
 10
200.9107865894691
 20
12.99875665526944
 30
0.0
 11
200.8622131608259
 21
13.62235316385632
 31
0.0
 12
200.9107865894691
 22
13.64195152471387
 32
0.0
 13
200.9107865894691
 23
13.64195152471387
 33
0.0
  0
SOLID
  5
1A25F
  8
寸法線
  6
CONTINUOUS
 62
     0
 10
200.9107865894691
 20
7.871677933753935
 30
0.0
 11
200.9107865894691
 21
8.501064407249412
 31
0.0
 12
200.944419647244
 22
7.858107699545038
 32
0.0
 13
200.944419647244
 23
7.858107699545038
 33
0.0
  0
SOLID
  5
1A260
  8
寸法線
  6
CONTINUOUS
 62
     0
 10
200.944419647244
 20
7.858107699545038
 30
0.0
 11
200.9107865894691
 21
8.501064407249412
 31
0.0
 12
200.944419647244
 22
8.473462470062774
 32
0.0
 13
200.944419647244
 23
8.473462470062774
 33
0.0
  0
SOLID
  5
1A261
  8
寸法線
  6
CONTINUOUS
 62
     0
 10
200.9107865894691
 20
10.04412087001288
 30
0.0
 11
200.9107865894691
 21
11.46950858845489
 31
0.0
 12
200.944419647244
 22
10.00313887053777
 32
0.0
 13
200.944419647244
 23
10.00313887053777
 33
0.0
  0
SOLID
  5
1A262
  8
寸法線
  6
CONTINUOUS
 62
     0
 10
200.944419647244
 20
10.00313887053777
 30
0.0
 11
200.9107865894691
 21
11.46950858845489
 31
0.0
 12
200.944419647244
 22
11.51049058793001
 32
0.0
 13
200.944419647244
 23
11.51049058793001
 33
0.0
  0
SOLID
  5
1A263
  8
寸法線
  6
CONTINUOUS
 62
     0
 10
200.9107865894691
 20
12.99875665526944
 30
0.0
 11
200.9107865894691
 21
13.64195152471387
 31
0.0
 12
200.944419647244
 22
13.02941723862307
 32
0.0
 13
200.944419647244
 23
13.02941723862307
 33
0.0
  0
SOLID
  5
1A264
  8
寸法線
  6
CONTINUOUS
 62
     0
 10
200.944419647244
 20
13.02941723862307
 30
0.0
 11
200.9107865894691
 21
13.64195152471387
 31
0.0
 12
200.944419647244
 22
13.65552175892277
 32
0.0
 13
200.944419647244
 23
13.65552175892277
 33
0.0
  0
SOLID
  5
1A265
  8
寸法線
  6
CONTINUOUS
 62
     0
 10
200.944419647244
 20
7.858107699545038
 30
0.0
 11
200.944419647244
 21
8.473462470062774
 31
0.0
 12
201.008498853457
 22
7.833530201209195
 32
0.0
 13
201.008498853457
 23
7.833530201209195
 33
0.0
  0
SOLID
  5
1A266
  8
寸法線
  6
CONTINUOUS
 62
     0
 10
201.008498853457
 20
7.833530201209195
 30
0.0
 11
200.944419647244
 21
8.473462470062774
 31
0.0
 12
201.008498853457
 22
8.420874024590656
 32
0.0
 13
201.008498853457
 23
8.420874024590656
 33
0.0
  0
SOLID
  5
1A267
  8
寸法線
  6
CONTINUOUS
 62
     0
 10
200.944419647244
 20
10.00313887053777
 30
0.0
 11
200.944419647244
 21
11.51049058793001
 31
0.0
 12
201.008498853457
 22
9.92505813185039
 32
0.0
 13
201.008498853457
 23
9.92505813185039
 33
0.0
  0
SOLID
  5
1A268
  8
寸法線
  6
CONTINUOUS
 62
     0
 10
201.008498853457
 20
9.92505813185039
 30
0.0
 11
200.944419647244
 21
11.51049058793001
 31
0.0
 12
201.008498853457
 22
11.58857132661739
 32
0.0
 13
201.008498853457
 23
11.58857132661739
 33
0.0
  0
SOLID
  5
1A269
  8
寸法線
  6
CONTINUOUS
 62
     0
 10
200.944419647244
 20
13.02941723862307
 30
0.0
 11
200.944419647244
 21
13.65552175892277
 31
0.0
 12
201.008498853457
 22
13.0878331535979
 32
0.0
 13
201.008498853457
 23
13.0878331535979
 33
0.0
  0
SOLID
  5
1A26A
  8
寸法線
  6
CONTINUOUS
 62
     0
 10
201.008498853457
 20
13.0878331535979
 30
0.0
 11
200.944419647244
 21
13.65552175892277
 31
0.0
 12
201.008498853457
 22
13.68009925725861
 32
0.0
 13
201.008498853457
 23
13.68009925725861
 33
0.0
  0
SOLID
  5
1A26B
  8
寸法線
  6
CONTINUOUS
 62
     0
 10
201.008498853457
 20
7.833530201209195
 30
0.0
 11
201.008498853457
 21
8.420874024590656
 31
0.0
 12
201.0313914951213
 22
7.82474975751053
 32
0.0
 13
201.0313914951213
 23
7.82474975751053
 33
0.0
  0
SOLID
  5
1A26C
  8
寸法線
  6
CONTINUOUS
 62
     0
 10
201.0313914951213
 20
7.82474975751053
 30
0.0
 11
201.008498853457
 21
8.420874024590656
 31
0.0
 12
201.0313914951213
 22
8.402086519110702
 32
0.0
 13
201.0313914951213
 23
8.402086519110702
 33
0.0
  0
SOLID
  5
1A26D
  8
寸法線
  6
CONTINUOUS
 62
     0
 10
201.008498853457
 20
9.92505813185039
 30
0.0
 11
201.008498853457
 21
11.58857132661739
 31
0.0
 12
201.0313914951213
 22
9.906270626370437
 32
0.0
 13
201.0313914951213
 23
9.906270626370437
 33
0.0
  0
SOLID
  5
1A26E
  8
寸法線
  6
CONTINUOUS
 62
     0
 10
201.0313914951213
 20
9.906270626370437
 30
0.0
 11
201.008498853457
 21
11.58857132661739
 31
0.0
 12
201.0313914951213
 22
11.60735883209734
 32
0.0
 13
201.0313914951213
 23
11.60735883209734
 33
0.0
  0
SOLID
  5
1A26F
  8
寸法線
  6
CONTINUOUS
 62
     0
 10
201.008498853457
 20
13.0878331535979
 30
0.0
 11
201.008498853457
 21
13.68009925725861
 31
0.0
 12
201.0313914951213
 22
13.10870255395483
 32
0.0
 13
201.0313914951213
 23
13.10870255395483
 33
0.0
  0
SOLID
  5
1A270
  8
寸法線
  6
CONTINUOUS
 62
     0
 10
201.0313914951213
 20
13.10870255395483
 30
0.0
 11
201.008498853457
 21
13.68009925725861
 31
0.0
 12
201.0313914951213
 22
13.68887970095727
 32
0.0
 13
201.0313914951213
 23
13.68887970095727
 33
0.0
  0
SOLID
  5
1A271
  8
寸法線
  6
CONTINUOUS
 62
     0
 10
201.0313914951213
 20
7.82474975751053
 30
0.0
 11
201.0313914951213
 21
8.402086519110702
 31
0.0
 12
201.1029513723641
 22
7.798696996423671
 32
0.0
 13
201.1029513723641
 23
7.798696996423671
 33
0.0
  0
SOLID
  5
1A272
  8
寸法線
  6
CONTINUOUS
 62
     0
 10
201.1029513723641
 20
7.798696996423671
 30
0.0
 11
201.0313914951213
 21
8.402086519110702
 31
0.0
 12
201.1029513723641
 22
8.343358845583275
 32
0.0
 13
201.1029513723641
 23
8.343358845583275
 33
0.0
  0
SOLID
  5
1A273
  8
寸法線
  6
CONTINUOUS
 62
     0
 10
201.0313914951213
 20
9.906270626370437
 30
0.0
 11
201.0313914951213
 21
11.60735883209734
 31
0.0
 12
201.1029513723641
 22
9.847542952843018
 32
0.0
 13
201.1029513723641
 23
9.847542952843018
 33
0.0
  0
SOLID
  5
1A274
  8
寸法線
  6
CONTINUOUS
 62
     0
 10
201.1029513723641
 20
9.847542952843018
 30
0.0
 11
201.0313914951213
 21
11.60735883209734
 31
0.0
 12
201.1029513723641
 22
11.66608650562476
 32
0.0
 13
201.1029513723641
 23
11.66608650562476
 33
0.0
  0
SOLID
  5
1A275
  8
寸法線
  6
CONTINUOUS
 62
     0
 10
201.0313914951213
 20
13.10870255395483
 30
0.0
 11
201.0313914951213
 21
13.68887970095727
 31
0.0
 12
201.1029513723641
 22
13.17393800164013
 32
0.0
 13
201.1029513723641
 23
13.17393800164013
 33
0.0
  0
SOLID
  5
1A276
  8
寸法線
  6
CONTINUOUS
 62
     0
 10
201.1029513723641
 20
13.17393800164013
 30
0.0
 11
201.0313914951213
 21
13.68887970095727
 31
0.0
 12
201.1029513723641
 22
13.71493246204412
 32
0.0
 13
201.1029513723641
 23
13.71493246204412
 33
0.0
  0
SOLID
  5
1A277
  8
寸法線
  6
CONTINUOUS
 62
     0
 10
201.1029513723641
 20
7.798696996423671
 30
0.0
 11
201.1029513723641
 21
8.343358845583275
 31
0.0
 12
201.1155053754109
 22
7.794126468151886
 32
0.0
 13
201.1155053754109
 23
7.794126468151886
 33
0.0
  0
SOLID
  5
1A278
  8
寸法線
  6
CONTINUOUS
 62
     0
 10
201.1155053754109
 20
7.794126468151886
 30
0.0
 11
201.1029513723641
 21
8.343358845583275
 31
0.0
 12
201.1155053754109
 22
8.33305604154272
 32
0.0
 13
201.1155053754109
 23
8.33305604154272
 33
0.0
  0
SOLID
  5
1A279
  8
寸法線
  6
CONTINUOUS
 62
     0
 10
201.1029513723641
 20
9.847542952843018
 30
0.0
 11
201.1029513723641
 21
10.75681472923389
 31
0.0
 12
201.1155053754109
 22
9.837240148802463
 32
0.0
 13
201.1155053754109
 23
9.837240148802463
 33
0.0
  0
SOLID
  5
1A27A
  8
寸法線
  6
CONTINUOUS
 62
     0
 10
201.1155053754109
 20
9.837240148802463
 30
0.0
 11
201.1029513723641
 21
10.75681472923389
 31
0.0
 12
201.1155053754109
 22
10.62133546032966
 32
0.0
 13
201.1155053754109
 23
10.62133546032966
 33
0.0
  0
SOLID
  5
1A27B
  8
寸法線
  6
CONTINUOUS
 62
     0
 10
201.1029513723641
 20
10.75681472923389
 30
0.0
 11
201.1029513723641
 21
11.66608650562476
 31
0.0
 12
201.1155053754109
 22
10.89229399813812
 32
0.0
 13
201.1155053754109
 23
10.89229399813812
 33
0.0
  0
SOLID
  5
1A27C
  8
寸法線
  6
CONTINUOUS
 62
     0
 10
201.1155053754109
 20
10.89229399813812
 30
0.0
 11
201.1029513723641
 21
11.66608650562476
 31
0.0
 12
201.1155053754109
 22
11.67638930966531
 32
0.0
 13
201.1155053754109
 23
11.67638930966531
 33
0.0
  0
SOLID
  5
1A27D
  8
寸法線
  6
CONTINUOUS
 62
     0
 10
201.1029513723641
 20
13.17393800164013
 30
0.0
 11
201.1029513723641
 21
13.71493246204412
 31
0.0
 12
201.1155053754109
 22
13.18538248758058
 32
0.0
 13
201.1155053754109
 23
13.18538248758058
 33
0.0
  0
SOLID
  5
1A27E
  8
寸法線
  6
CONTINUOUS
 62
     0
 10
201.1155053754109
 20
13.18538248758058
 30
0.0
 11
201.1029513723641
 21
13.71493246204412
 31
0.0
 12
201.1155053754109
 22
13.71950299031591
 32
0.0
 13
201.1155053754109
 23
13.71950299031591
 33
0.0
  0
SOLID
  5
1A27F
  8
寸法線
  6
CONTINUOUS
 62
     0
 10
201.1155053754109
 20
7.794126468151886
 30
0.0
 11
201.1155053754109
 21
8.33305604154272
 31
0.0
 12
201.119338503281
 22
7.79273094361408
 32
0.0
 13
201.119338503281
 23
7.79273094361408
 33
0.0
  0
SOLID
  5
1A280
  8
寸法線
  6
CONTINUOUS
 62
     0
 10
201.119338503281
 20
7.79273094361408
 30
0.0
 11
201.1155053754109
 21
8.33305604154272
 31
0.0
 12
201.119338503281
 22
8.32991027479721
 32
0.0
 13
201.119338503281
 23
8.32991027479721
 33
0.0
  0
SOLID
  5
1A281
  8
寸法線
  6
CONTINUOUS
 62
     0
 10
201.1155053754109
 20
9.837240148802463
 30
0.0
 11
201.1155053754109
 21
10.62133546032966
 31
0.0
 12
201.119338503281
 22
9.834094382056954
 32
0.0
 13
201.119338503281
 23
9.834094382056954
 33
0.0
  0
SOLID
  5
1A282
  8
寸法線
  6
CONTINUOUS
 62
     0
 10
201.119338503281
 20
9.834094382056954
 30
0.0
 11
201.1155053754109
 21
10.62133546032966
 31
0.0
 12
201.119338503281
 22
10.60786341327634
 32
0.0
 13
201.119338503281
 23
10.60786341327634
 33
0.0
  0
SOLID
  5
1A283
  8
寸法線
  6
CONTINUOUS
 62
     0
 10
201.1155053754109
 20
10.89229399813812
 30
0.0
 11
201.1155053754109
 21
11.67638930966531
 31
0.0
 12
201.119338503281
 22
10.90576604519144
 32
0.0
 13
201.119338503281
 23
10.90576604519144
 33
0.0
  0
SOLID
  5
1A284
  8
寸法線
  6
CONTINUOUS
 62
     0
 10
201.119338503281
 20
10.90576604519144
 30
0.0
 11
201.1155053754109
 21
11.67638930966531
 31
0.0
 12
201.119338503281
 22
11.67953507641082
 32
0.0
 13
201.119338503281
 23
11.67953507641082
 33
0.0
  0
SOLID
  5
1A285
  8
寸法線
  6
CONTINUOUS
 62
     0
 10
201.1155053754109
 20
13.18538248758058
 30
0.0
 11
201.1155053754109
 21
13.71950299031591
 31
0.0
 12
201.119338503281
 22
13.18887684534466
 32
0.0
 13
201.119338503281
 23
13.18887684534466
 33
0.0
  0
SOLID
  5
1A286
  8
寸法線
  6
CONTINUOUS
 62
     0
 10
201.119338503281
 20
13.18887684534466
 30
0.0
 11
201.1155053754109
 21
13.71950299031591
 31
0.0
 12
201.119338503281
 22
13.72089851485371
 32
0.0
 13
201.119338503281
 23
13.72089851485371
 33
0.0
  0
SOLID
  5
1A287
  8
寸法線
  6
CONTINUOUS
 62
     0
 10
201.119338503281
 20
7.79273094361408
 30
0.0
 11
201.119338503281
 21
8.32991027479721
 31
0.0
 12
201.1527398730347
 22
7.781207181054014
 32
0.0
 13
201.1527398730347
 23
7.781207181054014
 33
0.0
  0
SOLID
  5
1A288
  8
寸法線
  6
CONTINUOUS
 62
     0
 10
201.1527398730347
 20
7.781207181054014
 30
0.0
 11
201.119338503281
 21
8.32991027479721
 31
0.0
 12
201.1527398730347
 22
8.302498479055766
 32
0.0
 13
201.1527398730347
 23
8.302498479055766
 33
0.0
  0
SOLID
  5
1A289
  8
寸法線
  6
CONTINUOUS
 62
     0
 10
201.119338503281
 20
9.834094382056954
 30
0.0
 11
201.119338503281
 21
10.60786341327634
 31
0.0
 12
201.1527398730347
 22
9.806682586315512
 32
0.0
 13
201.1527398730347
 23
9.806682586315512
 33
0.0
  0
SOLID
  5
1A28A
  8
寸法線
  6
CONTINUOUS
 62
     0
 10
201.1527398730347
 20
9.806682586315512
 30
0.0
 11
201.119338503281
 21
10.60786341327634
 31
0.0
 12
201.1527398730347
 22
10.49046977543849
 32
0.0
 13
201.1527398730347
 23
10.49046977543849
 33
0.0
  0
SOLID
  5
1A28B
  8
寸法線
  6
CONTINUOUS
 62
     0
 10
201.119338503281
 20
10.90576604519144
 30
0.0
 11
201.119338503281
 21
11.67953507641082
 31
0.0
 12
201.1527398730347
 22
11.02315968302929
 32
0.0
 13
201.1527398730347
 23
11.02315968302929
 33
0.0
  0
SOLID
  5
1A28C
  8
寸法線
  6
CONTINUOUS
 62
     0
 10
201.1527398730347
 20
11.02315968302929
 30
0.0
 11
201.119338503281
 21
11.67953507641082
 31
0.0
 12
201.1527398730347
 22
11.70694687215226
 32
0.0
 13
201.1527398730347
 23
11.70694687215226
 33
0.0
  0
SOLID
  5
1A28D
  8
寸法線
  6
CONTINUOUS
 62
     0
 10
201.119338503281
 20
13.18887684534466
 30
0.0
 11
201.119338503281
 21
13.72089851485372
 31
0.0
 12
201.1527398730347
 22
13.2193262171594
 32
0.0
 13
201.1527398730347
 23
13.2193262171594
 33
0.0
  0
SOLID
  5
1A28E
  8
寸法線
  6
CONTINUOUS
 62
     0
 10
201.1527398730347
 20
13.2193262171594
 30
0.0
 11
201.119338503281
 21
13.72089851485372
 31
0.0
 12
201.1527398730347
 22
13.73242227741379
 32
0.0
 13
201.1527398730347
 23
13.73242227741379
 33
0.0
  0
SOLID
  5
1A28F
  8
寸法線
  6
CONTINUOUS
 62
     0
 10
201.1527398730347
 20
7.781207181054014
 30
0.0
 11
201.1527398730347
 21
8.302498479055766
 31
0.0
 12
201.1867484856711
 22
7.769473914427227
 32
0.0
 13
201.1867484856711
 23
7.769473914427227
 33
0.0
  0
SOLID
  5
1A290
  8
寸法線
  6
CONTINUOUS
 62
     0
 10
201.1867484856711
 20
7.769473914427227
 30
0.0
 11
201.1527398730347
 21
8.302498479055766
 31
0.0
 12
201.1867484856711
 22
8.274588331959544
 32
0.0
 13
201.1867484856711
 23
8.274588331959544
 33
0.0
  0
SOLID
  5
1A291
  8
寸法線
  6
CONTINUOUS
 62
     0
 10
201.1527398730347
 20
9.806682586315512
 30
0.0
 11
201.1527398730347
 21
10.49046977543849
 31
0.0
 12
201.1867484856711
 22
9.778772439219292
 32
0.0
 13
201.1867484856711
 23
9.778772439219292
 33
0.0
  0
SOLID
  5
1A292
  8
寸法線
  6
CONTINUOUS
 62
     0
 10
201.1867484856711
 20
9.778772439219292
 30
0.0
 11
201.1527398730347
 21
10.49046977543849
 31
0.0
 12
201.1867484856711
 22
10.42217127424934
 32
0.0
 13
201.1867484856711
 23
10.42217127424934
 33
0.0
  0
SOLID
  5
1A293
  8
寸法線
  6
CONTINUOUS
 62
     0
 10
201.1527398730347
 20
11.02315968302929
 30
0.0
 11
201.1527398730347
 21
11.70694687215226
 31
0.0
 12
201.1867484856711
 22
11.09145818421844
 32
0.0
 13
201.1867484856711
 23
11.09145818421844
 33
0.0
  0
SOLID
  5
1A294
  8
寸法線
  6
CONTINUOUS
 62
     0
 10
201.1867484856711
 20
11.09145818421844
 30
0.0
 11
201.1527398730347
 21
11.70694687215226
 31
0.0
 12
201.1867484856711
 22
11.73485701924848
 32
0.0
 13
201.1867484856711
 23
11.73485701924848
 33
0.0
  0
SOLID
  5
1A295
  8
寸法線
  6
CONTINUOUS
 62
     0
 10
201.1527398730347
 20
13.2193262171594
 30
0.0
 11
201.1527398730347
 21
13.73242227741379
 31
0.0
 12
201.1867484856711
 22
13.25032916400582
 32
0.0
 13
201.1867484856711
 23
13.25032916400582
 33
0.0
  0
SOLID
  5
1A296
  8
寸法線
  6
CONTINUOUS
 62
     0
 10
201.1867484856711
 20
13.25032916400582
 30
0.0
 11
201.1527398730347
 21
13.73242227741379
 31
0.0
 12
201.1867484856711
 22
13.74415554404058
 32
0.0
 13
201.1867484856711
 23
13.74415554404058
 33
0.0
  0
SOLID
  5
1A297
  8
寸法線
  6
CONTINUOUS
 62
     0
 10
201.1867484856711
 20
7.769473914427227
 30
0.0
 11
201.1867484856711
 21
8.274588331959544
 31
0.0
 12
201.2082205047028
 22
7.762065881438403
 32
0.0
 13
201.2082205047028
 23
7.762065881438403
 33
0.0
  0
SOLID
  5
1A298
  8
寸法線
  6
CONTINUOUS
 62
     0
 10
201.2082205047028
 20
7.762065881438403
 30
0.0
 11
201.1867484856711
 21
8.274588331959544
 31
0.0
 12
201.2082205047028
 22
8.25696670134393
 32
0.0
 13
201.2082205047028
 23
8.25696670134393
 33
0.0
  0
SOLID
  5
1A299
  8
寸法線
  6
CONTINUOUS
 62
     0
 10
201.1867484856711
 20
9.778772439219292
 30
0.0
 11
201.1867484856711
 21
10.42217127424934
 31
0.0
 12
201.2082205047028
 22
9.767295405935483
 32
0.0
 13
201.2082205047028
 23
9.767295405935483
 33
0.0
  0
SOLID
  5
1A29A
  8
寸法線
  6
CONTINUOUS
 62
     0
 10
201.2082205047028
 20
9.767295405935483
 30
0.0
 11
201.1867484856711
 21
10.42217127424934
 31
0.0
 12
201.2082205047028
 22
10.37904964700008
 32
0.0
 13
201.2082205047028
 23
10.37904964700008
 33
0.0
  0
SOLID
  5
1A29B
  8
寸法線
  6
CONTINUOUS
 62
     0
 10
201.1867484856711
 20
11.09145818421844
 30
0.0
 11
201.1867484856711
 21
11.73485701924848
 31
0.0
 12
201.2082205047028
 22
11.13457981146769
 32
0.0
 13
201.2082205047028
 23
11.13457981146769
 33
0.0
  0
SOLID
  5
1A29C
  8
寸法線
  6
CONTINUOUS
 62
     0
 10
201.2082205047028
 20
11.13457981146769
 30
0.0
 11
201.1867484856711
 21
11.73485701924848
 31
0.0
 12
201.2082205047028
 22
11.74633405253229
 32
0.0
 13
201.2082205047028
 23
11.74633405253229
 33
0.0
  0
SOLID
  5
1A29D
  8
寸法線
  6
CONTINUOUS
 62
     0
 10
201.1867484856711
 20
13.25032916400582
 30
0.0
 11
201.1867484856711
 21
13.74415554404058
 31
0.0
 12
201.2082205047028
 22
13.26990349571534
 32
0.0
 13
201.2082205047028
 23
13.26990349571534
 33
0.0
  0
SOLID
  5
1A29E
  8
寸法線
  6
CONTINUOUS
 62
     0
 10
201.2082205047028
 20
13.26990349571534
 30
0.0
 11
201.1867484856711
 21
13.74415554404058
 31
0.0
 12
201.2082205047028
 22
13.75156357702941
 32
0.0
 13
201.2082205047028
 23
13.75156357702941
 33
0.0
  0
SOLID
  5
1A29F
  8
寸法線
  6
CONTINUOUS
 62
     0
 10
201.2082205047028
 20
7.762065881438403
 30
0.0
 11
201.2082205047028
 21
8.25696670134393
 31
0.0
 12
201.2133868890765
 22
7.760379902289364
 32
0.0
 13
201.2133868890765
 23
7.760379902289364
 33
0.0
  0
SOLID
  5
1A2A0
  8
寸法線
  6
CONTINUOUS
 62
     0
 10
201.2133868890765
 20
7.760379902289364
 30
0.0
 11
201.2082205047028
 21
8.25696670134393
 31
0.0
 12
201.2133868890765
 22
8.252726759263194
 32
0.0
 13
201.2133868890765
 23
8.252726759263194
 33
0.0
  0
SOLID
  5
1A2A1
  8
寸法線
  6
CONTINUOUS
 62
     0
 10
201.2082205047028
 20
9.767295405935483
 30
0.0
 11
201.2082205047028
 21
10.37904964700008
 31
0.0
 12
201.2133868890765
 22
9.764533915955155
 32
0.0
 13
201.2133868890765
 23
9.764533915955155
 33
0.0
  0
SOLID
  5
1A2A2
  8
寸法線
  6
CONTINUOUS
 62
     0
 10
201.2133868890765
 20
9.764533915955155
 30
0.0
 11
201.2082205047028
 21
10.37904964700008
 31
0.0
 12
201.2133868890765
 22
10.36867414850326
 32
0.0
 13
201.2133868890765
 23
10.36867414850326
 33
0.0
  0
SOLID
  5
1A2A3
  8
寸法線
  6
CONTINUOUS
 62
     0
 10
201.2082205047028
 20
11.13457981146769
 30
0.0
 11
201.2082205047028
 21
11.74633405253229
 31
0.0
 12
201.2133868890765
 22
11.14495530996452
 32
0.0
 13
201.2133868890765
 23
11.14495530996452
 33
0.0
  0
SOLID
  5
1A2A4
  8
寸法線
  6
CONTINUOUS
 62
     0
 10
201.2133868890765
 20
11.14495530996452
 30
0.0
 11
201.2082205047028
 21
11.74633405253229
 31
0.0
 12
201.2133868890765
 22
11.74909554251262
 32
0.0
 13
201.2133868890765
 23
11.74909554251262
 33
0.0
  0
SOLID
  5
1A2A5
  8
寸法線
  6
CONTINUOUS
 62
     0
 10
201.2082205047028
 20
13.26990349571534
 30
0.0
 11
201.2082205047028
 21
13.7515635770294
 31
0.0
 12
201.2133868890765
 22
13.27461327737675
 32
0.0
 13
201.2133868890765
 23
13.27461327737675
 33
0.0
  0
SOLID
  5
1A2A6
  8
寸法線
  6
CONTINUOUS
 62
     0
 10
201.2133868890765
 20
13.27461327737675
 30
0.0
 11
201.2082205047028
 21
13.7515635770294
 31
0.0
 12
201.2133868890765
 22
13.75324955617844
 32
0.0
 13
201.2133868890765
 23
13.75324955617844
 33
0.0
  0
SOLID
  5
1A2A7
  8
寸法線
  6
CONTINUOUS
 62
     0
 10
201.2133868890765
 20
7.760379902289364
 30
0.0
 11
201.2133868890765
 21
8.252726759263194
 31
0.0
 12
201.2440645052769
 22
7.750368680220835
 32
0.0
 13
201.2440645052769
 23
7.750368680220835
 33
0.0
  0
SOLID
  5
1A2A8
  8
寸法線
  6
CONTINUOUS
 62
     0
 10
201.2440645052769
 20
7.750368680220835
 30
0.0
 11
201.2133868890765
 21
8.252726759263194
 31
0.0
 12
201.2440645052769
 22
8.227550290294326
 32
0.0
 13
201.2440645052769
 23
8.227550290294326
 33
0.0
  0
SOLID
  5
1A2A9
  8
寸法線
  6
CONTINUOUS
 62
     0
 10
201.2133868890765
 20
9.764533915955155
 30
0.0
 11
201.2133868890765
 21
10.36867414850326
 31
0.0
 12
201.2440645052769
 22
9.748136388471606
 32
0.0
 13
201.2440645052769
 23
9.748136388471606
 33
0.0
  0
SOLID
  5
1A2AA
  8
寸法線
  6
CONTINUOUS
 62
     0
 10
201.2440645052769
 20
9.748136388471606
 30
0.0
 11
201.2133868890765
 21
10.36867414850326
 31
0.0
 12
201.2440645052769
 22
10.3280504193945
 32
0.0
 13
201.2440645052769
 23
10.3280504193945
 33
0.0
  0
SOLID
  5
1A2AB
  8
寸法線
  6
CONTINUOUS
 62
     0
 10
201.2133868890765
 20
11.14495530996452
 30
0.0
 11
201.2133868890765
 21
11.74909554251262
 31
0.0
 12
201.2440645052769
 22
11.18557903907327
 32
0.0
 13
201.2440645052769
 23
11.18557903907327
 33
0.0
  0
SOLID
  5
1A2AC
  8
寸法線
  6
CONTINUOUS
 62
     0
 10
201.2440645052769
 20
11.18557903907327
 30
0.0
 11
201.2133868890765
 21
11.74909554251262
 31
0.0
 12
201.2440645052769
 22
11.76549306999617
 32
0.0
 13
201.2440645052769
 23
11.76549306999617
 33
0.0
  0
SOLID
  5
1A2AD
  8
寸法線
  6
CONTINUOUS
 62
     0
 10
201.2133868890765
 20
13.27461327737675
 30
0.0
 11
201.2133868890765
 21
13.75324955617844
 31
0.0
 12
201.2440645052769
 22
13.30257961974433
 32
0.0
 13
201.2440645052769
 23
13.30257961974433
 33
0.0
  0
SOLID
  5
1A2AE
  8
寸法線
  6
CONTINUOUS
 62
     0
 10
201.2440645052769
 20
13.30257961974433
 30
0.0
 11
201.2133868890765
 21
13.75324955617844
 31
0.0
 12
201.2440645052769
 22
13.76326077824697
 32
0.0
 13
201.2440645052769
 23
13.76326077824697
 33
0.0
  0
SOLID
  5
1A2AF
  8
寸法線
  6
CONTINUOUS
 62
     0
 10
201.2440645052769
 20
7.750368680220835
 30
0.0
 11
201.2440645052769
 21
8.227550290294326
 31
0.0
 12
201.2953811621433
 22
7.733622188435197
 32
0.0
 13
201.2953811621433
 23
7.733622188435197
 33
0.0
  0
SOLID
  5
1A2B0
  8
寸法線
  6
CONTINUOUS
 62
     0
 10
201.2953811621433
 20
7.733622188435197
 30
0.0
 11
201.2440645052769
 21
8.227550290294326
 31
0.0
 12
201.2953811621433
 22
8.185435798387894
 32
0.0
 13
201.2953811621433
 23
8.185435798387894
 33
0.0
  0
SOLID
  5
1A2B1
  8
寸法線
  6
CONTINUOUS
 62
     0
 10
201.2440645052769
 20
9.748136388471606
 30
0.0
 11
201.2440645052769
 21
10.3280504193945
 31
0.0
 12
201.2953811621433
 22
9.720707063916784
 32
0.0
 13
201.2953811621433
 23
9.720707063916784
 33
0.0
  0
SOLID
  5
1A2B2
  8
寸法線
  6
CONTINUOUS
 62
     0
 10
201.2953811621433
 20
9.720707063916784
 30
0.0
 11
201.2440645052769
 21
10.3280504193945
 31
0.0
 12
201.2953811621433
 22
10.26009618352149
 32
0.0
 13
201.2953811621433
 23
10.26009618352149
 33
0.0
  0
SOLID
  5
1A2B3
  8
寸法線
  6
CONTINUOUS
 62
     0
 10
201.2440645052769
 20
11.18557903907327
 30
0.0
 11
201.2440645052769
 21
11.76549306999617
 31
0.0
 12
201.2953811621433
 22
11.25353327494628
 32
0.0
 13
201.2953811621433
 23
11.25353327494628
 33
0.0
  0
SOLID
  5
1A2B4
  8
寸法線
  6
CONTINUOUS
 62
     0
 10
201.2953811621433
 20
11.25353327494628
 30
0.0
 11
201.2440645052769
 21
11.76549306999617
 31
0.0
 12
201.2953811621433
 22
11.79292239455099
 32
0.0
 13
201.2953811621433
 23
11.79292239455099
 33
0.0
  0
SOLID
  5
1A2B5
  8
寸法線
  6
CONTINUOUS
 62
     0
 10
201.2440645052769
 20
13.30257961974433
 30
0.0
 11
201.2440645052769
 21
13.76326077824697
 31
0.0
 12
201.2953811621433
 22
13.33435354846266
 32
0.0
 13
201.2953811621433
 23
13.33435354846266
 33
0.0
  0
SOLID
  5
1A2B6
  8
寸法線
  6
CONTINUOUS
 62
     0
 10
201.2953811621433
 20
13.33435354846266
 30
0.0
 11
201.2440645052769
 21
13.76326077824697
 31
0.0
 12
201.2953811621433
 22
13.7800072700326
 32
0.0
 13
201.2953811621433
 23
13.7800072700326
 33
0.0
  0
SOLID
  5
1A2B7
  8
寸法線
  6
CONTINUOUS
 62
     0
 10
201.2953811621433
 20
7.733622188435197
 30
0.0
 11
201.2953811621433
 21
8.185435798387894
 31
0.0
 12
201.2979969053377
 22
7.732768576282838
 32
0.0
 13
201.2979969053377
 23
7.732768576282838
 33
0.0
  0
SOLID
  5
1A2B8
  8
寸法線
  6
CONTINUOUS
 62
     0
 10
201.2979969053377
 20
7.732768576282838
 30
0.0
 11
201.2953811621433
 21
8.185435798387894
 31
0.0
 12
201.2979969053377
 22
8.18328911342594
 32
0.0
 13
201.2979969053377
 23
8.18328911342594
 33
0.0
  0
SOLID
  5
1A2B9
  8
寸法線
  6
CONTINUOUS
 62
     0
 10
201.2953811621433
 20
9.720707063916784
 30
0.0
 11
201.2953811621433
 21
10.26009618352149
 31
0.0
 12
201.2979969053377
 22
9.719308920050553
 32
0.0
 13
201.2979969053377
 23
9.719308920050553
 33
0.0
  0
SOLID
  5
1A2BA
  8
寸法線
  6
CONTINUOUS
 62
     0
 10
201.2979969053377
 20
9.719308920050553
 30
0.0
 11
201.2953811621433
 21
10.26009618352149
 31
0.0
 12
201.2979969053377
 22
10.25771161852647
 32
0.0
 13
201.2979969053377
 23
10.25771161852647
 33
0.0
  0
SOLID
  5
1A2BB
  8
寸法線
  6
CONTINUOUS
 62
     0
 10
201.2953811621433
 20
11.25353327494628
 30
0.0
 11
201.2953811621433
 21
11.79292239455099
 31
0.0
 12
201.2979969053377
 22
11.2559178399413
 32
0.0
 13
201.2979969053377
 23
11.2559178399413
 33
0.0
  0
SOLID
  5
1A2BC
  8
寸法線
  6
CONTINUOUS
 62
     0
 10
201.2979969053377
 20
11.2559178399413
 30
0.0
 11
201.2953811621433
 21
11.79292239455099
 31
0.0
 12
201.2979969053377
 22
11.79432053841722
 32
0.0
 13
201.2979969053377
 23
11.79432053841722
 33
0.0
  0
SOLID
  5
1A2BD
  8
寸法線
  6
CONTINUOUS
 62
     0
 10
201.2953811621433
 20
13.33435354846266
 30
0.0
 11
201.2953811621433
 21
13.7800072700326
 31
0.0
 12
201.2979969053377
 22
13.33597314807966
 32
0.0
 13
201.2979969053377
 23
13.33597314807966
 33
0.0
  0
SOLID
  5
1A2BE
  8
寸法線
  6
CONTINUOUS
 62
     0
 10
201.2979969053377
 20
13.33597314807966
 30
0.0
 11
201.2953811621433
 21
13.7800072700326
 31
0.0
 12
201.2979969053377
 22
13.78086088218496
 32
0.0
 13
201.2979969053377
 23
13.78086088218496
 33
0.0
  0
SOLID
  5
1A2BF
  8
寸法線
  6
CONTINUOUS
 62
     0
 10
201.2979969053377
 20
7.732768576282838
 30
0.0
 11
201.2979969053377
 21
8.18328911342594
 31
0.0
 12
201.3886267026482
 22
7.704852408766874
 32
0.0
 13
201.3886267026482
 23
7.704852408766874
 33
0.0
  0
SOLID
  5
1A2C0
  8
寸法線
  6
CONTINUOUS
 62
     0
 10
201.3886267026482
 20
7.704852408766874
 30
0.0
 11
201.2979969053377
 21
8.18328911342594
 31
0.0
 12
201.3886267026482
 22
8.10891116095616
 32
0.0
 13
201.3886267026482
 23
8.10891116095616
 33
0.0
  0
SOLID
  5
1A2C1
  8
寸法線
  6
CONTINUOUS
 62
     0
 10
201.2979969053377
 20
9.719308920050553
 30
0.0
 11
201.2979969053377
 21
10.25771161852647
 31
0.0
 12
201.3886267026482
 22
9.670866284139157
 32
0.0
 13
201.3886267026482
 23
9.670866284139157
 33
0.0
  0
SOLID
  5
1A2C2
  8
寸法線
  6
CONTINUOUS
 62
     0
 10
201.3886267026482
 20
9.670866284139157
 30
0.0
 11
201.2979969053377
 21
10.25771161852647
 31
0.0
 12
201.3886267026482
 22
10.17509164167659
 32
0.0
 13
201.3886267026482
 23
10.17509164167659
 33
0.0
  0
SOLID
  5
1A2C3
  8
寸法線
  6
CONTINUOUS
 62
     0
 10
201.2979969053377
 20
11.2559178399413
 30
0.0
 11
201.2979969053377
 21
11.79432053841722
 31
0.0
 12
201.3886267026482
 22
11.33853781679119
 32
0.0
 13
201.3886267026482
 23
11.33853781679119
 33
0.0
  0
SOLID
  5
1A2C4
  8
寸法線
  6
CONTINUOUS
 62
     0
 10
201.3886267026482
 20
11.33853781679119
 30
0.0
 11
201.2979969053377
 21
11.79432053841722
 31
0.0
 12
201.3886267026482
 22
11.84276317432862
 32
0.0
 13
201.3886267026482
 23
11.84276317432862
 33
0.0
  0
SOLID
  5
1A2C5
  8
寸法線
  6
CONTINUOUS
 62
     0
 10
201.2979969053377
 20
13.33597314807966
 30
0.0
 11
201.2979969053377
 21
13.78086088218497
 31
0.0
 12
201.3886267026482
 22
13.39208874280751
 32
0.0
 13
201.3886267026482
 23
13.39208874280751
 33
0.0
  0
SOLID
  5
1A2C6
  8
寸法線
  6
CONTINUOUS
 62
     0
 10
201.3886267026482
 20
13.39208874280751
 30
0.0
 11
201.2979969053377
 21
13.78086088218497
 31
0.0
 12
201.3886267026482
 22
13.80877704970094
 32
0.0
 13
201.3886267026482
 23
13.80877704970094
 33
0.0
  0
SOLID
  5
1A2C7
  8
寸法線
  6
CONTINUOUS
 62
     0
 10
201.3886267026482
 20
7.704852408766874
 30
0.0
 11
201.3886267026482
 21
8.10891116095616
 31
0.0
 12
201.3901120240657
 22
7.704421598023096
 32
0.0
 13
201.3901120240657
 23
7.704421598023096
 33
0.0
  0
SOLID
  5
1A2C8
  8
寸法線
  6
CONTINUOUS
 62
     0
 10
201.3901120240657
 20
7.704421598023096
 30
0.0
 11
201.3886267026482
 21
8.10891116095616
 31
0.0
 12
201.3901120240657
 22
8.107692189171226
 32
0.0
 13
201.3901120240657
 23
8.107692189171226
 33
0.0
  0
SOLID
  5
1A2C9
  8
寸法線
  6
CONTINUOUS
 62
     0
 10
201.3886267026482
 20
9.670866284139157
 30
0.0
 11
201.3886267026482
 21
10.17509164167659
 31
0.0
 12
201.3901120240657
 22
9.670072363301019
 32
0.0
 13
201.3901120240657
 23
9.670072363301019
 33
0.0
  0
SOLID
  5
1A2CA
  8
寸法線
  6
CONTINUOUS
 62
     0
 10
201.3901120240657
 20
9.670072363301019
 30
0.0
 11
201.3886267026482
 21
10.17509164167659
 31
0.0
 12
201.3901120240657
 22
10.17373759229357
 32
0.0
 13
201.3901120240657
 23
10.17373759229357
 33
0.0
  0
SOLID
  5
1A2CB
  8
寸法線
  6
CONTINUOUS
 62
     0
 10
201.3886267026482
 20
11.33853781679119
 30
0.0
 11
201.3886267026482
 21
11.84276317432862
 31
0.0
 12
201.3901120240657
 22
11.33989186617421
 32
0.0
 13
201.3901120240657
 23
11.33989186617421
 33
0.0
  0
SOLID
  5
1A2CC
  8
寸法線
  6
CONTINUOUS
 62
     0
 10
201.3901120240657
 20
11.33989186617421
 30
0.0
 11
201.3886267026482
 21
11.84276317432862
 31
0.0
 12
201.3901120240657
 22
11.84355709516676
 32
0.0
 13
201.3901120240657
 23
11.84355709516676
 33
0.0
  0
SOLID
  5
1A2CD
  8
寸法線
  6
CONTINUOUS
 62
     0
 10
201.3886267026482
 20
13.39208874280751
 30
0.0
 11
201.3886267026482
 21
13.80877704970093
 31
0.0
 12
201.3901120240657
 22
13.39300841489307
 32
0.0
 13
201.3901120240657
 23
13.39300841489307
 33
0.0
  0
SOLID
  5
1A2CE
  8
寸法線
  6
CONTINUOUS
 62
     0
 10
201.3901120240657
 20
13.39300841489307
 30
0.0
 11
201.3886267026482
 21
13.80877704970093
 31
0.0
 12
201.3901120240657
 22
13.80920786044471
 32
0.0
 13
201.3901120240657
 23
13.80920786044471
 33
0.0
  0
SOLID
  5
1A2CF
  8
寸法線
  6
CONTINUOUS
 62
     0
 10
201.3901120240657
 20
7.704421598023096
 30
0.0
 11
201.3901120240657
 21
8.107692189171226
 31
0.0
 12
201.3942052560903
 22
7.703234374630136
 32
0.0
 13
201.3942052560903
 23
7.703234374630136
 33
0.0
  0
SOLID
  5
1A2D0
  8
寸法線
  6
CONTINUOUS
 62
     0
 10
201.3942052560903
 20
7.703234374630136
 30
0.0
 11
201.3901120240657
 21
8.107692189171226
 31
0.0
 12
201.3942052560903
 22
8.104332960462731
 32
0.0
 13
201.3942052560903
 23
8.104332960462731
 33
0.0
  0
SOLID
  5
1A2D1
  8
寸法線
  6
CONTINUOUS
 62
     0
 10
201.3901120240657
 20
9.670072363301019
 30
0.0
 11
201.3901120240657
 21
10.17373759229357
 31
0.0
 12
201.3942052560903
 22
9.668830694941134
 32
0.0
 13
201.3942052560903
 23
9.668830694941134
 33
0.0
  0
SOLID
  5
1A2D2
  8
寸法線
  6
CONTINUOUS
 62
     0
 10
201.3942052560903
 20
9.668830694941134
 30
0.0
 11
201.3901120240657
 21
10.17373759229357
 31
0.0
 12
201.3942052560903
 22
10.17000611826244
 32
0.0
 13
201.3942052560903
 23
10.17000611826244
 33
0.0
  0
SOLID
  5
1A2D3
  8
寸法線
  6
CONTINUOUS
 62
     0
 10
201.3901120240657
 20
11.33989186617421
 30
0.0
 11
201.3901120240657
 21
11.84355709516676
 31
0.0
 12
201.3942052560903
 22
11.34362334020534
 32
0.0
 13
201.3942052560903
 23
11.34362334020534
 33
0.0
  0
SOLID
  5
1A2D4
  8
寸法線
  6
CONTINUOUS
 62
     0
 10
201.3942052560903
 20
11.34362334020534
 30
0.0
 11
201.3901120240657
 21
11.84355709516676
 31
0.0
 12
201.3942052560903
 22
11.84479876352664
 32
0.0
 13
201.3942052560903
 23
11.84479876352664
 33
0.0
  0
SOLID
  5
1A2D5
  8
寸法線
  6
CONTINUOUS
 62
     0
 10
201.3901120240657
 20
13.39300841489307
 30
0.0
 11
201.3901120240657
 21
13.80920786044471
 31
0.0
 12
201.3942052560903
 22
13.39554283686282
 32
0.0
 13
201.3942052560903
 23
13.39554283686282
 33
0.0
  0
SOLID
  5
1A2D6
  8
寸法線
  6
CONTINUOUS
 62
     0
 10
201.3942052560903
 20
13.39554283686282
 30
0.0
 11
201.3901120240657
 21
13.80920786044471
 31
0.0
 12
201.3942052560903
 22
13.81039508383767
 32
0.0
 13
201.3942052560903
 23
13.81039508383767
 33
0.0
  0
SOLID
  5
1A2D7
  8
寸法線
  6
CONTINUOUS
 62
     0
 10
201.3942052560903
 20
7.703234374630136
 30
0.0
 11
201.3942052560903
 21
8.104332960462731
 31
0.0
 12
201.3959304756069
 22
7.70273398253024
 32
0.0
 13
201.3959304756069
 23
7.70273398253024
 33
0.0
  0
SOLID
  5
1A2D8
  8
寸法線
  6
CONTINUOUS
 62
     0
 10
201.3959304756069
 20
7.70273398253024
 30
0.0
 11
201.3942052560903
 21
8.104332960462731
 31
0.0
 12
201.3959304756069
 22
8.103410811419133
 32
0.0
 13
201.3959304756069
 23
8.103410811419133
 33
0.0
  0
SOLID
  5
1A2D9
  8
寸法線
  6
CONTINUOUS
 62
     0
 10
201.3942052560903
 20
9.668830694941134
 30
0.0
 11
201.3942052560903
 21
10.17000611826244
 31
0.0
 12
201.3959304756069
 22
9.66830735532227
 32
0.0
 13
201.3959304756069
 23
9.66830735532227
 33
0.0
  0
SOLID
  5
1A2DA
  8
寸法線
  6
CONTINUOUS
 62
     0
 10
201.3959304756069
 20
9.66830735532227
 30
0.0
 11
201.3942052560903
 21
10.17000611826244
 31
0.0
 12
201.3959304756069
 22
10.16843337286573
 32
0.0
 13
201.3959304756069
 23
10.16843337286573
 33
0.0
  0
SOLID
  5
1A2DB
  8
寸法線
  6
CONTINUOUS
 62
     0
 10
201.3942052560903
 20
11.34362334020534
 30
0.0
 11
201.3942052560903
 21
11.84479876352664
 31
0.0
 12
201.3959304756069
 22
11.34519608560205
 32
0.0
 13
201.3959304756069
 23
11.34519608560205
 33
0.0
  0
SOLID
  5
1A2DC
  8
寸法線
  6
CONTINUOUS
 62
     0
 10
201.3959304756069
 20
11.34519608560205
 30
0.0
 11
201.3942052560903
 21
11.84479876352664
 31
0.0
 12
201.3959304756069
 22
11.84532210314551
 32
0.0
 13
201.3959304756069
 23
11.84532210314551
 33
0.0
  0
SOLID
  5
1A2DD
  8
寸法線
  6
CONTINUOUS
 62
     0
 10
201.3942052560903
 20
13.39554283686282
 30
0.0
 11
201.3942052560903
 21
13.81039508383767
 31
0.0
 12
201.3959304756069
 22
13.39661104756266
 32
0.0
 13
201.3959304756069
 23
13.39661104756266
 33
0.0
  0
SOLID
  5
1A2DE
  8
寸法線
  6
CONTINUOUS
 62
     0
 10
201.3959304756069
 20
13.39661104756266
 30
0.0
 11
201.3942052560903
 21
13.81039508383767
 31
0.0
 12
201.3959304756069
 22
13.81089547593757
 32
0.0
 13
201.3959304756069
 23
13.81089547593757
 33
0.0
  0
SOLID
  5
1A2DF
  8
寸法線
  6
CONTINUOUS
 62
     0
 10
201.3959304756069
 20
7.70273398253024
 30
0.0
 11
201.3959304756069
 21
8.103410811419133
 31
0.0
 12
201.4800685043345
 22
7.678330128718973
 32
0.0
 13
201.4800685043345
 23
7.678330128718973
 33
0.0
  0
SOLID
  5
1A2E0
  8
寸法線
  6
CONTINUOUS
 62
     0
 10
201.4800685043345
 20
7.678330128718973
 30
0.0
 11
201.3959304756069
 21
8.103410811419133
 31
0.0
 12
201.4800685043345
 22
8.058438098107278
 32
0.0
 13
201.4800685043345
 23
8.058438098107278
 33
0.0
  0
SOLID
  5
1A2E1
  8
寸法線
  6
CONTINUOUS
 62
     0
 10
201.3959304756069
 20
9.66830735532227
 30
0.0
 11
201.3959304756069
 21
10.16843337286573
 31
0.0
 12
201.4800685043345
 22
9.64278436334249
 32
0.0
 13
201.4800685043345
 23
9.64278436334249
 33
0.0
  0
SOLID
  5
1A2E2
  8
寸法線
  6
CONTINUOUS
 62
     0
 10
201.4800685043345
 20
9.64278436334249
 30
0.0
 11
201.3959304756069
 21
10.16843337286573
 31
0.0
 12
201.4800685043345
 22
10.11633731106935
 32
0.0
 13
201.4800685043345
 23
10.11633731106935
 33
0.0
  0
SOLID
  5
1A2E3
  8
寸法線
  6
CONTINUOUS
 62
     0
 10
201.3959304756069
 20
11.34519608560205
 30
0.0
 11
201.3959304756069
 21
11.84532210314551
 31
0.0
 12
201.4800685043345
 22
11.39729214739843
 32
0.0
 13
201.4800685043345
 23
11.39729214739843
 33
0.0
  0
SOLID
  5
1A2E4
  8
寸法線
  6
CONTINUOUS
 62
     0
 10
201.4800685043345
 20
11.39729214739843
 30
0.0
 11
201.3959304756069
 21
11.84532210314551
 31
0.0
 12
201.4800685043345
 22
11.87084509512529
 32
0.0
 13
201.4800685043345
 23
11.87084509512529
 33
0.0
  0
SOLID
  5
1A2E5
  8
寸法線
  6
CONTINUOUS
 62
     0
 10
201.3959304756069
 20
13.39661104756266
 30
0.0
 11
201.3959304756069
 21
13.81089547593757
 31
0.0
 12
201.4800685043345
 22
13.44870710935905
 32
0.0
 13
201.4800685043345
 23
13.44870710935905
 33
0.0
  0
SOLID
  5
1A2E6
  8
寸法線
  6
CONTINUOUS
 62
     0
 10
201.4800685043345
 20
13.44870710935905
 30
0.0
 11
201.3959304756069
 21
13.81089547593757
 31
0.0
 12
201.4800685043345
 22
13.83529932974882
 32
0.0
 13
201.4800685043345
 23
13.83529932974882
 33
0.0
  0
SOLID
  5
1A2E7
  8
寸法線
  6
CONTINUOUS
 62
     0
 10
201.4800685043345
 20
7.678330128718973
 30
0.0
 11
201.4800685043345
 21
8.058438098107278
 31
0.0
 12
201.511610743193
 22
7.66973880313911
 32
0.0
 13
201.511610743193
 23
7.66973880313911
 33
0.0
  0
SOLID
  5
1A2E8
  8
寸法線
  6
CONTINUOUS
 62
     0
 10
201.511610743193
 20
7.66973880313911
 30
0.0
 11
201.4800685043345
 21
8.058438098107278
 31
0.0
 12
201.511610743193
 22
8.041578420184562
 32
0.0
 13
201.511610743193
 23
8.041578420184562
 33
0.0
  0
SOLID
  5
1A2E9
  8
寸法線
  6
CONTINUOUS
 62
     0
 10
201.4800685043345
 20
9.64278436334249
 30
0.0
 11
201.4800685043345
 21
10.11633731106935
 31
0.0
 12
201.511610743193
 22
9.633216129791197
 32
0.0
 13
201.511610743193
 23
9.633216129791197
 33
0.0
  0
SOLID
  5
1A2EA
  8
寸法線
  6
CONTINUOUS
 62
     0
 10
201.511610743193
 20
9.633216129791197
 30
0.0
 11
201.4800685043345
 21
10.11633731106935
 31
0.0
 12
201.511610743193
 22
10.09680718361543
 32
0.0
 13
201.511610743193
 23
10.09680718361543
 33
0.0
  0
SOLID
  5
1A2EB
  8
寸法線
  6
CONTINUOUS
 62
     0
 10
201.4800685043345
 20
11.39729214739843
 30
0.0
 11
201.4800685043345
 21
11.87084509512529
 31
0.0
 12
201.511610743193
 22
11.41682227485234
 32
0.0
 13
201.511610743193
 23
11.41682227485234
 33
0.0
  0
SOLID
  5
1A2EC
  8
寸法線
  6
CONTINUOUS
 62
     0
 10
201.511610743193
 20
11.41682227485234
 30
0.0
 11
201.4800685043345
 21
11.87084509512529
 31
0.0
 12
201.511610743193
 22
11.88041332867658
 32
0.0
 13
201.511610743193
 23
11.88041332867658
 33
0.0
  0
SOLID
  5
1A2ED
  8
寸法線
  6
CONTINUOUS
 62
     0
 10
201.4800685043345
 20
13.44870710935905
 30
0.0
 11
201.4800685043345
 21
13.83529932974883
 31
0.0
 12
201.511610743193
 22
13.46823723681296
 32
0.0
 13
201.511610743193
 23
13.46823723681296
 33
0.0
  0
SOLID
  5
1A2EE
  8
寸法線
  6
CONTINUOUS
 62
     0
 10
201.511610743193
 20
13.46823723681296
 30
0.0
 11
201.4800685043345
 21
13.83529932974883
 31
0.0
 12
201.511610743193
 22
13.8438906553287
 32
0.0
 13
201.511610743193
 23
13.8438906553287
 33
0.0
  0
SOLID
  5
1A2EF
  8
寸法線
  6
CONTINUOUS
 62
     0
 10
201.511610743193
 20
7.66973880313911
 30
0.0
 11
201.511610743193
 21
8.041578420184562
 31
0.0
 12
201.5722805472398
 22
7.653213849353488
 32
0.0
 13
201.5722805472398
 23
7.653213849353488
 33
0.0
  0
SOLID
  5
1A2F0
  8
寸法線
  6
CONTINUOUS
 62
     0
 10
201.5722805472398
 20
7.653213849353488
 30
0.0
 11
201.511610743193
 21
8.041578420184562
 31
0.0
 12
201.5722805472398
 22
8.009149734305597
 32
0.0
 13
201.5722805472398
 23
8.009149734305597
 33
0.0
  0
SOLID
  5
1A2F1
  8
寸法線
  6
CONTINUOUS
 62
     0
 10
201.511610743193
 20
9.633216129791197
 30
0.0
 11
201.511610743193
 21
10.09680718361543
 31
0.0
 12
201.5722805472398
 22
9.614812145938494
 32
0.0
 13
201.5722805472398
 23
9.614812145938494
 33
0.0
  0
SOLID
  5
1A2F2
  8
寸法線
  6
CONTINUOUS
 62
     0
 10
201.5722805472398
 20
9.614812145938494
 30
0.0
 11
201.511610743193
 21
10.09680718361543
 31
0.0
 12
201.5722805472398
 22
10.07330357631218
 32
0.0
 13
201.5722805472398
 23
10.07330357631218
 33
0.0
  0
SOLID
  5
1A2F3
  8
寸法線
  6
CONTINUOUS
 62
     0
 10
201.511610743193
 20
11.41682227485234
 30
0.0
 11
201.511610743193
 21
11.88041332867658
 31
0.0
 12
201.5722805472398
 22
11.4403258821556
 32
0.0
 13
201.5722805472398
 23
11.4403258821556
 33
0.0
  0
SOLID
  5
1A2F4
  8
寸法線
  6
CONTINUOUS
 62
     0
 10
201.5722805472398
 20
11.4403258821556
 30
0.0
 11
201.511610743193
 21
11.88041332867658
 31
0.0
 12
201.5722805472398
 22
11.89881731252928
 32
0.0
 13
201.5722805472398
 23
11.89881731252928
 33
0.0
  0
SOLID
  5
1A2F5
  8
寸法線
  6
CONTINUOUS
 62
     0
 10
201.511610743193
 20
13.46823723681296
 30
0.0
 11
201.511610743193
 21
13.8438906553287
 31
0.0
 12
201.5722805472398
 22
13.50580238908232
 32
0.0
 13
201.5722805472398
 23
13.50580238908232
 33
0.0
  0
SOLID
  5
1A2F6
  8
寸法線
  6
CONTINUOUS
 62
     0
 10
201.5722805472398
 20
13.50580238908232
 30
0.0
 11
201.511610743193
 21
13.8438906553287
 31
0.0
 12
201.5722805472398
 22
13.86041560911432
 32
0.0
 13
201.5722805472398
 23
13.86041560911432
 33
0.0
  0
SOLID
  5
1A2F7
  8
寸法線
  6
CONTINUOUS
 62
     0
 10
201.5722805472398
 20
7.653213849353488
 30
0.0
 11
201.5722805472398
 21
8.009149734305597
 31
0.0
 12
201.6107743219079
 22
7.643398324287742
 32
0.0
 13
201.6107743219079
 23
7.643398324287742
 33
0.0
  0
SOLID
  5
1A2F8
  8
寸法線
  6
CONTINUOUS
 62
     0
 10
201.6107743219079
 20
7.643398324287742
 30
0.0
 11
201.5722805472398
 21
8.009149734305597
 31
0.0
 12
201.6107743219079
 22
7.988574383080731
 32
0.0
 13
201.6107743219079
 23
7.988574383080731
 33
0.0
  0
SOLID
  5
1A2F9
  8
寸法線
  6
CONTINUOUS
 62
     0
 10
201.5722805472398
 20
9.614812145938494
 30
0.0
 11
201.5722805472398
 21
10.07330357631218
 31
0.0
 12
201.6107743219079
 22
9.603135187053406
 32
0.0
 13
201.6107743219079
 23
9.603135187053406
 33
0.0
  0
SOLID
  5
1A2FA
  8
寸法線
  6
CONTINUOUS
 62
     0
 10
201.6107743219079
 20
9.603135187053406
 30
0.0
 11
201.5722805472398
 21
10.07330357631218
 31
0.0
 12
201.6107743219079
 22
10.05839100855902
 32
0.0
 13
201.6107743219079
 23
10.05839100855902
 33
0.0
  0
SOLID
  5
1A2FB
  8
寸法線
  6
CONTINUOUS
 62
     0
 10
201.5722805472398
 20
11.4403258821556
 30
0.0
 11
201.5722805472398
 21
11.89881731252928
 31
0.0
 12
201.6107743219079
 22
11.45523844990875
 32
0.0
 13
201.6107743219079
 23
11.45523844990875
 33
0.0
  0
SOLID
  5
1A2FC
  8
寸法線
  6
CONTINUOUS
 62
     0
 10
201.6107743219079
 20
11.45523844990875
 30
0.0
 11
201.5722805472398
 21
11.89881731252928
 31
0.0
 12
201.6107743219079
 22
11.91049427141437
 32
0.0
 13
201.6107743219079
 23
11.91049427141437
 33
0.0
  0
SOLID
  5
1A2FD
  8
寸法線
  6
CONTINUOUS
 62
     0
 10
201.5722805472398
 20
13.50580238908232
 30
0.0
 11
201.5722805472398
 21
13.86041560911432
 31
0.0
 12
201.6107743219079
 22
13.52963672528214
 32
0.0
 13
201.6107743219079
 23
13.52963672528214
 33
0.0
  0
SOLID
  5
1A2FE
  8
寸法線
  6
CONTINUOUS
 62
     0
 10
201.6107743219079
 20
13.52963672528214
 30
0.0
 11
201.5722805472398
 21
13.86041560911432
 31
0.0
 12
201.6107743219079
 22
13.87023113418006
 32
0.0
 13
201.6107743219079
 23
13.87023113418006
 33
0.0
  0
SOLID
  5
1A2FF
  8
寸法線
  6
CONTINUOUS
 62
     0
 10
201.6107743219079
 20
7.643398324287742
 30
0.0
 11
201.6107743219079
 21
7.988574383080731
 31
0.0
 12
201.6384826121323
 22
7.6363329891895
 32
0.0
 13
201.6384826121323
 23
7.6363329891895
 33
0.0
  0
SOLID
  5
1A300
  8
寸法線
  6
CONTINUOUS
 62
     0
 10
201.6384826121323
 20
7.6363329891895
 30
0.0
 11
201.6107743219079
 21
7.988574383080731
 31
0.0
 12
201.6384826121323
 22
7.973763993397657
 32
0.0
 13
201.6384826121323
 23
7.973763993397657
 33
0.0
  0
SOLID
  5
1A301
  8
寸法線
  6
CONTINUOUS
 62
     0
 10
201.6107743219079
 20
9.603135187053406
 30
0.0
 11
201.6107743219079
 21
10.05839100855902
 31
0.0
 12
201.6384826121323
 22
9.600406158664581
 32
0.0
 13
201.6384826121323
 23
9.600406158664581
 33
0.0
  0
SOLID
  5
1A302
  8
寸法線
  6
CONTINUOUS
 62
     0
 10
201.6384826121323
 20
9.600406158664581
 30
0.0
 11
201.6107743219079
 21
10.05839100855902
 31
0.0
 12
201.6384826121323
 22
10.04765675973937
 32
0.0
 13
201.6384826121323
 23
10.04765675973937
 33
0.0
  0
SOLID
  5
1A303
  8
寸法線
  6
CONTINUOUS
 62
     0
 10
201.6107743219079
 20
11.45523844990875
 30
0.0
 11
201.6107743219079
 21
11.91049427141437
 31
0.0
 12
201.6384826121323
 22
11.46597269872841
 32
0.0
 13
201.6384826121323
 23
11.46597269872841
 33
0.0
  0
SOLID
  5
1A304
  8
寸法線
  6
CONTINUOUS
 62
     0
 10
201.6384826121323
 20
11.46597269872841
 30
0.0
 11
201.6107743219079
 21
11.91049427141437
 31
0.0
 12
201.6384826121323
 22
11.91322329980319
 32
0.0
 13
201.6384826121323
 23
11.91322329980319
 33
0.0
  0
SOLID
  5
1A305
  8
寸法線
  6
CONTINUOUS
 62
     0
 10
201.6107743219079
 20
13.52963672528214
 30
0.0
 11
201.6107743219079
 21
13.87023113418006
 31
0.0
 12
201.6384826121323
 22
13.54679297224477
 32
0.0
 13
201.6384826121323
 23
13.54679297224477
 33
0.0
  0
SOLID
  5
1A306
  8
寸法線
  6
CONTINUOUS
 62
     0
 10
201.6384826121323
 20
13.54679297224477
 30
0.0
 11
201.6107743219079
 21
13.87023113418006
 31
0.0
 12
201.6384826121323
 22
13.8772964692783
 32
0.0
 13
201.6384826121323
 23
13.8772964692783
 33
0.0
  0
SOLID
  5
1A307
  8
寸法線
  6
CONTINUOUS
 62
     0
 10
201.6384826121323
 20
7.6363329891895
 30
0.0
 11
201.6384826121323
 21
7.973763993397657
 31
0.0
 12
201.6652207164238
 22
7.629515041738332
 32
0.0
 13
201.6652207164238
 23
7.629515041738332
 33
0.0
  0
SOLID
  5
1A308
  8
寸法線
  6
CONTINUOUS
 62
     0
 10
201.6652207164238
 20
7.629515041738332
 30
0.0
 11
201.6384826121323
 21
7.973763993397657
 31
0.0
 12
201.6652207164238
 22
7.959472178899624
 32
0.0
 13
201.6652207164238
 23
7.959472178899624
 33
0.0
  0
SOLID
  5
1A309
  8
寸法線
  6
CONTINUOUS
 62
     0
 10
201.6384826121323
 20
9.600406158664581
 30
0.0
 11
201.6384826121323
 21
10.04765675973937
 31
0.0
 12
201.6652207164238
 22
9.597772685249799
 32
0.0
 13
201.6652207164238
 23
9.597772685249799
 33
0.0
  0
SOLID
  5
1A30A
  8
寸法線
  6
CONTINUOUS
 62
     0
 10
201.6652207164238
 20
9.597772685249799
 30
0.0
 11
201.6384826121323
 21
10.04765675973937
 31
0.0
 12
201.6652207164238
 22
10.04265854181003
 32
0.0
 13
201.6652207164238
 23
10.04265854181003
 33
0.0
  0
SOLID
  5
1A30B
  8
寸法線
  6
CONTINUOUS
 62
     0
 10
201.6384826121323
 20
11.46597269872841
 30
0.0
 11
201.6384826121323
 21
11.91322329980319
 31
0.0
 12
201.6652207164238
 22
11.47097091665774
 32
0.0
 13
201.6652207164238
 23
11.47097091665774
 33
0.0
  0
SOLID
  5
1A30C
  8
寸法線
  6
CONTINUOUS
 62
     0
 10
201.6652207164238
 20
11.47097091665774
 30
0.0
 11
201.6384826121323
 21
11.91322329980319
 31
0.0
 12
201.6652207164238
 22
11.91585677321798
 32
0.0
 13
201.6652207164238
 23
11.91585677321798
 33
0.0
  0
SOLID
  5
1A30D
  8
寸法線
  6
CONTINUOUS
 62
     0
 10
201.6384826121323
 20
13.54679297224477
 30
0.0
 11
201.6384826121323
 21
13.8772964692783
 31
0.0
 12
201.6652207164238
 22
13.56334850551022
 32
0.0
 13
201.6652207164238
 23
13.56334850551022
 33
0.0
  0
SOLID
  5
1A30E
  8
寸法線
  6
CONTINUOUS
 62
     0
 10
201.6652207164238
 20
13.56334850551022
 30
0.0
 11
201.6384826121323
 21
13.8772964692783
 31
0.0
 12
201.6652207164238
 22
13.88411441672947
 32
0.0
 13
201.6652207164238
 23
13.88411441672947
 33
0.0
  0
SOLID
  5
1A30F
  8
寸法線
  6
CONTINUOUS
 62
     0
 10
201.6652207164238
 20
7.629515041738332
 30
0.0
 11
201.6652207164238
 21
7.959472178899624
 31
0.0
 12
201.744581322403
 22
7.610637761793582
 32
0.0
 13
201.744581322403
 23
7.610637761793582
 33
0.0
  0
SOLID
  5
1A310
  8
寸法線
  6
CONTINUOUS
 62
     0
 10
201.744581322403
 20
7.610637761793582
 30
0.0
 11
201.6652207164238
 21
7.959472178899624
 31
0.0
 12
201.744581322403
 22
7.917053051247942
 32
0.0
 13
201.744581322403
 23
7.917053051247942
 33
0.0
  0
SOLID
  5
1A311
  8
寸法線
  6
CONTINUOUS
 62
     0
 10
201.6652207164238
 20
9.597772685249799
 30
0.0
 11
201.6652207164238
 21
10.04265854181003
 31
0.0
 12
201.744581322403
 22
9.589956347795633
 32
0.0
 13
201.744581322403
 23
9.589956347795633
 33
0.0
  0
SOLID
  5
1A312
  8
寸法線
  6
CONTINUOUS
 62
     0
 10
201.744581322403
 20
9.589956347795633
 30
0.0
 11
201.6652207164238
 21
10.04265854181003
 31
0.0
 12
201.744581322403
 22
10.0278234734984
 32
0.0
 13
201.744581322403
 23
10.0278234734984
 33
0.0
  0
SOLID
  5
1A313
  8
寸法線
  6
CONTINUOUS
 62
     0
 10
201.6652207164238
 20
11.47097091665774
 30
0.0
 11
201.6652207164238
 21
11.91585677321798
 31
0.0
 12
201.744581322403
 22
11.48580598496938
 32
0.0
 13
201.744581322403
 23
11.48580598496938
 33
0.0
  0
SOLID
  5
1A314
  8
寸法線
  6
CONTINUOUS
 62
     0
 10
201.744581322403
 20
11.48580598496938
 30
0.0
 11
201.6652207164238
 21
11.91585677321798
 31
0.0
 12
201.744581322403
 22
11.92367311067214
 32
0.0
 13
201.744581322403
 23
11.92367311067214
 33
0.0
  0
SOLID
  5
1A315
  8
寸法線
  6
CONTINUOUS
 62
     0
 10
201.6652207164238
 20
13.56334850551022
 30
0.0
 11
201.6652207164238
 21
13.88411441672947
 31
0.0
 12
201.744581322403
 22
13.612486512376
 32
0.0
 13
201.744581322403
 23
13.612486512376
 33
0.0
  0
SOLID
  5
1A316
  8
寸法線
  6
CONTINUOUS
 62
     0
 10
201.744581322403
 20
13.612486512376
 30
0.0
 11
201.6652207164238
 21
13.88411441672947
 31
0.0
 12
201.744581322403
 22
13.90299169667422
 32
0.0
 13
201.744581322403
 23
13.90299169667422
 33
0.0
  0
SOLID
  5
1A317
  8
寸法線
  6
CONTINUOUS
 62
     0
 10
201.744581322403
 20
7.610637761793582
 30
0.0
 11
201.744581322403
 21
7.917053051247942
 31
0.0
 12
201.7588465643974
 22
7.607244529555935
 32
0.0
 13
201.7588465643974
 23
7.607244529555935
 33
0.0
  0
SOLID
  5
1A318
  8
寸法線
  6
CONTINUOUS
 62
     0
 10
201.7588465643974
 20
7.607244529555935
 30
0.0
 11
201.744581322403
 21
7.917053051247942
 31
0.0
 12
201.7588465643974
 22
7.909428120544905
 32
0.0
 13
201.7588465643974
 23
7.909428120544905
 33
0.0
  0
SOLID
  5
1A319
  8
寸法線
  6
CONTINUOUS
 62
     0
 10
201.744581322403
 20
9.589956347795633
 30
0.0
 11
201.744581322403
 21
10.0278234734984
 31
0.0
 12
201.7588465643974
 22
9.588551344092377
 32
0.0
 13
201.7588465643974
 23
9.588551344092377
 33
0.0
  0
SOLID
  5
1A31A
  8
寸法線
  6
CONTINUOUS
 62
     0
 10
201.7588465643974
 20
9.588551344092377
 30
0.0
 11
201.744581322403
 21
10.0278234734984
 31
0.0
 12
201.7588465643974
 22
10.02515683761706
 32
0.0
 13
201.7588465643974
 23
10.02515683761706
 33
0.0
  0
SOLID
  5
1A31B
  8
寸法線
  6
CONTINUOUS
 62
     0
 10
201.744581322403
 20
11.48580598496938
 30
0.0
 11
201.744581322403
 21
11.92367311067214
 31
0.0
 12
201.7588465643974
 22
11.48847262085071
 32
0.0
 13
201.7588465643974
 23
11.48847262085071
 33
0.0
  0
SOLID
  5
1A31C
  8
寸法線
  6
CONTINUOUS
 62
     0
 10
201.7588465643974
 20
11.48847262085071
 30
0.0
 11
201.744581322403
 21
11.92367311067214
 31
0.0
 12
201.7588465643974
 22
11.9250781143754
 32
0.0
 13
201.7588465643974
 23
11.9250781143754
 33
0.0
  0
SOLID
  5
1A31D
  8
寸法線
  6
CONTINUOUS
 62
     0
 10
201.744581322403
 20
13.612486512376
 30
0.0
 11
201.744581322403
 21
13.90299169667422
 31
0.0
 12
201.7588465643974
 22
13.61801289656645
 32
0.0
 13
201.7588465643974
 23
13.61801289656645
 33
0.0
  0
SOLID
  5
1A31E
  8
寸法線
  6
CONTINUOUS
 62
     0
 10
201.7588465643974
 20
13.61801289656645
 30
0.0
 11
201.744581322403
 21
13.90299169667422
 31
0.0
 12
201.7588465643974
 22
13.90638492891187
 32
0.0
 13
201.7588465643974
 23
13.90638492891187
 33
0.0
  0
SOLID
  5
1A31F
  8
寸法線
  6
CONTINUOUS
 62
     0
 10
201.7588465643974
 20
7.607244529555935
 30
0.0
 11
201.7588465643974
 21
7.909428120544905
 31
0.0
 12
201.7722256130938
 22
7.60428795166385
 32
0.0
 13
201.7722256130938
 23
7.60428795166385
 33
0.0
  0
SOLID
  5
1A320
  8
寸法線
  6
CONTINUOUS
 62
     0
 10
201.7722256130938
 20
7.60428795166385
 30
0.0
 11
201.7588465643974
 21
7.909428120544905
 31
0.0
 12
201.7722256130938
 22
7.902276870028217
 32
0.0
 13
201.7722256130938
 23
7.902276870028217
 33
0.0
  0
SOLID
  5
1A321
  8
寸法線
  6
CONTINUOUS
 62
     0
 10
201.7588465643974
 20
9.588551344092377
 30
0.0
 11
201.7588465643974
 21
10.02515683761706
 31
0.0
 12
201.7722256130938
 22
9.587233622810677
 32
0.0
 13
201.7722256130938
 23
9.587233622810677
 33
0.0
  0
SOLID
  5
1A322
  8
寸法線
  6
CONTINUOUS
 62
     0
 10
201.7722256130938
 20
9.587233622810677
 30
0.0
 11
201.7588465643974
 21
10.02515683761706
 31
0.0
 12
201.7722256130938
 22
10.02265585997321
 32
0.0
 13
201.7722256130938
 23
10.02265585997321
 33
0.0
  0
SOLID
  5
1A323
  8
寸法線
  6
CONTINUOUS
 62
     0
 10
201.7588465643974
 20
11.48847262085071
 30
0.0
 11
201.7588465643974
 21
11.9250781143754
 31
0.0
 12
201.7722256130938
 22
11.49097359849457
 32
0.0
 13
201.7722256130938
 23
11.49097359849457
 33
0.0
  0
SOLID
  5
1A324
  8
寸法線
  6
CONTINUOUS
 62
     0
 10
201.7722256130938
 20
11.49097359849457
 30
0.0
 11
201.7588465643974
 21
11.9250781143754
 31
0.0
 12
201.7722256130938
 22
11.9263958356571
 32
0.0
 13
201.7722256130938
 23
11.9263958356571
 33
0.0
  0
SOLID
  5
1A325
  8
寸法線
  6
CONTINUOUS
 62
     0
 10
201.7588465643974
 20
13.61801289656645
 30
0.0
 11
201.7588465643974
 21
13.90638492891187
 31
0.0
 12
201.7722256130938
 22
13.62319596764429
 32
0.0
 13
201.7722256130938
 23
13.62319596764429
 33
0.0
  0
SOLID
  5
1A326
  8
寸法線
  6
CONTINUOUS
 62
     0
 10
201.7722256130938
 20
13.62319596764429
 30
0.0
 11
201.7588465643974
 21
13.90638492891187
 31
0.0
 12
201.7722256130938
 22
13.90934150680395
 32
0.0
 13
201.7722256130938
 23
13.90934150680395
 33
0.0
  0
SOLID
  5
1A327
  8
寸法線
  6
CONTINUOUS
 62
     0
 10
201.7722256130938
 20
7.60428795166385
 30
0.0
 11
201.7722256130938
 21
7.902276870028217
 31
0.0
 12
201.8402554508405
 22
7.589254333142295
 32
0.0
 13
201.8402554508405
 23
7.589254333142295
 33
0.0
  0
SOLID
  5
1A328
  8
寸法線
  6
CONTINUOUS
 62
     0
 10
201.8402554508405
 20
7.589254333142295
 30
0.0
 11
201.7722256130938
 21
7.902276870028217
 31
0.0
 12
201.8402554508405
 22
7.86591416417569
 32
0.0
 13
201.8402554508405
 23
7.86591416417569
 33
0.0
  0
SOLID
  5
1A329
  8
寸法線
  6
CONTINUOUS
 62
     0
 10
201.7722256130938
 20
9.587233622810677
 30
0.0
 11
201.7722256130938
 21
10.02265585997321
 31
0.0
 12
201.8402554508405
 22
9.580533268620847
 32
0.0
 13
201.8402554508405
 23
9.580533268620847
 33
0.0
  0
SOLID
  5
1A32A
  8
寸法線
  6
CONTINUOUS
 62
     0
 10
201.8402554508405
 20
9.580533268620847
 30
0.0
 11
201.7722256130938
 21
10.02265585997321
 31
0.0
 12
201.8402554508405
 22
10.02265585997321
 32
0.0
 13
201.8402554508405
 23
10.02265585997321
 33
0.0
  0
SOLID
  5
1A32B
  8
寸法線
  6
CONTINUOUS
 62
     0
 10
201.7722256130938
 20
11.49097359849457
 30
0.0
 11
201.7722256130938
 21
11.9263958356571
 31
0.0
 12
201.8402554508405
 22
11.49097359849457
 32
0.0
 13
201.8402554508405
 23
11.49097359849457
 33
0.0
  0
SOLID
  5
1A32C
  8
寸法線
  6
CONTINUOUS
 62
     0
 10
201.8402554508405
 20
11.49097359849457
 30
0.0
 11
201.7722256130938
 21
11.9263958356571
 31
0.0
 12
201.8402554508405
 22
11.93309618984693
 32
0.0
 13
201.8402554508405
 23
11.93309618984693
 33
0.0
  0
SOLID
  5
1A32D
  8
寸法線
  6
CONTINUOUS
 62
     0
 10
201.7722256130938
 20
13.62319596764429
 30
0.0
 11
201.7722256130938
 21
13.90934150680395
 31
0.0
 12
201.8402554508405
 22
13.64955086719315
 32
0.0
 13
201.8402554508405
 23
13.64955086719315
 33
0.0
  0
SOLID
  5
1A32E
  8
寸法線
  6
CONTINUOUS
 62
     0
 10
201.8402554508405
 20
13.64955086719315
 30
0.0
 11
201.7722256130938
 21
13.90934150680395
 31
0.0
 12
201.8402554508405
 22
13.92437512532551
 32
0.0
 13
201.8402554508405
 23
13.92437512532551
 33
0.0
  0
SOLID
  5
1A32F
  8
寸法線
  6
CONTINUOUS
 62
     0
 10
201.8402554508405
 20
7.589254333142295
 30
0.0
 11
201.8402554508405
 21
7.86591416417569
 31
0.0
 12
201.8531153305094
 22
7.586412484159866
 32
0.0
 13
201.8531153305094
 23
7.586412484159866
 33
0.0
  0
SOLID
  5
1A330
  8
寸法線
  6
CONTINUOUS
 62
     0
 10
201.8531153305094
 20
7.586412484159866
 30
0.0
 11
201.8402554508405
 21
7.86591416417569
 31
0.0
 12
201.8531153305094
 22
7.859040415285679
 32
0.0
 13
201.8531153305094
 23
7.859040415285679
 33
0.0
  0
SOLID
  5
1A331
  8
寸法線
  6
CONTINUOUS
 62
     0
 10
201.8402554508405
 20
9.580533268620847
 30
0.0
 11
201.8402554508405
 21
10.02265585997321
 31
0.0
 12
201.8531153305094
 22
9.58179985621644
 32
0.0
 13
201.8531153305094
 23
9.58179985621644
 33
0.0
  0
SOLID
  5
1A332
  8
寸法線
  6
CONTINUOUS
 62
     0
 10
201.8531153305094
 20
9.58179985621644
 30
0.0
 11
201.8402554508405
 21
10.02265585997321
 31
0.0
 12
201.8531153305094
 22
10.02265585997321
 32
0.0
 13
201.8531153305094
 23
10.02265585997321
 33
0.0
  0
SOLID
  5
1A333
  8
寸法線
  6
CONTINUOUS
 62
     0
 10
201.8402554508405
 20
11.49097359849457
 30
0.0
 11
201.8402554508405
 21
11.93309618984693
 31
0.0
 12
201.8531153305094
 22
11.49097359849457
 32
0.0
 13
201.8531153305094
 23
11.49097359849457
 33
0.0
  0
SOLID
  5
1A334
  8
寸法線
  6
CONTINUOUS
 62
     0
 10
201.8531153305094
 20
11.49097359849457
 30
0.0
 11
201.8402554508405
 21
11.93309618984693
 31
0.0
 12
201.8531153305094
 22
11.93182960225134
 32
0.0
 13
201.8531153305094
 23
11.93182960225134
 33
0.0
  0
SOLID
  5
1A335
  8
寸法線
  6
CONTINUOUS
 62
     0
 10
201.8402554508405
 20
13.64955086719315
 30
0.0
 11
201.8402554508405
 21
13.92437512532551
 31
0.0
 12
201.8531153305094
 22
13.65453281111819
 32
0.0
 13
201.8531153305094
 23
13.65453281111819
 33
0.0
  0
SOLID
  5
1A336
  8
寸法線
  6
CONTINUOUS
 62
     0
 10
201.8531153305094
 20
13.65453281111819
 30
0.0
 11
201.8402554508405
 21
13.92437512532551
 31
0.0
 12
201.8531153305094
 22
13.92721697430794
 32
0.0
 13
201.8531153305094
 23
13.92721697430794
 33
0.0
  0
SOLID
  5
1A337
  8
寸法線
  6
CONTINUOUS
 62
     0
 10
201.8531153305094
 20
7.586412484159866
 30
0.0
 11
201.8531153305094
 21
7.859040415285679
 31
0.0
 12
201.9082852885871
 22
7.575139864207987
 32
0.0
 13
201.9082852885871
 23
7.575139864207987
 33
0.0
  0
SOLID
  5
1A338
  8
寸法線
  6
CONTINUOUS
 62
     0
 10
201.9082852885871
 20
7.575139864207987
 30
0.0
 11
201.8531153305094
 21
7.859040415285679
 31
0.0
 12
201.9082852885871
 22
7.829551458323224
 32
0.0
 13
201.9082852885871
 23
7.829551458323224
 33
0.0
  0
SOLID
  5
1A339
  8
寸法線
  6
CONTINUOUS
 62
     0
 10
201.8531153305094
 20
9.58179985621644
 30
0.0
 11
201.8531153305094
 21
10.02265585997321
 31
0.0
 12
201.9082852885871
 22
9.587233622810666
 32
0.0
 13
201.9082852885871
 23
9.587233622810666
 33
0.0
  0
SOLID
  5
1A33A
  8
寸法線
  6
CONTINUOUS
 62
     0
 10
201.9082852885871
 20
9.587233622810666
 30
0.0
 11
201.8531153305094
 21
10.02265585997321
 31
0.0
 12
201.9082852885871
 22
10.02265585997321
 32
0.0
 13
201.9082852885871
 23
10.02265585997321
 33
0.0
  0
SOLID
  5
1A33B
  8
寸法線
  6
CONTINUOUS
 62
     0
 10
201.8531153305094
 20
11.49097359849457
 30
0.0
 11
201.8531153305094
 21
11.93182960225134
 31
0.0
 12
201.9082852885871
 22
11.49097359849457
 32
0.0
 13
201.9082852885871
 23
11.49097359849457
 33
0.0
  0
SOLID
  5
1A33C
  8
寸法線
  6
CONTINUOUS
 62
     0
 10
201.9082852885871
 20
11.49097359849457
 30
0.0
 11
201.8531153305094
 21
11.93182960225134
 31
0.0
 12
201.9082852885871
 22
11.92639583565711
 32
0.0
 13
201.9082852885871
 23
11.92639583565711
 33
0.0
  0
SOLID
  5
1A33D
  8
寸法線
  6
CONTINUOUS
 62
     0
 10
201.8531153305094
 20
13.65453281111819
 30
0.0
 11
201.8531153305094
 21
13.92721697430794
 31
0.0
 12
201.9082852885871
 22
13.67590576674196
 32
0.0
 13
201.9082852885871
 23
13.67590576674196
 33
0.0
  0
SOLID
  5
1A33E
  8
寸法線
  6
CONTINUOUS
 62
     0
 10
201.9082852885871
 20
13.67590576674196
 30
0.0
 11
201.8531153305094
 21
13.92721697430794
 31
0.0
 12
201.9082852885871
 22
13.93848959425981
 32
0.0
 13
201.9082852885871
 23
13.93848959425981
 33
0.0
  0
SOLID
  5
1A33F
  8
寸法線
  6
CONTINUOUS
 62
     0
 10
201.9082852885871
 20
7.575139864207987
 30
0.0
 11
201.9082852885871
 21
7.829551458323224
 31
0.0
 12
201.945733634292
 22
7.567488218572081
 32
0.0
 13
201.945733634292
 23
7.567488218572081
 33
0.0
  0
SOLID
  5
1A340
  8
寸法線
  6
CONTINUOUS
 62
     0
 10
201.945733634292
 20
7.567488218572081
 30
0.0
 11
201.9082852885871
 21
7.829551458323224
 31
0.0
 12
201.945733634292
 22
7.809534900521011
 32
0.0
 13
201.945733634292
 23
7.809534900521011
 33
0.0
  0
SOLID
  5
1A341
  8
寸法線
  6
CONTINUOUS
 62
     0
 10
201.9082852885871
 20
9.587233622810666
 30
0.0
 11
201.9082852885871
 21
10.02265585997321
 31
0.0
 12
201.945733634292
 22
9.590921962932548
 32
0.0
 13
201.945733634292
 23
9.590921962932548
 33
0.0
  0
SOLID
  5
1A342
  8
寸法線
  6
CONTINUOUS
 62
     0
 10
201.945733634292
 20
9.590921962932548
 30
0.0
 11
201.9082852885871
 21
10.02265585997321
 31
0.0
 12
201.945733634292
 22
10.02965616900356
 32
0.0
 13
201.945733634292
 23
10.02965616900356
 33
0.0
  0
SOLID
  5
1A343
  8
寸法線
  6
CONTINUOUS
 62
     0
 10
201.9082852885871
 20
11.49097359849457
 30
0.0
 11
201.9082852885871
 21
11.92639583565711
 31
0.0
 12
201.945733634292
 22
11.48397328946422
 32
0.0
 13
201.945733634292
 23
11.48397328946422
 33
0.0
  0
SOLID
  5
1A344
  8
寸法線
  6
CONTINUOUS
 62
     0
 10
201.945733634292
 20
11.48397328946422
 30
0.0
 11
201.9082852885871
 21
11.92639583565711
 31
0.0
 12
201.945733634292
 22
11.92270749553523
 32
0.0
 13
201.945733634292
 23
11.92270749553523
 33
0.0
  0
SOLID
  5
1A345
  8
寸法線
  6
CONTINUOUS
 62
     0
 10
201.9082852885871
 20
13.67590576674196
 30
0.0
 11
201.9082852885871
 21
13.93848959425981
 31
0.0
 12
201.945733634292
 22
13.69041333315714
 32
0.0
 13
201.945733634292
 23
13.69041333315714
 33
0.0
  0
SOLID
  5
1A346
  8
寸法線
  6
CONTINUOUS
 62
     0
 10
201.945733634292
 20
13.69041333315714
 30
0.0
 11
201.9082852885871
 21
13.93848959425981
 31
0.0
 12
201.945733634292
 22
13.94614123989572
 32
0.0
 13
201.945733634292
 23
13.94614123989572
 33
0.0
  0
SOLID
  5
1A347
  8
寸法線
  6
CONTINUOUS
 62
     0
 10
201.945733634292
 20
7.567488218572081
 30
0.0
 11
201.945733634292
 21
7.809534900521011
 31
0.0
 12
201.9479839604761
 22
7.567028419929388
 32
0.0
 13
201.9479839604761
 23
7.567028419929388
 33
0.0
  0
SOLID
  5
1A348
  8
寸法線
  6
CONTINUOUS
 62
     0
 10
201.9479839604761
 20
7.567028419929388
 30
0.0
 11
201.945733634292
 21
7.809534900521011
 31
0.0
 12
201.9479839604761
 22
7.808852271536018
 32
0.0
 13
201.9479839604761
 23
7.808852271536018
 33
0.0
  0
SOLID
  5
1A349
  8
寸法線
  6
CONTINUOUS
 62
     0
 10
201.945733634292
 20
9.590921962932548
 30
0.0
 11
201.945733634292
 21
10.02965616900356
 31
0.0
 12
201.9479839604761
 22
9.591143600716435
 32
0.0
 13
201.9479839604761
 23
9.591143600716435
 33
0.0
  0
SOLID
  5
1A34A
  8
寸法線
  6
CONTINUOUS
 62
     0
 10
201.9479839604761
 20
9.591143600716435
 30
0.0
 11
201.945733634292
 21
10.02965616900356
 31
0.0
 12
201.9479839604761
 22
10.03007682787143
 32
0.0
 13
201.9479839604761
 23
10.03007682787143
 33
0.0
  0
SOLID
  5
1A34B
  8
寸法線
  6
CONTINUOUS
 62
     0
 10
201.945733634292
 20
11.48397328946422
 30
0.0
 11
201.945733634292
 21
11.92270749553523
 31
0.0
 12
201.9479839604761
 22
11.48355263059634
 32
0.0
 13
201.9479839604761
 23
11.48355263059634
 33
0.0
  0
SOLID
  5
1A34C
  8
寸法線
  6
CONTINUOUS
 62
     0
 10
201.9479839604761
 20
11.48355263059634
 30
0.0
 11
201.945733634292
 21
11.92270749553523
 31
0.0
 12
201.9479839604761
 22
11.92248585775134
 32
0.0
 13
201.9479839604761
 23
11.92248585775134
 33
0.0
  0
SOLID
  5
1A34D
  8
寸法線
  6
CONTINUOUS
 62
     0
 10
201.945733634292
 20
13.69041333315714
 30
0.0
 11
201.945733634292
 21
13.94614123989572
 31
0.0
 12
201.9479839604761
 22
13.69128511416529
 32
0.0
 13
201.9479839604761
 23
13.69128511416529
 33
0.0
  0
SOLID
  5
1A34E
  8
寸法線
  6
CONTINUOUS
 62
     0
 10
201.9479839604761
 20
13.69128511416529
 30
0.0
 11
201.945733634292
 21
13.94614123989572
 31
0.0
 12
201.9479839604761
 22
13.94660103853841
 32
0.0
 13
201.9479839604761
 23
13.94660103853841
 33
0.0
  0
SOLID
  5
1A34F
  8
寸法線
  6
CONTINUOUS
 62
     0
 10
201.9479839604761
 20
7.567028419929388
 30
0.0
 11
201.9479839604761
 21
7.808852271536018
 31
0.0
 12
202.0420282895487
 22
7.549360603395562
 32
0.0
 13
202.0420282895487
 23
7.549360603395562
 33
0.0
  0
SOLID
  5
1A350
  8
寸法線
  6
CONTINUOUS
 62
     0
 10
202.0420282895487
 20
7.549360603395562
 30
0.0
 11
201.9479839604761
 21
7.808852271536018
 31
0.0
 12
202.0420282895487
 22
7.780324236199793
 32
0.0
 13
202.0420282895487
 23
7.780324236199793
 33
0.0
  0
SOLID
  5
1A351
  8
寸法線
  6
CONTINUOUS
 62
     0
 10
201.9479839604761
 20
9.591143600716435
 30
0.0
 11
201.9479839604761
 21
10.03007682787143
 31
0.0
 12
202.0420282895487
 22
9.60040615866457
 32
0.0
 13
202.0420282895487
 23
9.60040615866457
 33
0.0
  0
SOLID
  5
1A352
  8
寸法線
  6
CONTINUOUS
 62
     0
 10
202.0420282895487
 20
9.60040615866457
 30
0.0
 11
201.9479839604761
 21
10.03007682787143
 31
0.0
 12
202.0420282895487
 22
10.04765675973937
 32
0.0
 13
202.0420282895487
 23
10.04765675973937
 33
0.0
  0
SOLID
  5
1A353
  8
寸法線
  6
CONTINUOUS
 62
     0
 10
201.9479839604761
 20
11.48355263059634
 30
0.0
 11
201.9479839604761
 21
11.92248585775134
 31
0.0
 12
202.0420282895487
 22
11.46597269872841
 32
0.0
 13
202.0420282895487
 23
11.46597269872841
 33
0.0
  0
SOLID
  5
1A354
  8
寸法線
  6
CONTINUOUS
 62
     0
 10
202.0420282895487
 20
11.46597269872841
 30
0.0
 11
201.9479839604761
 21
11.92248585775134
 31
0.0
 12
202.0420282895487
 22
11.9132232998032
 32
0.0
 13
202.0420282895487
 23
11.9132232998032
 33
0.0
  0
SOLID
  5
1A355
  8
寸法線
  6
CONTINUOUS
 62
     0
 10
201.9479839604761
 20
13.69128511416529
 30
0.0
 11
201.9479839604761
 21
13.94660103853842
 31
0.0
 12
202.0420282895487
 22
13.72771808134471
 32
0.0
 13
202.0420282895487
 23
13.72771808134471
 33
0.0
  0
SOLID
  5
1A356
  8
寸法線
  6
CONTINUOUS
 62
     0
 10
202.0420282895487
 20
13.72771808134471
 30
0.0
 11
201.9479839604761
 21
13.94660103853842
 31
0.0
 12
202.0420282895487
 22
13.96426885507224
 32
0.0
 13
202.0420282895487
 23
13.96426885507224
 33
0.0
  0
SOLID
  5
1A357
  8
寸法線
  6
CONTINUOUS
 62
     0
 10
202.0420282895487
 20
7.549360603395562
 30
0.0
 11
202.0420282895487
 21
7.780324236199793
 31
0.0
 12
202.0434091260449
 22
7.549101189924063
 32
0.0
 13
202.0434091260449
 23
7.549101189924063
 33
0.0
  0
SOLID
  5
1A358
  8
寸法線
  6
CONTINUOUS
 62
     0
 10
202.0434091260449
 20
7.549101189924063
 30
0.0
 11
202.0420282895487
 21
7.780324236199793
 31
0.0
 12
202.0434091260449
 22
7.779905364028042
 32
0.0
 13
202.0434091260449
 23
7.779905364028042
 33
0.0
  0
SOLID
  5
1A359
  8
寸法線
  6
CONTINUOUS
 62
     0
 10
202.0420282895487
 20
9.60040615866457
 30
0.0
 11
202.0420282895487
 21
10.04765675973937
 31
0.0
 12
202.0434091260449
 22
9.600542159188896
 32
0.0
 13
202.0434091260449
 23
9.600542159188896
 33
0.0
  0
SOLID
  5
1A35A
  8
寸法線
  6
CONTINUOUS
 62
     0
 10
202.0434091260449
 20
9.600542159188896
 30
0.0
 11
202.0420282895487
 21
10.04765675973937
 31
0.0
 12
202.0434091260449
 22
10.04819169864792
 32
0.0
 13
202.0434091260449
 23
10.04819169864792
 33
0.0
  0
SOLID
  5
1A35B
  8
寸法線
  6
CONTINUOUS
 62
     0
 10
202.0420282895487
 20
11.46597269872841
 30
0.0
 11
202.0420282895487
 21
11.9132232998032
 31
0.0
 12
202.0434091260449
 22
11.46543775981986
 32
0.0
 13
202.0434091260449
 23
11.46543775981986
 33
0.0
  0
SOLID
  5
1A35C
  8
寸法線
  6
CONTINUOUS
 62
     0
 10
202.0434091260449
 20
11.46543775981986
 30
0.0
 11
202.0420282895487
 21
11.9132232998032
 31
0.0
 12
202.0434091260449
 22
11.91308729927888
 32
0.0
 13
202.0434091260449
 23
11.91308729927888
 33
0.0
  0
SOLID
  5
1A35D
  8
寸法線
  6
CONTINUOUS
 62
     0
 10
202.0420282895487
 20
13.72771808134471
 30
0.0
 11
202.0420282895487
 21
13.96426885507224
 31
0.0
 12
202.0434091260449
 22
13.72825302025326
 32
0.0
 13
202.0434091260449
 23
13.72825302025326
 33
0.0
  0
SOLID
  5
1A35E
  8
寸法線
  6
CONTINUOUS
 62
     0
 10
202.0434091260449
 20
13.72825302025326
 30
0.0
 11
202.0420282895487
 21
13.96426885507224
 31
0.0
 12
202.0434091260449
 22
13.96452826854374
 32
0.0
 13
202.0434091260449
 23
13.96452826854374
 33
0.0
  0
SOLID
  5
1A35F
  8
寸法線
  6
CONTINUOUS
 62
     0
 10
202.0434091260449
 20
7.549101189924063
 30
0.0
 11
202.0434091260449
 21
7.779905364028042
 31
0.0
 12
202.0697365797731
 22
7.54458361101709
 32
0.0
 13
202.0697365797731
 23
7.54458361101709
 33
0.0
  0
SOLID
  5
1A360
  8
寸法線
  6
CONTINUOUS
 62
     0
 10
202.0697365797731
 20
7.54458361101709
 30
0.0
 11
202.0434091260449
 21
7.779905364028042
 31
0.0
 12
202.0697365797731
 22
7.771919018251771
 32
0.0
 13
202.0697365797731
 23
7.771919018251771
 33
0.0
  0
SOLID
  5
1A361
  8
寸法線
  6
CONTINUOUS
 62
     0
 10
202.0434091260449
 20
9.600542159188896
 30
0.0
 11
202.0434091260449
 21
10.04819169864792
 31
0.0
 12
202.0697365797731
 22
9.603135187053406
 32
0.0
 13
202.0697365797731
 23
9.603135187053406
 33
0.0
  0
SOLID
  5
1A362
  8
寸法線
  6
CONTINUOUS
 62
     0
 10
202.0697365797731
 20
9.603135187053406
 30
0.0
 11
202.0434091260449
 21
10.04819169864792
 31
0.0
 12
202.0697365797731
 22
10.05839100855907
 32
0.0
 13
202.0697365797731
 23
10.05839100855907
 33
0.0
  0
SOLID
  5
1A363
  8
寸法線
  6
CONTINUOUS
 62
     0
 10
202.0434091260449
 20
11.46543775981986
 30
0.0
 11
202.0434091260449
 21
11.91308729927888
 31
0.0
 12
202.0697365797731
 22
11.45523844990871
 32
0.0
 13
202.0697365797731
 23
11.45523844990871
 33
0.0
  0
SOLID
  5
1A364
  8
寸法線
  6
CONTINUOUS
 62
     0
 10
202.0697365797731
 20
11.45523844990871
 30
0.0
 11
202.0434091260449
 21
11.91308729927888
 31
0.0
 12
202.0697365797731
 22
11.91049427141437
 32
0.0
 13
202.0697365797731
 23
11.91049427141437
 33
0.0
  0
SOLID
  5
1A365
  8
寸法線
  6
CONTINUOUS
 62
     0
 10
202.0434091260449
 20
13.72825302025326
 30
0.0
 11
202.0434091260449
 21
13.96452826854374
 31
0.0
 12
202.0697365797731
 22
13.73845233016441
 32
0.0
 13
202.0697365797731
 23
13.73845233016441
 33
0.0
  0
SOLID
  5
1A366
  8
寸法線
  6
CONTINUOUS
 62
     0
 10
202.0697365797731
 20
13.73845233016441
 30
0.0
 11
202.0434091260449
 21
13.96452826854374
 31
0.0
 12
202.0697365797731
 22
13.96904584745071
 32
0.0
 13
202.0697365797731
 23
13.96904584745071
 33
0.0
  0
SOLID
  5
1A367
  8
寸法線
  6
CONTINUOUS
 62
     0
 10
202.0697365797731
 20
7.54458361101709
 30
0.0
 11
202.0697365797731
 21
7.771919018251771
 31
0.0
 12
202.1393472447831
 22
7.532638981840403
 32
0.0
 13
202.1393472447831
 23
7.532638981840403
 33
0.0
  0
SOLID
  5
1A368
  8
寸法線
  6
CONTINUOUS
 62
     0
 10
202.1393472447831
 20
7.532638981840403
 30
0.0
 11
202.0697365797731
 21
7.771919018251771
 31
0.0
 12
202.1393472447831
 22
7.750802853877286
 32
0.0
 13
202.1393472447831
 23
7.750802853877286
 33
0.0
  0
SOLID
  5
1A369
  8
寸法線
  6
CONTINUOUS
 62
     0
 10
202.0697365797731
 20
9.603135187053406
 30
0.0
 11
202.0697365797731
 21
10.05839100855907
 31
0.0
 12
202.1393472447831
 22
9.624251351427892
 32
0.0
 13
202.1393472447831
 23
9.624251351427892
 33
0.0
  0
SOLID
  5
1A36A
  8
寸法線
  6
CONTINUOUS
 62
     0
 10
202.1393472447831
 20
9.624251351427892
 30
0.0
 11
202.0697365797731
 21
10.05839100855907
 31
0.0
 12
202.1393472447831
 22
10.08535832385238
 32
0.0
 13
202.1393472447831
 23
10.08535832385238
 33
0.0
  0
SOLID
  5
1A36B
  8
寸法線
  6
CONTINUOUS
 62
     0
 10
202.0697365797731
 20
11.45523844990871
 30
0.0
 11
202.0697365797731
 21
11.91049427141437
 31
0.0
 12
202.1393472447831
 22
11.42827113461539
 32
0.0
 13
202.1393472447831
 23
11.42827113461539
 33
0.0
  0
SOLID
  5
1A36C
  8
寸法線
  6
CONTINUOUS
 62
     0
 10
202.1393472447831
 20
11.42827113461539
 30
0.0
 11
202.0697365797731
 21
11.91049427141437
 31
0.0
 12
202.1393472447831
 22
11.88937810703988
 32
0.0
 13
202.1393472447831
 23
11.88937810703988
 33
0.0
  0
SOLID
  5
1A36D
  8
寸法線
  6
CONTINUOUS
 62
     0
 10
202.0697365797731
 20
13.73845233016441
 30
0.0
 11
202.0697365797731
 21
13.96904584745071
 31
0.0
 12
202.1393472447831
 22
13.76541964545773
 32
0.0
 13
202.1393472447831
 23
13.76541964545773
 33
0.0
  0
SOLID
  5
1A36E
  8
寸法線
  6
CONTINUOUS
 62
     0
 10
202.1393472447831
 20
13.76541964545773
 30
0.0
 11
202.0697365797731
 21
13.96904584745071
 31
0.0
 12
202.1393472447831
 22
13.9809904766274
 32
0.0
 13
202.1393472447831
 23
13.9809904766274
 33
0.0
  0
SOLID
  5
1A36F
  8
寸法線
  6
CONTINUOUS
 62
     0
 10
202.1393472447831
 20
7.532638981840403
 30
0.0
 11
202.1393472447831
 21
7.750802853877286
 31
0.0
 12
202.1689001584879
 22
7.528044012808428
 32
0.0
 13
202.1689001584879
 23
7.528044012808428
 33
0.0
  0
SOLID
  5
1A370
  8
寸法線
  6
CONTINUOUS
 62
     0
 10
202.1689001584879
 20
7.528044012808428
 30
0.0
 11
202.1393472447831
 21
7.750802853877286
 31
0.0
 12
202.1689001584879
 22
7.741838075514017
 32
0.0
 13
202.1689001584879
 23
7.741838075514017
 33
0.0
  0
SOLID
  5
1A371
  8
寸法線
  6
CONTINUOUS
 62
     0
 10
202.1393472447831
 20
9.624251351427892
 30
0.0
 11
202.1393472447831
 21
10.08535832385238
 31
0.0
 12
202.1689001584879
 22
9.633216129791162
 32
0.0
 13
202.1689001584879
 23
9.633216129791162
 33
0.0
  0
SOLID
  5
1A372
  8
寸法線
  6
CONTINUOUS
 62
     0
 10
202.1689001584879
 20
9.633216129791162
 30
0.0
 11
202.1393472447831
 21
10.08535832385238
 31
0.0
 12
202.1689001584879
 22
10.09680718361543
 32
0.0
 13
202.1689001584879
 23
10.09680718361543
 33
0.0
  0
SOLID
  5
1A373
  8
寸法線
  6
CONTINUOUS
 62
     0
 10
202.1393472447831
 20
11.42827113461539
 30
0.0
 11
202.1393472447831
 21
11.88937810703988
 31
0.0
 12
202.1689001584879
 22
11.41682227485234
 32
0.0
 13
202.1689001584879
 23
11.41682227485234
 33
0.0
  0
SOLID
  5
1A374
  8
寸法線
  6
CONTINUOUS
 62
     0
 10
202.1689001584879
 20
11.41682227485234
 30
0.0
 11
202.1393472447831
 21
11.88937810703988
 31
0.0
 12
202.1689001584879
 22
11.88041332867661
 32
0.0
 13
202.1689001584879
 23
11.88041332867661
 33
0.0
  0
SOLID
  5
1A375
  8
寸法線
  6
CONTINUOUS
 62
     0
 10
202.1393472447831
 20
13.76541964545773
 30
0.0
 11
202.1393472447831
 21
13.9809904766274
 31
0.0
 12
202.1689001584879
 22
13.77686850522078
 32
0.0
 13
202.1689001584879
 23
13.77686850522078
 33
0.0
  0
SOLID
  5
1A376
  8
寸法線
  6
CONTINUOUS
 62
     0
 10
202.1689001584879
 20
13.77686850522078
 30
0.0
 11
202.1393472447831
 21
13.9809904766274
 31
0.0
 12
202.1689001584879
 22
13.98558544565937
 32
0.0
 13
202.1689001584879
 23
13.98558544565937
 33
0.0
  0
SOLID
  5
1A377
  8
寸法線
  6
CONTINUOUS
 62
     0
 10
202.1689001584879
 20
7.528044012808428
 30
0.0
 11
202.1689001584879
 21
7.741838075514017
 31
0.0
 12
202.2357544999828
 22
7.517649314272393
 32
0.0
 13
202.2357544999828
 23
7.517649314272393
 33
0.0
  0
SOLID
  5
1A378
  8
寸法線
  6
CONTINUOUS
 62
     0
 10
202.2357544999828
 20
7.517649314272393
 30
0.0
 11
202.1689001584879
 21
7.741838075514017
 31
0.0
 12
202.2357544999828
 22
7.721558032736773
 32
0.0
 13
202.2357544999828
 23
7.721558032736773
 33
0.0
  0
SOLID
  5
1A379
  8
寸法線
  6
CONTINUOUS
 62
     0
 10
202.1689001584879
 20
9.633216129791162
 30
0.0
 11
202.1689001584879
 21
10.09680718361543
 31
0.0
 12
202.2357544999828
 22
9.653496172568408
 32
0.0
 13
202.2357544999828
 23
9.653496172568408
 33
0.0
  0
SOLID
  5
1A37A
  8
寸法線
  6
CONTINUOUS
 62
     0
 10
202.2357544999828
 20
9.653496172568408
 30
0.0
 11
202.1689001584879
 21
10.09680718361543
 31
0.0
 12
202.2357544999828
 22
10.13820163935141
 32
0.0
 13
202.2357544999828
 23
10.13820163935141
 33
0.0
  0
SOLID
  5
1A37B
  8
寸法線
  6
CONTINUOUS
 62
     0
 10
202.1689001584879
 20
11.41682227485234
 30
0.0
 11
202.1689001584879
 21
11.88041332867661
 31
0.0
 12
202.2357544999828
 22
11.37542781911637
 32
0.0
 13
202.2357544999828
 23
11.37542781911637
 33
0.0
  0
SOLID
  5
1A37C
  8
寸法線
  6
CONTINUOUS
 62
     0
 10
202.2357544999828
 20
11.37542781911637
 30
0.0
 11
202.1689001584879
 21
11.88041332867661
 31
0.0
 12
202.2357544999828
 22
11.86013328589937
 32
0.0
 13
202.2357544999828
 23
11.86013328589937
 33
0.0
  0
SOLID
  5
1A37D
  8
寸法線
  6
CONTINUOUS
 62
     0
 10
202.1689001584879
 20
13.77686850522078
 30
0.0
 11
202.1689001584879
 21
13.98558544565937
 31
0.0
 12
202.2357544999828
 22
13.80276801509562
 32
0.0
 13
202.2357544999828
 23
13.80276801509562
 33
0.0
  0
SOLID
  5
1A37E
  8
寸法線
  6
CONTINUOUS
 62
     0
 10
202.2357544999828
 20
13.80276801509562
 30
0.0
 11
202.1689001584879
 21
13.98558544565937
 31
0.0
 12
202.2357544999828
 22
13.99598014419541
 32
0.0
 13
202.2357544999828
 23
13.99598014419541
 33
0.0
  0
SOLID
  5
1A37F
  8
寸法線
  6
CONTINUOUS
 62
     0
 10
202.2357544999828
 20
7.517649314272393
 30
0.0
 11
202.2357544999828
 21
7.721558032736773
 31
0.0
 12
202.284580426074
 22
7.51083700507512
 32
0.0
 13
202.284580426074
 23
7.51083700507512
 33
0.0
  0
SOLID
  5
1A380
  8
寸法線
  6
CONTINUOUS
 62
     0
 10
202.284580426074
 20
7.51083700507512
 30
0.0
 11
202.2357544999828
 21
7.721558032736773
 31
0.0
 12
202.284580426074
 22
7.706746849982947
 32
0.0
 13
202.284580426074
 23
7.706746849982947
 33
0.0
  0
SOLID
  5
1A381
  8
寸法線
  6
CONTINUOUS
 62
     0
 10
202.2357544999828
 20
9.653496172568408
 30
0.0
 11
202.2357544999828
 21
10.13820163935141
 31
0.0
 12
202.284580426074
 22
9.668307355322234
 32
0.0
 13
202.284580426074
 23
9.668307355322234
 33
0.0
  0
SOLID
  5
1A382
  8
寸法線
  6
CONTINUOUS
 62
     0
 10
202.284580426074
 20
9.668307355322234
 30
0.0
 11
202.2357544999828
 21
10.13820163935141
 31
0.0
 12
202.284580426074
 22
10.16843337286573
 32
0.0
 13
202.284580426074
 23
10.16843337286573
 33
0.0
  0
SOLID
  5
1A383
  8
寸法線
  6
CONTINUOUS
 62
     0
 10
202.2357544999828
 20
11.37542781911637
 30
0.0
 11
202.2357544999828
 21
11.86013328589937
 31
0.0
 12
202.284580426074
 22
11.34519608560205
 32
0.0
 13
202.284580426074
 23
11.34519608560205
 33
0.0
  0
SOLID
  5
1A384
  8
寸法線
  6
CONTINUOUS
 62
     0
 10
202.284580426074
 20
11.34519608560205
 30
0.0
 11
202.2357544999828
 21
11.86013328589937
 31
0.0
 12
202.284580426074
 22
11.84532210314554
 32
0.0
 13
202.284580426074
 23
11.84532210314554
 33
0.0
  0
SOLID
  5
1A385
  8
寸法線
  6
CONTINUOUS
 62
     0
 10
202.2357544999828
 20
13.80276801509562
 30
0.0
 11
202.2357544999828
 21
13.99598014419541
 31
0.0
 12
202.284580426074
 22
13.82168327963448
 32
0.0
 13
202.284580426074
 23
13.82168327963448
 33
0.0
  0
SOLID
  5
1A386
  8
寸法線
  6
CONTINUOUS
 62
     0
 10
202.284580426074
 20
13.82168327963448
 30
0.0
 11
202.2357544999828
 21
13.99598014419541
 31
0.0
 12
202.284580426074
 22
14.00279245339268
 32
0.0
 13
202.284580426074
 23
14.00279245339268
 33
0.0
  0
SOLID
  5
1A387
  8
寸法線
  6
CONTINUOUS
 62
     0
 10
202.284580426074
 20
7.51083700507512
 30
0.0
 11
202.284580426074
 21
7.706746849982947
 31
0.0
 12
202.2903988776153
 22
7.510025200893984
 32
0.0
 13
202.2903988776153
 23
7.510025200893984
 33
0.0
  0
SOLID
  5
1A388
  8
寸法線
  6
CONTINUOUS
 62
     0
 10
202.2903988776153
 20
7.510025200893984
 30
0.0
 11
202.284580426074
 21
7.706746849982947
 31
0.0
 12
202.2903988776153
 22
7.704981842004163
 32
0.0
 13
202.2903988776153
 23
7.704981842004163
 33
0.0
  0
SOLID
  5
1A389
  8
寸法線
  6
CONTINUOUS
 62
     0
 10
202.284580426074
 20
9.668307355322234
 30
0.0
 11
202.284580426074
 21
10.16843337286573
 31
0.0
 12
202.2903988776153
 22
9.670072363301019
 32
0.0
 13
202.2903988776153
 23
9.670072363301019
 33
0.0
  0
SOLID
  5
1A38A
  8
寸法線
  6
CONTINUOUS
 62
     0
 10
202.2903988776153
 20
9.670072363301019
 30
0.0
 11
202.284580426074
 21
10.16843337286573
 31
0.0
 12
202.2903988776153
 22
10.17373759229367
 32
0.0
 13
202.2903988776153
 23
10.17373759229367
 33
0.0
  0
SOLID
  5
1A38B
  8
寸法線
  6
CONTINUOUS
 62
     0
 10
202.284580426074
 20
11.34519608560205
 30
0.0
 11
202.284580426074
 21
11.84532210314554
 31
0.0
 12
202.2903988776153
 22
11.3398918661741
 32
0.0
 13
202.2903988776153
 23
11.3398918661741
 33
0.0
  0
SOLID
  5
1A38C
  8
寸法線
  6
CONTINUOUS
 62
     0
 10
202.2903988776153
 20
11.3398918661741
 30
0.0
 11
202.284580426074
 21
11.84532210314554
 31
0.0
 12
202.2903988776153
 22
11.84355709516676
 32
0.0
 13
202.2903988776153
 23
11.84355709516676
 33
0.0
  0
SOLID
  5
1A38D
  8
寸法線
  6
CONTINUOUS
 62
     0
 10
202.284580426074
 20
13.82168327963448
 30
0.0
 11
202.284580426074
 21
14.00279245339268
 31
0.0
 12
202.2903988776153
 22
13.8239373597702
 32
0.0
 13
202.2903988776153
 23
13.8239373597702
 33
0.0
  0
SOLID
  5
1A38E
  8
寸法線
  6
CONTINUOUS
 62
     0
 10
202.2903988776153
 20
13.8239373597702
 30
0.0
 11
202.284580426074
 21
14.00279245339268
 31
0.0
 12
202.2903988776153
 22
14.00360425757382
 32
0.0
 13
202.2903988776153
 23
14.00360425757382
 33
0.0
  0
SOLID
  5
1A38F
  8
寸法線
  6
CONTINUOUS
 62
     0
 10
202.2903988776153
 20
7.510025200893984
 30
0.0
 11
202.2903988776153
 21
7.704981842004163
 31
0.0
 12
202.2935211316664
 22
7.509589576591669
 32
0.0
 13
202.2935211316664
 23
7.509589576591669
 33
0.0
  0
SOLID
  5
1A390
  8
寸法線
  6
CONTINUOUS
 62
     0
 10
202.2935211316664
 20
7.509589576591669
 30
0.0
 11
202.2903988776153
 21
7.704981842004163
 31
0.0
 12
202.2935211316664
 22
7.704034716592389
 32
0.0
 13
202.2935211316664
 23
7.704034716592389
 33
0.0
  0
SOLID
  5
1A391
  8
寸法線
  6
CONTINUOUS
 62
     0
 10
202.2903988776153
 20
9.670072363301019
 30
0.0
 11
202.2903988776153
 21
10.17373759229367
 31
0.0
 12
202.2935211316664
 22
9.671741242860588
 32
0.0
 13
202.2935211316664
 23
9.671741242860588
 33
0.0
  0
SOLID
  5
1A392
  8
寸法線
  6
CONTINUOUS
 62
     0
 10
202.2935211316664
 20
9.671741242860588
 30
0.0
 11
202.2903988776153
 21
10.17373759229367
 31
0.0
 12
202.2935211316664
 22
10.17658390294508
 32
0.0
 13
202.2935211316664
 23
10.17658390294508
 33
0.0
  0
SOLID
  5
1A393
  8
寸法線
  6
CONTINUOUS
 62
     0
 10
202.2903988776153
 20
11.3398918661741
 30
0.0
 11
202.2903988776153
 21
11.84355709516676
 31
0.0
 12
202.2935211316664
 22
11.3370455555227
 32
0.0
 13
202.2935211316664
 23
11.3370455555227
 33
0.0
  0
SOLID
  5
1A394
  8
寸法線
  6
CONTINUOUS
 62
     0
 10
202.2935211316664
 20
11.3370455555227
 30
0.0
 11
202.2903988776153
 21
11.84355709516676
 31
0.0
 12
202.2935211316664
 22
11.84188821560719
 32
0.0
 13
202.2935211316664
 23
11.84188821560719
 33
0.0
  0
SOLID
  5
1A395
  8
寸法線
  6
CONTINUOUS
 62
     0
 10
202.2903988776153
 20
13.8239373597702
 30
0.0
 11
202.2903988776153
 21
14.00360425757382
 31
0.0
 12
202.2935211316664
 22
13.82514692743356
 32
0.0
 13
202.2935211316664
 23
13.82514692743356
 33
0.0
  0
SOLID
  5
1A396
  8
寸法線
  6
CONTINUOUS
 62
     0
 10
202.2935211316664
 20
13.82514692743356
 30
0.0
 11
202.2903988776153
 21
14.00360425757382
 31
0.0
 12
202.2935211316664
 22
14.00403988187614
 32
0.0
 13
202.2935211316664
 23
14.00403988187614
 33
0.0
  0
SOLID
  5
1A397
  8
寸法線
  6
CONTINUOUS
 62
     0
 10
202.2935211316664
 20
7.509589576591669
 30
0.0
 11
202.2935211316664
 21
7.704034716592389
 31
0.0
 12
202.3325868606729
 22
7.504139033277611
 32
0.0
 13
202.3325868606729
 23
7.504139033277611
 33
0.0
  0
SOLID
  5
1A398
  8
寸法線
  6
CONTINUOUS
 62
     0
 10
202.3325868606729
 20
7.504139033277611
 30
0.0
 11
202.2935211316664
 21
7.704034716592389
 31
0.0
 12
202.3325868606729
 22
7.692184257255566
 32
0.0
 13
202.3325868606729
 23
7.692184257255566
 33
0.0
  0
SOLID
  5
1A399
  8
寸法線
  6
CONTINUOUS
 62
     0
 10
202.2935211316664
 20
9.671741242860588
 30
0.0
 11
202.2935211316664
 21
10.17658390294508
 31
0.0
 12
202.3325868606729
 22
9.692622310048597
 32
0.0
 13
202.3325868606729
 23
9.692622310048597
 33
0.0
  0
SOLID
  5
1A39A
  8
寸法線
  6
CONTINUOUS
 62
     0
 10
202.3325868606729
 20
9.692622310048597
 30
0.0
 11
202.2935211316664
 21
10.17658390294508
 31
0.0
 12
202.3325868606729
 22
10.21219702050601
 32
0.0
 13
202.3325868606729
 23
10.21219702050601
 33
0.0
  0
SOLID
  5
1A39B
  8
寸法線
  6
CONTINUOUS
 62
     0
 10
202.2935211316664
 20
11.3370455555227
 30
0.0
 11
202.2935211316664
 21
11.84188821560719
 31
0.0
 12
202.3325868606729
 22
11.30143243796176
 32
0.0
 13
202.3325868606729
 23
11.30143243796176
 33
0.0
  0
SOLID
  5
1A39C
  8
寸法線
  6
CONTINUOUS
 62
     0
 10
202.3325868606729
 20
11.30143243796176
 30
0.0
 11
202.2935211316664
 21
11.84188821560719
 31
0.0
 12
202.3325868606729
 22
11.82100714841918
 32
0.0
 13
202.3325868606729
 23
11.82100714841918
 33
0.0
  0
SOLID
  5
1A39D
  8
寸法線
  6
CONTINUOUS
 62
     0
 10
202.2935211316664
 20
13.82514692743356
 30
0.0
 11
202.2935211316664
 21
14.00403988187614
 31
0.0
 12
202.3325868606729
 22
13.83244957780152
 32
0.0
 13
202.3325868606729
 23
13.83244957780152
 33
0.0
  0
SOLID
  5
1A39E
  8
寸法線
  6
CONTINUOUS
 62
     0
 10
202.3325868606729
 20
13.83244957780152
 30
0.0
 11
202.2935211316664
 21
14.00403988187614
 31
0.0
 12
202.3325868606729
 22
14.0094904251902
 32
0.0
 13
202.3325868606729
 23
14.0094904251902
 33
0.0
  0
SOLID
  5
1A39F
  8
寸法線
  6
CONTINUOUS
 62
     0
 10
202.3325868606729
 20
7.504139033277611
 30
0.0
 11
202.3325868606729
 21
7.692184257255566
 31
0.0
 12
202.3851297395377
 22
7.497639778535393
 32
0.0
 13
202.3851297395377
 23
7.497639778535393
 33
0.0
  0
SOLID
  5
1A3A0
  8
寸法線
  6
CONTINUOUS
 62
     0
 10
202.3851297395377
 20
7.497639778535393
 30
0.0
 11
202.3325868606729
 21
7.692184257255566
 31
0.0
 12
202.3851297395377
 22
7.676245549204761
 32
0.0
 13
202.3851297395377
 23
7.676245549204761
 33
0.0
  0
SOLID
  5
1A3A1
  8
寸法線
  6
CONTINUOUS
 62
     0
 10
202.3325868606729
 20
9.692622310048597
 30
0.0
 11
202.3325868606729
 21
10.21219702050601
 31
0.0
 12
202.3851297395377
 22
9.720707063916723
 32
0.0
 13
202.3851297395377
 23
9.720707063916723
 33
0.0
  0
SOLID
  5
1A3A2
  8
寸法線
  6
CONTINUOUS
 62
     0
 10
202.3851297395377
 20
9.720707063916723
 30
0.0
 11
202.3325868606729
 21
10.21219702050601
 31
0.0
 12
202.3851297395377
 22
10.26009618352149
 32
0.0
 13
202.3851297395377
 23
10.26009618352149
 33
0.0
  0
SOLID
  5
1A3A3
  8
寸法線
  6
CONTINUOUS
 62
     0
 10
202.3325868606729
 20
11.30143243796176
 30
0.0
 11
202.3325868606729
 21
11.82100714841918
 31
0.0
 12
202.3851297395377
 22
11.25353327494628
 32
0.0
 13
202.3851297395377
 23
11.25353327494628
 33
0.0
  0
SOLID
  5
1A3A4
  8
寸法線
  6
CONTINUOUS
 62
     0
 10
202.3851297395377
 20
11.25353327494628
 30
0.0
 11
202.3325868606729
 21
11.82100714841918
 31
0.0
 12
202.3851297395377
 22
11.79292239455105
 32
0.0
 13
202.3851297395377
 23
11.79292239455105
 33
0.0
  0
SOLID
  5
1A3A5
  8
寸法線
  6
CONTINUOUS
 62
     0
 10
202.3325868606729
 20
13.83244957780152
 30
0.0
 11
202.3325868606729
 21
14.00949042519019
 31
0.0
 12
202.3851297395377
 22
13.84227154409866
 32
0.0
 13
202.3851297395377
 23
13.84227154409866
 33
0.0
  0
SOLID
  5
1A3A6
  8
寸法線
  6
CONTINUOUS
 62
     0
 10
202.3851297395377
 20
13.84227154409866
 30
0.0
 11
202.3325868606729
 21
14.00949042519019
 31
0.0
 12
202.3851297395377
 22
14.01598967993241
 32
0.0
 13
202.3851297395377
 23
14.01598967993241
 33
0.0
  0
SOLID
  5
1A3A7
  8
寸法線
  6
CONTINUOUS
 62
     0
 10
202.3851297395377
 20
7.497639778535393
 30
0.0
 11
202.3851297395377
 21
7.676245549204761
 31
0.0
 12
202.4298001017287
 22
7.492114309250509
 32
0.0
 13
202.4298001017287
 23
7.492114309250509
 33
0.0
  0
SOLID
  5
1A3A8
  8
寸法線
  6
CONTINUOUS
 62
     0
 10
202.4298001017287
 20
7.492114309250509
 30
0.0
 11
202.3851297395377
 21
7.676245549204761
 31
0.0
 12
202.4298001017287
 22
7.662694942978574
 32
0.0
 13
202.4298001017287
 23
7.662694942978574
 33
0.0
  0
SOLID
  5
1A3A9
  8
寸法線
  6
CONTINUOUS
 62
     0
 10
202.3851297395377
 20
9.720707063916723
 30
0.0
 11
202.3851297395377
 21
10.26009618352149
 31
0.0
 12
202.4298001017287
 22
9.744583869954782
 32
0.0
 13
202.4298001017287
 23
9.744583869954782
 33
0.0
  0
SOLID
  5
1A3AA
  8
寸法線
  6
CONTINUOUS
 62
     0
 10
202.4298001017287
 20
9.744583869954782
 30
0.0
 11
202.3851297395377
 21
10.26009618352149
 31
0.0
 12
202.4298001017287
 22
10.31924930288327
 32
0.0
 13
202.4298001017287
 23
10.31924930288327
 33
0.0
  0
SOLID
  5
1A3AB
  8
寸法線
  6
CONTINUOUS
 62
     0
 10
202.3851297395377
 20
11.25353327494628
 30
0.0
 11
202.3851297395377
 21
11.79292239455105
 31
0.0
 12
202.4298001017287
 22
11.1943801555845
 32
0.0
 13
202.4298001017287
 23
11.1943801555845
 33
0.0
  0
SOLID
  5
1A3AC
  8
寸法線
  6
CONTINUOUS
 62
     0
 10
202.4298001017287
 20
11.1943801555845
 30
0.0
 11
202.3851297395377
 21
11.79292239455105
 31
0.0
 12
202.4298001017287
 22
11.76904558851299
 32
0.0
 13
202.4298001017287
 23
11.76904558851299
 33
0.0
  0
SOLID
  5
1A3AD
  8
寸法線
  6
CONTINUOUS
 62
     0
 10
202.3851297395377
 20
13.84227154409866
 30
0.0
 11
202.3851297395377
 21
14.01598967993241
 31
0.0
 12
202.4298001017287
 22
13.85062188198271
 32
0.0
 13
202.4298001017287
 23
13.85062188198271
 33
0.0
  0
SOLID
  5
1A3AE
  8
寸法線
  6
CONTINUOUS
 62
     0
 10
202.4298001017287
 20
13.85062188198271
 30
0.0
 11
202.3851297395377
 21
14.01598967993241
 31
0.0
 12
202.4298001017287
 22
14.02151514921729
 32
0.0
 13
202.4298001017287
 23
14.02151514921729
 33
0.0
  0
SOLID
  5
1A3AF
  8
寸法線
  6
CONTINUOUS
 62
     0
 10
202.4298001017287
 20
7.492114309250509
 30
0.0
 11
202.4298001017287
 21
7.662694942978574
 31
0.0
 12
202.4671240126044
 22
7.488083975356022
 32
0.0
 13
202.4671240126044
 23
7.488083975356022
 33
0.0
  0
SOLID
  5
1A3B0
  8
寸法線
  6
CONTINUOUS
 62
     0
 10
202.4671240126044
 20
7.488083975356022
 30
0.0
 11
202.4298001017287
 21
7.662694942978574
 31
0.0
 12
202.4671240126044
 22
7.651372858395167
 32
0.0
 13
202.4671240126044
 23
7.651372858395167
 33
0.0
  0
SOLID
  5
1A3B1
  8
寸法線
  6
CONTINUOUS
 62
     0
 10
202.4298001017287
 20
9.744583869954782
 30
0.0
 11
202.4298001017287
 21
10.31924930288327
 31
0.0
 12
202.4671240126044
 22
9.764533915955095
 32
0.0
 13
202.4671240126044
 23
9.764533915955095
 33
0.0
  0
SOLID
  5
1A3B2
  8
寸法線
  6
CONTINUOUS
 62
     0
 10
202.4671240126044
 20
9.764533915955095
 30
0.0
 11
202.4298001017287
 21
10.31924930288327
 31
0.0
 12
202.4671240126044
 22
10.36867414850326
 32
0.0
 13
202.4671240126044
 23
10.36867414850326
 33
0.0
  0
SOLID
  5
1A3B3
  8
寸法線
  6
CONTINUOUS
 62
     0
 10
202.4298001017287
 20
11.1943801555845
 30
0.0
 11
202.4298001017287
 21
11.76904558851299
 31
0.0
 12
202.4671240126044
 22
11.14495530996452
 32
0.0
 13
202.4671240126044
 23
11.14495530996452
 33
0.0
  0
SOLID
  5
1A3B4
  8
寸法線
  6
CONTINUOUS
 62
     0
 10
202.4671240126044
 20
11.14495530996452
 30
0.0
 11
202.4298001017287
 21
11.76904558851299
 31
0.0
 12
202.4671240126044
 22
11.74909554251268
 32
0.0
 13
202.4671240126044
 23
11.74909554251268
 33
0.0
  0
SOLID
  5
1A3B5
  8
寸法線
  6
CONTINUOUS
 62
     0
 10
202.4298001017287
 20
13.85062188198271
 30
0.0
 11
202.4298001017287
 21
14.02151514921729
 31
0.0
 12
202.4671240126044
 22
13.85759893011215
 32
0.0
 13
202.4671240126044
 23
13.85759893011215
 33
0.0
  0
SOLID
  5
1A3B6
  8
寸法線
  6
CONTINUOUS
 62
     0
 10
202.4671240126044
 20
13.85759893011215
 30
0.0
 11
202.4298001017287
 21
14.02151514921729
 31
0.0
 12
202.4671240126044
 22
14.02554548311178
 32
0.0
 13
202.4671240126044
 23
14.02554548311178
 33
0.0
  0
SOLID
  5
1A3B7
  8
寸法線
  6
CONTINUOUS
 62
     0
 10
202.4671240126044
 20
7.488083975356022
 30
0.0
 11
202.4671240126044
 21
7.651372858395167
 31
0.0
 12
202.4937624160099
 22
7.485207490614171
 32
0.0
 13
202.4937624160099
 23
7.485207490614171
 33
0.0
  0
SOLID
  5
1A3B8
  8
寸法線
  6
CONTINUOUS
 62
     0
 10
202.4937624160099
 20
7.485207490614171
 30
0.0
 11
202.4671240126044
 21
7.651372858395167
 31
0.0
 12
202.4937624160099
 22
7.64329218706551
 32
0.0
 13
202.4937624160099
 23
7.64329218706551
 33
0.0
  0
SOLID
  5
1A3B9
  8
寸法線
  6
CONTINUOUS
 62
     0
 10
202.4671240126044
 20
9.764533915955095
 30
0.0
 11
202.4671240126044
 21
10.36867414850326
 31
0.0
 12
202.4937624160099
 22
9.778772439219292
 32
0.0
 13
202.4937624160099
 23
9.778772439219292
 33
0.0
  0
SOLID
  5
1A3BA
  8
寸法線
  6
CONTINUOUS
 62
     0
 10
202.4937624160099
 20
9.778772439219292
 30
0.0
 11
202.4671240126044
 21
10.36867414850326
 31
0.0
 12
202.4937624160099
 22
10.42217127424957
 32
0.0
 13
202.4937624160099
 23
10.42217127424957
 33
0.0
  0
SOLID
  5
1A3BB
  8
寸法線
  6
CONTINUOUS
 62
     0
 10
202.4671240126044
 20
11.14495530996452
 30
0.0
 11
202.4671240126044
 21
11.74909554251268
 31
0.0
 12
202.4937624160099
 22
11.09145818421821
 32
0.0
 13
202.4937624160099
 23
11.09145818421821
 33
0.0
  0
SOLID
  5
1A3BC
  8
寸法線
  6
CONTINUOUS
 62
     0
 10
202.4937624160099
 20
11.09145818421821
 30
0.0
 11
202.4671240126044
 21
11.74909554251268
 31
0.0
 12
202.4937624160099
 22
11.73485701924848
 32
0.0
 13
202.4937624160099
 23
11.73485701924848
 33
0.0
  0
SOLID
  5
1A3BD
  8
寸法線
  6
CONTINUOUS
 62
     0
 10
202.4671240126044
 20
13.85759893011215
 30
0.0
 11
202.4671240126044
 21
14.02554548311178
 31
0.0
 12
202.4937624160099
 22
13.86257851071587
 32
0.0
 13
202.4937624160099
 23
13.86257851071587
 33
0.0
  0
SOLID
  5
1A3BE
  8
寸法線
  6
CONTINUOUS
 62
     0
 10
202.4937624160099
 20
13.86257851071587
 30
0.0
 11
202.4671240126044
 21
14.02554548311178
 31
0.0
 12
202.4937624160099
 22
14.02842196785363
 32
0.0
 13
202.4937624160099
 23
14.02842196785363
 33
0.0
  0
SOLID
  5
1A3BF
  8
寸法線
  6
CONTINUOUS
 62
     0
 10
202.4937624160099
 20
7.485207490614171
 30
0.0
 11
202.4937624160099
 21
7.64329218706551
 31
0.0
 12
202.5273498240705
 22
7.481580634104278
 32
0.0
 13
202.5273498240705
 23
7.481580634104278
 33
0.0
  0
SOLID
  5
1A3C0
  8
寸法線
  6
CONTINUOUS
 62
     0
 10
202.5273498240705
 20
7.481580634104278
 30
0.0
 11
202.4937624160099
 21
7.64329218706551
 31
0.0
 12
202.5273498240705
 22
7.633103558219383
 32
0.0
 13
202.5273498240705
 23
7.633103558219383
 33
0.0
  0
SOLID
  5
1A3C1
  8
寸法線
  6
CONTINUOUS
 62
     0
 10
202.4937624160099
 20
9.778772439219292
 30
0.0
 11
202.4937624160099
 21
10.42217127424957
 31
0.0
 12
202.5273498240705
 22
9.806336912653471
 32
0.0
 13
202.5273498240705
 23
9.806336912653471
 33
0.0
  0
SOLID
  5
1A3C2
  8
寸法線
  6
CONTINUOUS
 62
     0
 10
202.5273498240705
 20
9.806336912653471
 30
0.0
 11
202.4937624160099
 21
10.42217127424957
 31
0.0
 12
202.5273498240705
 22
10.48962388261928
 32
0.0
 13
202.5273498240705
 23
10.48962388261928
 33
0.0
  0
SOLID
  5
1A3C3
  8
寸法線
  6
CONTINUOUS
 62
     0
 10
202.4937624160099
 20
11.09145818421821
 30
0.0
 11
202.4937624160099
 21
11.73485701924848
 31
0.0
 12
202.5273498240705
 22
11.02400557584849
 32
0.0
 13
202.5273498240705
 23
11.02400557584849
 33
0.0
  0
SOLID
  5
1A3C4
  8
寸法線
  6
CONTINUOUS
 62
     0
 10
202.5273498240705
 20
11.02400557584849
 30
0.0
 11
202.4937624160099
 21
11.73485701924848
 31
0.0
 12
202.5273498240705
 22
11.7072925458143
 32
0.0
 13
202.5273498240705
 23
11.7072925458143
 33
0.0
  0
SOLID
  5
1A3C5
  8
寸法線
  6
CONTINUOUS
 62
     0
 10
202.4937624160099
 20
13.86257851071587
 30
0.0
 11
202.4937624160099
 21
14.02842196785363
 31
0.0
 12
202.5273498240705
 22
13.86885708541727
 32
0.0
 13
202.5273498240705
 23
13.86885708541727
 33
0.0
  0
SOLID
  5
1A3C6
  8
寸法線
  6
CONTINUOUS
 62
     0
 10
202.5273498240705
 20
13.86885708541727
 30
0.0
 11
202.4937624160099
 21
14.02842196785363
 31
0.0
 12
202.5273498240705
 22
14.03204882436352
 32
0.0
 13
202.5273498240705
 23
14.03204882436352
 33
0.0
  0
SOLID
  5
1A3C7
  8
寸法線
  6
CONTINUOUS
 62
     0
 10
202.5273498240705
 20
7.481580634104278
 30
0.0
 11
202.5273498240705
 21
7.633103558219383
 31
0.0
 12
202.5277710286462
 22
7.481541726653891
 32
0.0
 13
202.5277710286462
 23
7.481541726653891
 33
0.0
  0
SOLID
  5
1A3C8
  8
寸法線
  6
CONTINUOUS
 62
     0
 10
202.5277710286462
 20
7.481541726653891
 30
0.0
 11
202.5273498240705
 21
7.633103558219383
 31
0.0
 12
202.5277710286462
 22
7.632975787208198
 32
0.0
 13
202.5277710286462
 23
7.632975787208198
 33
0.0
  0
SOLID
  5
1A3C9
  8
寸法線
  6
CONTINUOUS
 62
     0
 10
202.5273498240705
 20
9.806336912653471
 30
0.0
 11
202.5273498240705
 21
10.48962388261928
 31
0.0
 12
202.5277710286462
 22
9.80668258631542
 32
0.0
 13
202.5277710286462
 23
9.80668258631542
 33
0.0
  0
SOLID
  5
1A3CA
  8
寸法線
  6
CONTINUOUS
 62
     0
 10
202.5277710286462
 20
9.80668258631542
 30
0.0
 11
202.5273498240705
 21
10.48962388261928
 31
0.0
 12
202.5277710286462
 22
10.49046977543849
 32
0.0
 13
202.5277710286462
 23
10.49046977543849
 33
0.0
  0
SOLID
  5
1A3CB
  8
寸法線
  6
CONTINUOUS
 62
     0
 10
202.5273498240705
 20
11.02400557584849
 30
0.0
 11
202.5273498240705
 21
11.7072925458143
 31
0.0
 12
202.5277710286462
 22
11.02315968302929
 32
0.0
 13
202.5277710286462
 23
11.02315968302929
 33
0.0
  0
SOLID
  5
1A3CC
  8
寸法線
  6
CONTINUOUS
 62
     0
 10
202.5277710286462
 20
11.02315968302929
 30
0.0
 11
202.5273498240705
 21
11.7072925458143
 31
0.0
 12
202.5277710286462
 22
11.70694687215236
 32
0.0
 13
202.5277710286462
 23
11.70694687215236
 33
0.0
  0
SOLID
  5
1A3CD
  8
寸法線
  6
CONTINUOUS
 62
     0
 10
202.5273498240705
 20
13.86885708541727
 30
0.0
 11
202.5273498240705
 21
14.03204882436352
 31
0.0
 12
202.5277710286462
 22
13.8689358221983
 32
0.0
 13
202.5277710286462
 23
13.8689358221983
 33
0.0
  0
SOLID
  5
1A3CE
  8
寸法線
  6
CONTINUOUS
 62
     0
 10
202.5277710286462
 20
13.8689358221983
 30
0.0
 11
202.5273498240705
 21
14.03204882436352
 31
0.0
 12
202.5277710286462
 22
14.03208773181391
 32
0.0
 13
202.5277710286462
 23
14.03208773181391
 33
0.0
  0
SOLID
  5
1A3CF
  8
寸法線
  6
CONTINUOUS
 62
     0
 10
202.5277710286462
 20
7.481541726653891
 30
0.0
 11
202.5277710286462
 21
7.632975787208198
 31
0.0
 12
202.5441767978007
 22
7.480026295231414
 32
0.0
 13
202.5441767978007
 23
7.480026295231414
 33
0.0
  0
SOLID
  5
1A3D0
  8
寸法線
  6
CONTINUOUS
 62
     0
 10
202.5441767978007
 20
7.480026295231414
 30
0.0
 11
202.5277710286462
 21
7.632975787208198
 31
0.0
 12
202.5441767978007
 22
7.627999151543157
 32
0.0
 13
202.5441767978007
 23
7.627999151543157
 33
0.0
  0
SOLID
  5
1A3D1
  8
寸法線
  6
CONTINUOUS
 62
     0
 10
202.5277710286462
 20
9.80668258631542
 30
0.0
 11
202.5277710286462
 21
10.49046977543849
 31
0.0
 12
202.5441767978007
 22
9.820146453107737
 32
0.0
 13
202.5441767978007
 23
9.820146453107737
 33
0.0
  0
SOLID
  5
1A3D2
  8
寸法線
  6
CONTINUOUS
 62
     0
 10
202.5441767978007
 20
9.820146453107737
 30
0.0
 11
202.5277710286462
 21
10.49046977543849
 31
0.0
 12
202.5441767978007
 22
10.54813007310826
 32
0.0
 13
202.5441767978007
 23
10.54813007310826
 33
0.0
  0
SOLID
  5
1A3D3
  8
寸法線
  6
CONTINUOUS
 62
     0
 10
202.5277710286462
 20
11.02315968302929
 30
0.0
 11
202.5277710286462
 21
11.70694687215236
 31
0.0
 12
202.5441767978007
 22
10.96549938535952
 32
0.0
 13
202.5441767978007
 23
10.96549938535952
 33
0.0
  0
SOLID
  5
1A3D4
  8
寸法線
  6
CONTINUOUS
 62
     0
 10
202.5441767978007
 20
10.96549938535952
 30
0.0
 11
202.5277710286462
 21
11.70694687215236
 31
0.0
 12
202.5441767978007
 22
11.69348300536004
 32
0.0
 13
202.5441767978007
 23
11.69348300536004
 33
0.0
  0
SOLID
  5
1A3D5
  8
寸法線
  6
CONTINUOUS
 62
     0
 10
202.5277710286462
 20
13.8689358221983
 30
0.0
 11
202.5277710286462
 21
14.03208773181391
 31
0.0
 12
202.5441767978007
 22
13.87200259195275
 32
0.0
 13
202.5441767978007
 23
13.87200259195275
 33
0.0
  0
SOLID
  5
1A3D6
  8
寸法線
  6
CONTINUOUS
 62
     0
 10
202.5441767978007
 20
13.87200259195275
 30
0.0
 11
202.5277710286462
 21
14.03208773181391
 31
0.0
 12
202.5441767978007
 22
14.03360316323639
 32
0.0
 13
202.5441767978007
 23
14.03360316323639
 33
0.0
  0
SOLID
  5
1A3D7
  8
寸法線
  6
CONTINUOUS
 62
     0
 10
202.5441767978007
 20
7.480026295231414
 30
0.0
 11
202.5441767978007
 21
7.627999151543157
 31
0.0
 12
202.56500552627
 22
7.478102306827378
 32
0.0
 13
202.56500552627
 23
7.478102306827378
 33
0.0
  0
SOLID
  5
1A3D8
  8
寸法線
  6
CONTINUOUS
 62
     0
 10
202.56500552627
 20
7.478102306827378
 30
0.0
 11
202.5441767978007
 21
7.627999151543157
 31
0.0
 12
202.56500552627
 22
7.625947700846075
 32
0.0
 13
202.56500552627
 23
7.625947700846075
 33
0.0
  0
SOLID
  5
1A3D9
  8
寸法線
  6
CONTINUOUS
 62
     0
 10
202.5441767978007
 20
9.820146453107737
 30
0.0
 11
202.5441767978007
 21
10.54813007310826
 31
0.0
 12
202.56500552627
 22
9.83724014880237
 32
0.0
 13
202.56500552627
 23
9.83724014880237
 33
0.0
  0
SOLID
  5
1A3DA
  8
寸法線
  6
CONTINUOUS
 62
     0
 10
202.56500552627
 20
9.83724014880237
 30
0.0
 11
202.5441767978007
 21
10.54813007310826
 31
0.0
 12
202.56500552627
 22
10.62133546032966
 32
0.0
 13
202.56500552627
 23
10.62133546032966
 33
0.0
  0
SOLID
  5
1A3DB
  8
寸法線
  6
CONTINUOUS
 62
     0
 10
202.5441767978007
 20
10.96549938535952
 30
0.0
 11
202.5441767978007
 21
11.69348300536004
 31
0.0
 12
202.56500552627
 22
10.89229399813812
 32
0.0
 13
202.56500552627
 23
10.89229399813812
 33
0.0
  0
SOLID
  5
1A3DC
  8
寸法線
  6
CONTINUOUS
 62
     0
 10
202.56500552627
 20
10.89229399813812
 30
0.0
 11
202.5441767978007
 21
11.69348300536004
 31
0.0
 12
202.56500552627
 22
11.6763893096654
 32
0.0
 13
202.56500552627
 23
11.6763893096654
 33
0.0
  0
SOLID
  5
1A3DD
  8
寸法線
  6
CONTINUOUS
 62
     0
 10
202.5441767978007
 20
13.87200259195275
 30
0.0
 11
202.5441767978007
 21
14.03360316323639
 31
0.0
 12
202.56500552627
 22
13.87589615609421
 32
0.0
 13
202.56500552627
 23
13.87589615609421
 33
0.0
  0
SOLID
  5
1A3DE
  8
寸法線
  6
CONTINUOUS
 62
     0
 10
202.56500552627
 20
13.87589615609421
 30
0.0
 11
202.5441767978007
 21
14.03360316323639
 31
0.0
 12
202.56500552627
 22
14.03552715164042
 32
0.0
 13
202.56500552627
 23
14.03552715164042
 33
0.0
  0
SOLID
  5
1A3DF
  8
寸法線
  6
CONTINUOUS
 62
     0
 10
202.56500552627
 20
7.478102306827378
 30
0.0
 11
202.56500552627
 21
7.625947700846075
 31
0.0
 12
202.5775595293168
 22
7.476942670207118
 32
0.0
 13
202.5775595293168
 23
7.476942670207118
 33
0.0
  0
SOLID
  5
1A3E0
  8
寸法線
  6
CONTINUOUS
 62
     0
 10
202.5775595293168
 20
7.476942670207118
 30
0.0
 11
202.56500552627
 21
7.625947700846075
 31
0.0
 12
202.5775595293168
 22
7.62471123946824
 32
0.0
 13
202.5775595293168
 23
7.62471123946824
 33
0.0
  0
SOLID
  5
1A3E1
  8
寸法線
  6
CONTINUOUS
 62
     0
 10
202.56500552627
 20
9.83724014880237
 30
0.0
 11
202.56500552627
 21
10.62133546032966
 31
0.0
 12
202.5775595293168
 22
9.847542952842925
 32
0.0
 13
202.5775595293168
 23
9.847542952842925
 33
0.0
  0
SOLID
  5
1A3E2
  8
寸法線
  6
CONTINUOUS
 62
     0
 10
202.5775595293168
 20
9.847542952842925
 30
0.0
 11
202.56500552627
 21
10.62133546032966
 31
0.0
 12
202.5775595293168
 22
10.75681472923389
 32
0.0
 13
202.5775595293168
 23
10.75681472923389
 33
0.0
  0
SOLID
  5
1A3E3
  8
寸法線
  6
CONTINUOUS
 62
     0
 10
202.56500552627
 20
10.89229399813812
 30
0.0
 11
202.56500552627
 21
11.6763893096654
 31
0.0
 12
202.5775595293168
 22
10.75681472923389
 32
0.0
 13
202.5775595293168
 23
10.75681472923389
 33
0.0
  0
SOLID
  5
1A3E4
  8
寸法線
  6
CONTINUOUS
 62
     0
 10
202.5775595293168
 20
10.75681472923389
 30
0.0
 11
202.56500552627
 21
11.6763893096654
 31
0.0
 12
202.5775595293168
 22
11.66608650562485
 32
0.0
 13
202.5775595293168
 23
11.66608650562485
 33
0.0
  0
SOLID
  5
1A3E5
  8
寸法線
  6
CONTINUOUS
 62
     0
 10
202.56500552627
 20
13.87589615609421
 30
0.0
 11
202.56500552627
 21
14.03552715164042
 31
0.0
 12
202.5775595293168
 22
13.87824290597706
 32
0.0
 13
202.5775595293168
 23
13.87824290597706
 33
0.0
  0
SOLID
  5
1A3E6
  8
寸法線
  6
CONTINUOUS
 62
     0
 10
202.5775595293168
 20
13.87824290597706
 30
0.0
 11
202.56500552627
 21
14.03552715164042
 31
0.0
 12
202.5775595293168
 22
14.03668678826068
 32
0.0
 13
202.5775595293168
 23
14.03668678826068
 33
0.0
  0
SOLID
  5
1A3E7
  8
寸法線
  6
CONTINUOUS
 62
     0
 10
202.5775595293168
 20
7.476942670207118
 30
0.0
 11
202.5775595293168
 21
7.62471123946824
 31
0.0
 12
202.6251914749412
 22
7.472542818762593
 32
0.0
 13
202.6251914749412
 23
7.472542818762593
 33
0.0
  0
SOLID
  5
1A3E8
  8
寸法線
  6
CONTINUOUS
 62
     0
 10
202.6251914749412
 20
7.472542818762593
 30
0.0
 11
202.5775595293168
 21
7.62471123946824
 31
0.0
 12
202.6251914749412
 22
7.62001990229906
 32
0.0
 13
202.6251914749412
 23
7.62001990229906
 33
0.0
  0
SOLID
  5
1A3E9
  8
寸法線
  6
CONTINUOUS
 62
     0
 10
202.5775595293168
 20
9.847542952842925
 30
0.0
 11
202.5775595293168
 21
11.66608650562485
 31
0.0
 12
202.6251914749412
 22
9.886633480382772
 32
0.0
 13
202.6251914749412
 23
9.886633480382772
 33
0.0
  0
SOLID
  5
1A3EA
  8
寸法線
  6
CONTINUOUS
 62
     0
 10
202.6251914749412
 20
9.886633480382772
 30
0.0
 11
202.5775595293168
 21
11.66608650562485
 31
0.0
 12
202.6251914749412
 22
11.626995978085
 32
0.0
 13
202.6251914749412
 23
11.626995978085
 33
0.0
  0
SOLID
  5
1A3EB
  8
寸法線
  6
CONTINUOUS
 62
     0
 10
202.5775595293168
 20
13.87824290597706
 30
0.0
 11
202.5775595293168
 21
14.03668678826068
 31
0.0
 12
202.6251914749412
 22
13.88714685975155
 32
0.0
 13
202.6251914749412
 23
13.88714685975155
 33
0.0
  0
SOLID
  5
1A3EC
  8
寸法線
  6
CONTINUOUS
 62
     0
 10
202.6251914749412
 20
13.88714685975155
 30
0.0
 11
202.5775595293168
 21
14.03668678826068
 31
0.0
 12
202.6251914749412
 22
14.04108663970521
 32
0.0
 13
202.6251914749412
 23
14.04108663970521
 33
0.0
  0
SOLID
  5
1A3ED
  8
寸法線
  6
CONTINUOUS
 62
     0
 10
202.6251914749412
 20
7.472542818762593
 30
0.0
 11
202.6251914749412
 21
7.62001990229906
 31
0.0
 12
202.672012048224
 22
7.468944802646899
 32
0.0
 13
202.672012048224
 23
7.468944802646899
 33
0.0
  0
SOLID
  5
1A3EE
  8
寸法線
  6
CONTINUOUS
 62
     0
 10
202.672012048224
 20
7.468944802646899
 30
0.0
 11
202.6251914749412
 21
7.62001990229906
 31
0.0
 12
202.672012048224
 22
7.615408478330452
 32
0.0
 13
202.672012048224
 23
7.615408478330452
 33
0.0
  0
SOLID
  5
1A3EF
  8
寸法線
  6
CONTINUOUS
 62
     0
 10
202.6251914749412
 20
9.886633480382772
 30
0.0
 11
202.6251914749412
 21
11.626995978085
 31
0.0
 12
202.672012048224
 22
9.92505813185039
 32
0.0
 13
202.672012048224
 23
9.92505813185039
 33
0.0
  0
SOLID
  5
1A3F0
  8
寸法線
  6
CONTINUOUS
 62
     0
 10
202.672012048224
 20
9.92505813185039
 30
0.0
 11
202.6251914749412
 21
11.626995978085
 31
0.0
 12
202.672012048224
 22
11.58857132661739
 32
0.0
 13
202.672012048224
 23
11.58857132661739
 33
0.0
  0
SOLID
  5
1A3F1
  8
寸法線
  6
CONTINUOUS
 62
     0
 10
202.6251914749412
 20
13.88714685975155
 30
0.0
 11
202.6251914749412
 21
14.04108663970521
 31
0.0
 12
202.672012048224
 22
13.89589914174927
 32
0.0
 13
202.672012048224
 23
13.89589914174927
 33
0.0
  0
SOLID
  5
1A3F2
  8
寸法線
  6
CONTINUOUS
 62
     0
 10
202.672012048224
 20
13.89589914174927
 30
0.0
 11
202.6251914749412
 21
14.04108663970521
 31
0.0
 12
202.672012048224
 22
14.0446846558209
 32
0.0
 13
202.672012048224
 23
14.0446846558209
 33
0.0
  0
SOLID
  5
1A3F3
  8
寸法線
  6
CONTINUOUS
 62
     0
 10
202.672012048224
 20
7.468944802646899
 30
0.0
 11
202.672012048224
 21
7.615408478330452
 31
0.0
 12
202.723280368255
 22
7.46500499096237
 32
0.0
 13
202.723280368255
 23
7.46500499096237
 33
0.0
  0
SOLID
  5
1A3F4
  8
寸法線
  6
CONTINUOUS
 62
     0
 10
202.723280368255
 20
7.46500499096237
 30
0.0
 11
202.672012048224
 21
7.615408478330452
 31
0.0
 12
202.723280368255
 22
7.61035898954284
 32
0.0
 13
202.723280368255
 23
7.61035898954284
 33
0.0
  0
SOLID
  5
1A3F5
  8
寸法線
  6
CONTINUOUS
 62
     0
 10
202.672012048224
 20
9.92505813185039
 30
0.0
 11
202.672012048224
 21
11.58857132661739
 31
0.0
 12
202.723280368255
 22
9.987528760559067
 32
0.0
 13
202.723280368255
 23
9.987528760559067
 33
0.0
  0
SOLID
  5
1A3F6
  8
寸法線
  6
CONTINUOUS
 62
     0
 10
202.723280368255
 20
9.987528760559067
 30
0.0
 11
202.672012048224
 21
11.58857132661739
 31
0.0
 12
202.723280368255
 22
11.52610069790871
 32
0.0
 13
202.723280368255
 23
11.52610069790871
 33
0.0
  0
SOLID
  5
1A3F7
  8
寸法線
  6
CONTINUOUS
 62
     0
 10
202.672012048224
 20
13.89589914174927
 30
0.0
 11
202.672012048224
 21
14.0446846558209
 31
0.0
 12
202.723280368255
 22
13.90548285170835
 32
0.0
 13
202.723280368255
 23
13.90548285170835
 33
0.0
  0
SOLID
  5
1A3F8
  8
寸法線
  6
CONTINUOUS
 62
     0
 10
202.723280368255
 20
13.90548285170835
 30
0.0
 11
202.672012048224
 21
14.0446846558209
 31
0.0
 12
202.723280368255
 22
14.04862446750543
 32
0.0
 13
202.723280368255
 23
14.04862446750543
 33
0.0
  0
SOLID
  5
1A3F9
  8
寸法線
  6
CONTINUOUS
 62
     0
 10
202.723280368255
 20
7.46500499096237
 30
0.0
 11
202.723280368255
 21
7.61035898954284
 31
0.0
 12
202.8182977408551
 22
7.459171591768252
 32
0.0
 13
202.8182977408551
 23
7.459171591768252
 33
0.0
  0
SOLID
  5
1A3FA
  8
寸法線
  6
CONTINUOUS
 62
     0
 10
202.8182977408551
 20
7.459171591768252
 30
0.0
 11
202.723280368255
 21
7.61035898954284
 31
0.0
 12
202.8182977408551
 22
7.60100059517214
 32
0.0
 13
202.8182977408551
 23
7.60100059517214
 33
0.0
  0
SOLID
  5
1A3FB
  8
寸法線
  6
CONTINUOUS
 62
     0
 10
202.723280368255
 20
9.987528760559067
 30
0.0
 11
202.723280368255
 21
11.52610069790871
 31
0.0
 12
202.8182977408551
 22
10.10330776406446
 32
0.0
 13
202.8182977408551
 23
10.10330776406446
 33
0.0
  0
SOLID
  5
1A3FC
  8
寸法線
  6
CONTINUOUS
 62
     0
 10
202.8182977408551
 20
10.10330776406446
 30
0.0
 11
202.723280368255
 21
11.52610069790871
 31
0.0
 12
202.8182977408551
 22
11.41032169440331
 32
0.0
 13
202.8182977408551
 23
11.41032169440331
 33
0.0
  0
SOLID
  5
1A3FD
  8
寸法線
  6
CONTINUOUS
 62
     0
 10
202.723280368255
 20
13.90548285170835
 30
0.0
 11
202.723280368255
 21
14.04862446750543
 31
0.0
 12
202.8182977408551
 22
13.9232446769354
 32
0.0
 13
202.8182977408551
 23
13.9232446769354
 33
0.0
  0
SOLID
  5
1A3FE
  8
寸法線
  6
CONTINUOUS
 62
     0
 10
202.8182977408551
 20
13.9232446769354
 30
0.0
 11
202.723280368255
 21
14.04862446750543
 31
0.0
 12
202.8182977408551
 22
14.05445786669955
 32
0.0
 13
202.8182977408551
 23
14.05445786669955
 33
0.0
  0
SOLID
  5
1A3FF
  8
寸法線
  6
CONTINUOUS
 62
     0
 10
202.8182977408551
 20
7.459171591768252
 30
0.0
 11
202.8182977408551
 21
7.60100059517214
 31
0.0
 12
202.8215717050053
 22
7.45897059336856
 32
0.0
 13
202.8215717050053
 23
7.45897059336856
 33
0.0
  0
SOLID
  5
1A400
  8
寸法線
  6
CONTINUOUS
 62
     0
 10
202.8215717050053
 20
7.45897059336856
 30
0.0
 11
202.8182977408551
 21
7.60100059517214
 31
0.0
 12
202.8215717050053
 22
7.600678137848443
 32
0.0
 13
202.8215717050053
 23
7.600678137848443
 33
0.0
  0
SOLID
  5
1A401
  8
寸法線
  6
CONTINUOUS
 62
     0
 10
202.8182977408551
 20
10.10330776406446
 30
0.0
 11
202.8182977408551
 21
11.41032169440331
 31
0.0
 12
202.8215717050053
 22
10.10943292017445
 32
0.0
 13
202.8215717050053
 23
10.10943292017445
 33
0.0
  0
SOLID
  5
1A402
  8
寸法線
  6
CONTINUOUS
 62
     0
 10
202.8215717050053
 20
10.10943292017445
 30
0.0
 11
202.8182977408551
 21
11.41032169440331
 31
0.0
 12
202.8215717050053
 22
11.40419653829333
 32
0.0
 13
202.8215717050053
 23
11.40419653829333
 33
0.0
  0
SOLID
  5
1A403
  8
寸法線
  6
CONTINUOUS
 62
     0
 10
202.8182977408551
 20
13.9232446769354
 30
0.0
 11
202.8182977408551
 21
14.05445786669955
 31
0.0
 12
202.8215717050053
 22
13.92385668690205
 32
0.0
 13
202.8215717050053
 23
13.92385668690205
 33
0.0
  0
SOLID
  5
1A404
  8
寸法線
  6
CONTINUOUS
 62
     0
 10
202.8215717050053
 20
13.92385668690205
 30
0.0
 11
202.8182977408551
 21
14.05445786669955
 31
0.0
 12
202.8215717050053
 22
14.05465886509924
 32
0.0
 13
202.8215717050053
 23
14.05465886509924
 33
0.0
  0
SOLID
  5
1A405
  8
寸法線
  6
CONTINUOUS
 62
     0
 10
202.8215717050053
 20
7.45897059336856
 30
0.0
 11
202.8215717050053
 21
7.600678137848443
 31
0.0
 12
202.8721904462435
 22
7.456642356225181
 32
0.0
 13
202.8721904462435
 23
7.456642356225181
 33
0.0
  0
SOLID
  5
1A406
  8
寸法線
  6
CONTINUOUS
 62
     0
 10
202.8721904462435
 20
7.456642356225181
 30
0.0
 11
202.8215717050053
 21
7.600678137848443
 31
0.0
 12
202.8721904462435
 22
7.595692626987726
 32
0.0
 13
202.8721904462435
 23
7.595692626987726
 33
0.0
  0
SOLID
  5
1A407
  8
寸法線
  6
CONTINUOUS
 62
     0
 10
202.8215717050053
 20
10.10943292017445
 30
0.0
 11
202.8215717050053
 21
11.40419653829333
 31
0.0
 12
202.8721904462435
 22
10.20413392420142
 32
0.0
 13
202.8721904462435
 23
10.20413392420142
 33
0.0
  0
SOLID
  5
1A408
  8
寸法線
  6
CONTINUOUS
 62
     0
 10
202.8721904462435
 20
10.20413392420142
 30
0.0
 11
202.8215717050053
 21
11.40419653829333
 31
0.0
 12
202.8721904462435
 22
11.30949553426636
 32
0.0
 13
202.8721904462435
 23
11.30949553426636
 33
0.0
  0
SOLID
  5
1A409
  8
寸法線
  6
CONTINUOUS
 62
     0
 10
202.8215717050053
 20
13.92385668690205
 30
0.0
 11
202.8215717050053
 21
14.05465886509924
 31
0.0
 12
202.8721904462435
 22
13.93331896954028
 32
0.0
 13
202.8721904462435
 23
13.93331896954028
 33
0.0
  0
SOLID
  5
1A40A
  8
寸法線
  6
CONTINUOUS
 62
     0
 10
202.8721904462435
 20
13.93331896954028
 30
0.0
 11
202.8215717050053
 21
14.05465886509924
 31
0.0
 12
202.8721904462435
 22
14.05698710224262
 32
0.0
 13
202.8721904462435
 23
14.05698710224262
 33
0.0
  0
SOLID
  5
1A40B
  8
寸法線
  6
CONTINUOUS
 62
     0
 10
202.8721904462435
 20
7.456642356225181
 30
0.0
 11
202.8721904462435
 21
7.595692626987726
 31
0.0
 12
202.9200205937264
 22
7.454442382001815
 32
0.0
 13
202.9200205937264
 23
7.454442382001815
 33
0.0
  0
SOLID
  5
1A40C
  8
寸法線
  6
CONTINUOUS
 62
     0
 10
202.9200205937264
 20
7.454442382001815
 30
0.0
 11
202.8721904462435
 21
7.595692626987726
 31
0.0
 12
202.9200205937264
 22
7.59098176863935
 32
0.0
 13
202.9200205937264
 23
7.59098176863935
 33
0.0
  0
SOLID
  5
1A40D
  8
寸法線
  6
CONTINUOUS
 62
     0
 10
202.8721904462435
 20
10.20413392420142
 30
0.0
 11
202.8721904462435
 21
11.30949553426636
 31
0.0
 12
202.9200205937264
 22
10.2936178362585
 32
0.0
 13
202.9200205937264
 23
10.2936178362585
 33
0.0
  0
SOLID
  5
1A40E
  8
寸法線
  6
CONTINUOUS
 62
     0
 10
202.9200205937264
 20
10.2936178362585
 30
0.0
 11
202.8721904462435
 21
11.30949553426636
 31
0.0
 12
202.9200205937264
 22
11.22001162220927
 32
0.0
 13
202.9200205937264
 23
11.22001162220927
 33
0.0
  0
SOLID
  5
1A40F
  8
寸法線
  6
CONTINUOUS
 62
     0
 10
202.8721904462435
 20
13.93331896954028
 30
0.0
 11
202.8721904462435
 21
14.05698710224262
 31
0.0
 12
202.9200205937264
 22
13.93331896954028
 32
0.0
 13
202.9200205937264
 23
13.93331896954028
 33
0.0
  0
SOLID
  5
1A410
  8
寸法線
  6
CONTINUOUS
 62
     0
 10
202.9200205937264
 20
13.93331896954028
 30
0.0
 11
202.8721904462435
 21
14.05698710224262
 31
0.0
 12
202.9200205937264
 22
14.05918707646599
 32
0.0
 13
202.9200205937264
 23
14.05918707646599
 33
0.0
  0
SOLID
  5
1A411
  8
寸法線
  6
CONTINUOUS
 62
     0
 10
202.9200205937264
 20
7.454442382001815
 30
0.0
 11
202.9200205937264
 21
7.59098176863935
 31
0.0
 12
202.9269978167734
 22
7.454228597526187
 32
0.0
 13
202.9269978167734
 23
7.454228597526187
 33
0.0
  0
SOLID
  5
1A412
  8
寸法線
  6
CONTINUOUS
 62
     0
 10
202.9269978167734
 20
7.454228597526187
 30
0.0
 11
202.9200205937264
 21
7.59098176863935
 31
0.0
 12
202.9269978167734
 22
7.590294572149919
 32
0.0
 13
202.9269978167734
 23
7.590294572149919
 33
0.0
  0
SOLID
  5
1A413
  8
寸法線
  6
CONTINUOUS
 62
     0
 10
202.9200205937264
 20
10.2936178362585
 30
0.0
 11
202.9200205937264
 21
11.22001162220927
 31
0.0
 12
202.9269978167734
 22
10.30667130245907
 32
0.0
 13
202.9269978167734
 23
10.30667130245907
 33
0.0
  0
SOLID
  5
1A414
  8
寸法線
  6
CONTINUOUS
 62
     0
 10
202.9269978167734
 20
10.30667130245907
 30
0.0
 11
202.9200205937264
 21
11.22001162220927
 31
0.0
 12
202.9269978167734
 22
11.20695815600871
 32
0.0
 13
202.9269978167734
 23
11.20695815600871
 33
0.0
  0
SOLID
  5
1A415
  8
寸法線
  6
CONTINUOUS
 62
     0
 10
202.9200205937264
 20
13.93331896954028
 30
0.0
 11
202.9200205937264
 21
14.05918707646599
 31
0.0
 12
202.9269978167734
 22
13.93331896954028
 32
0.0
 13
202.9269978167734
 23
13.93331896954028
 33
0.0
  0
SOLID
  5
1A416
  8
寸法線
  6
CONTINUOUS
 62
     0
 10
202.9269978167734
 20
13.93331896954028
 30
0.0
 11
202.9200205937264
 21
14.05918707646599
 31
0.0
 12
202.9269978167734
 22
14.05940086094161
 32
0.0
 13
202.9269978167734
 23
14.05940086094161
 33
0.0
  0
SOLID
  5
1A417
  8
寸法線
  6
CONTINUOUS
 62
     0
 10
202.9269978167734
 20
7.454228597526187
 30
0.0
 11
202.9269978167734
 21
7.590294572149919
 31
0.0
 12
202.993934993021
 22
7.452177619790804
 32
0.0
 13
202.993934993021
 23
7.452177619790804
 33
0.0
  0
SOLID
  5
1A418
  8
寸法線
  6
CONTINUOUS
 62
     0
 10
202.993934993021
 20
7.452177619790804
 30
0.0
 11
202.9269978167734
 21
7.590294572149919
 31
0.0
 12
202.993934993021
 22
7.583701835724527
 32
0.0
 13
202.993934993021
 23
7.583701835724527
 33
0.0
  0
SOLID
  5
1A419
  8
寸法線
  6
CONTINUOUS
 62
     0
 10
202.9269978167734
 20
10.30667130245907
 30
0.0
 11
202.9269978167734
 21
11.20695815600871
 31
0.0
 12
202.993934993021
 22
10.52733360030129
 32
0.0
 13
202.993934993021
 23
10.52733360030129
 33
0.0
  0
SOLID
  5
1A41A
  8
寸法線
  6
CONTINUOUS
 62
     0
 10
202.993934993021
 20
10.52733360030129
 30
0.0
 11
202.9269978167734
 21
11.20695815600871
 31
0.0
 12
202.993934993021
 22
10.98629585816649
 32
0.0
 13
202.993934993021
 23
10.98629585816649
 33
0.0
  0
SOLID
  5
1A41B
  8
寸法線
  6
CONTINUOUS
 62
     0
 10
202.9269978167734
 20
13.93331896954028
 30
0.0
 11
202.9269978167734
 21
14.05940086094161
 31
0.0
 12
202.993934993021
 22
13.93331896954028
 32
0.0
 13
202.993934993021
 23
13.93331896954028
 33
0.0
  0
SOLID
  5
1A41C
  8
寸法線
  6
CONTINUOUS
 62
     0
 10
202.993934993021
 20
13.93331896954028
 30
0.0
 11
202.9269978167734
 21
14.05940086094161
 31
0.0
 12
202.993934993021
 22
14.061451838677
 32
0.0
 13
202.993934993021
 23
14.061451838677
 33
0.0
  0
SOLID
  5
1A41D
  8
寸法線
  6
CONTINUOUS
 62
     0
 10
202.993934993021
 20
7.452177619790804
 30
0.0
 11
202.993934993021
 21
7.583701835724527
 31
0.0
 12
203.0165369114536
 22
7.45148508936032
 32
0.0
 13
203.0165369114536
 23
7.45148508936032
 33
0.0
  0
SOLID
  5
1A41E
  8
寸法線
  6
CONTINUOUS
 62
     0
 10
203.0165369114536
 20
7.45148508936032
 30
0.0
 11
202.993934993021
 21
7.583701835724527
 31
0.0
 12
203.0165369114536
 22
7.581475741059539
 32
0.0
 13
203.0165369114536
 23
7.581475741059539
 33
0.0
  0
SOLID
  5
1A41F
  8
寸法線
  6
CONTINUOUS
 62
     0
 10
202.993934993021
 20
10.52733360030129
 30
0.0
 11
202.993934993021
 21
10.98629585816649
 31
0.0
 12
203.0165369114536
 22
10.75681472923389
 32
0.0
 13
203.0165369114536
 23
10.75681472923389
 33
0.0
  0
SOLID
  5
1A420
  8
寸法線
  6
CONTINUOUS
 62
     0
 10
202.993934993021
 20
13.93331896954028
 30
0.0
 11
202.993934993021
 21
14.061451838677
 31
0.0
 12
203.0165369114536
 22
13.93331896954028
 32
0.0
 13
203.0165369114536
 23
13.93331896954028
 33
0.0
  0
SOLID
  5
1A421
  8
寸法線
  6
CONTINUOUS
 62
     0
 10
203.0165369114536
 20
13.93331896954028
 30
0.0
 11
202.993934993021
 21
14.061451838677
 31
0.0
 12
203.0165369114536
 22
14.06214436910748
 32
0.0
 13
203.0165369114536
 23
14.06214436910748
 33
0.0
  0
SOLID
  5
1A422
  8
寸法線
  6
CONTINUOUS
 62
     0
 10
203.0165369114536
 20
7.45148508936032
 30
0.0
 11
203.0165369114536
 21
7.581475741059539
 31
0.0
 12
203.0185820709954
 22
7.451422424979764
 32
0.0
 13
203.0185820709954
 23
7.451422424979764
 33
0.0
  0
SOLID
  5
1A423
  8
寸法線
  6
CONTINUOUS
 62
     0
 10
203.0185820709954
 20
7.451422424979764
 30
0.0
 11
203.0165369114536
 21
7.581475741059539
 31
0.0
 12
203.0185820709954
 22
7.581274310426169
 32
0.0
 13
203.0185820709954
 23
7.581274310426169
 33
0.0
  0
SOLID
  5
1A424
  8
寸法線
  6
CONTINUOUS
 62
     0
 10
203.0165369114536
 20
13.93331896954028
 30
0.0
 11
203.0165369114536
 21
14.06214436910748
 31
0.0
 12
203.0185820709954
 22
13.93331896954028
 32
0.0
 13
203.0185820709954
 23
13.93331896954028
 33
0.0
  0
SOLID
  5
1A425
  8
寸法線
  6
CONTINUOUS
 62
     0
 10
203.0185820709954
 20
13.93331896954028
 30
0.0
 11
203.0165369114536
 21
14.06214436910748
 31
0.0
 12
203.0185820709954
 22
14.06220703348804
 32
0.0
 13
203.0185820709954
 23
14.06220703348804
 33
0.0
  0
SOLID
  5
1A426
  8
寸法線
  6
CONTINUOUS
 62
     0
 10
203.0185820709954
 20
7.451422424979764
 30
0.0
 11
203.0185820709954
 21
7.581274310426169
 31
0.0
 12
203.1172111219683
 22
7.449912101572463
 32
0.0
 13
203.1172111219683
 23
7.449912101572463
 33
0.0
  0
SOLID
  5
1A427
  8
寸法線
  6
CONTINUOUS
 62
     0
 10
203.1172111219683
 20
7.449912101572463
 30
0.0
 11
203.0185820709954
 21
7.581274310426169
 31
0.0
 12
203.1172111219683
 22
7.571560196784067
 32
0.0
 13
203.1172111219683
 23
7.571560196784067
 33
0.0
  0
SOLID
  5
1A428
  8
寸法線
  6
CONTINUOUS
 62
     0
 10
203.0185820709954
 20
13.93331896954028
 30
0.0
 11
203.0185820709954
 21
14.06220703348804
 31
0.0
 12
203.1172111219683
 22
13.93331896954028
 32
0.0
 13
203.1172111219683
 23
13.93331896954028
 33
0.0
  0
SOLID
  5
1A429
  8
寸法線
  6
CONTINUOUS
 62
     0
 10
203.1172111219683
 20
13.93331896954028
 30
0.0
 11
203.0185820709954
 21
14.06220703348804
 31
0.0
 12
203.1172111219683
 22
14.06371735689534
 32
0.0
 13
203.1172111219683
 23
14.06371735689534
 33
0.0
  0
SOLID
  5
1A42A
  8
寸法線
  6
CONTINUOUS
 62
     0
 10
203.1172111219683
 20
7.449912101572463
 30
0.0
 11
203.1172111219683
 21
7.571560196784067
 31
0.0
 12
203.1665369114535
 22
7.449912101572463
 32
0.0
 13
203.1665369114535
 23
7.449912101572463
 33
0.0
  0
SOLID
  5
1A42B
  8
寸法線
  6
CONTINUOUS
 62
     0
 10
203.1665369114535
 20
7.449912101572463
 30
0.0
 11
203.1172111219683
 21
7.571560196784067
 31
0.0
 12
203.1665369114535
 22
7.566702030555966
 32
0.0
 13
203.1665369114535
 23
7.566702030555966
 33
0.0
  0
SOLID
  5
1A42C
  8
寸法線
  6
CONTINUOUS
 62
     0
 10
203.1172111219683
 20
13.93331896954028
 30
0.0
 11
203.1172111219683
 21
14.06371735689534
 31
0.0
 12
203.1665369114535
 22
13.93331896954028
 32
0.0
 13
203.1665369114535
 23
13.93331896954028
 33
0.0
  0
SOLID
  5
1A42D
  8
寸法線
  6
CONTINUOUS
 62
     0
 10
203.1665369114535
 20
13.93331896954028
 30
0.0
 11
203.1172111219683
 21
14.06371735689534
 31
0.0
 12
203.1665369114535
 22
14.06371735689534
 32
0.0
 13
203.1665369114535
 23
14.06371735689534
 33
0.0
  0
SOLID
  5
1A42E
  8
寸法線
  6
CONTINUOUS
 62
     0
 10
203.1665369114535
 20
7.449912101572463
 30
0.0
 11
203.1665369114535
 21
7.566702030555966
 31
0.0
 12
203.2131903041331
 22
7.449912101572463
 32
0.0
 13
203.2131903041331
 23
7.449912101572463
 33
0.0
  0
SOLID
  5
1A42F
  8
寸法線
  6
CONTINUOUS
 62
     0
 10
203.2131903041331
 20
7.449912101572463
 30
0.0
 11
203.1665369114535
 21
7.566702030555966
 31
0.0
 12
203.2131903041331
 22
7.571296988672349
 32
0.0
 13
203.2131903041331
 23
7.571296988672349
 33
0.0
  0
SOLID
  5
1A430
  8
寸法線
  6
CONTINUOUS
 62
     0
 10
203.1665369114535
 20
13.93331896954028
 30
0.0
 11
203.1665369114535
 21
14.06371735689534
 31
0.0
 12
203.2131903041331
 22
13.93331896954028
 32
0.0
 13
203.2131903041331
 23
13.93331896954028
 33
0.0
  0
SOLID
  5
1A431
  8
寸法線
  6
CONTINUOUS
 62
     0
 10
203.2131903041331
 20
13.93331896954028
 30
0.0
 11
203.1665369114535
 21
14.06371735689534
 31
0.0
 12
203.2131903041331
 22
14.06371735689534
 32
0.0
 13
203.2131903041331
 23
14.06371735689534
 33
0.0
  0
SOLID
  5
1A432
  8
寸法線
  6
CONTINUOUS
 62
     0
 10
203.2131903041331
 20
7.449912101572463
 30
0.0
 11
203.2131903041331
 21
7.571296988672349
 31
0.0
 12
203.2158627009388
 22
7.449912101572463
 32
0.0
 13
203.2158627009388
 23
7.449912101572463
 33
0.0
  0
SOLID
  5
1A433
  8
寸法線
  6
CONTINUOUS
 62
     0
 10
203.2158627009388
 20
7.449912101572463
 30
0.0
 11
203.2131903041331
 21
7.571296988672349
 31
0.0
 12
203.2158627009388
 22
7.571560196784067
 32
0.0
 13
203.2158627009388
 23
7.571560196784067
 33
0.0
  0
SOLID
  5
1A434
  8
寸法線
  6
CONTINUOUS
 62
     0
 10
203.2131903041331
 20
9.580533268620847
 30
0.0
 11
203.2131903041331
 21
9.969510650757485
 31
0.0
 12
203.2158627009388
 22
9.580533268620847
 32
0.0
 13
203.2158627009388
 23
9.580533268620847
 33
0.0
  0
SOLID
  5
1A435
  8
寸法線
  6
CONTINUOUS
 62
     0
 10
203.2158627009388
 20
9.580533268620847
 30
0.0
 11
203.2131903041331
 21
9.969510650757485
 31
0.0
 12
203.2158627009388
 22
9.969510650757485
 32
0.0
 13
203.2158627009388
 23
9.969510650757485
 33
0.0
  0
SOLID
  5
1A436
  8
寸法線
  6
CONTINUOUS
 62
     0
 10
203.2131903041331
 20
13.93331896954028
 30
0.0
 11
203.2131903041331
 21
14.06371735689534
 31
0.0
 12
203.2158627009388
 22
13.93331896954028
 32
0.0
 13
203.2158627009388
 23
13.93331896954028
 33
0.0
  0
SOLID
  5
1A437
  8
寸法線
  6
CONTINUOUS
 62
     0
 10
203.2158627009388
 20
13.93331896954028
 30
0.0
 11
203.2131903041331
 21
14.06371735689534
 31
0.0
 12
203.2158627009388
 22
14.06371735689534
 32
0.0
 13
203.2158627009388
 23
14.06371735689534
 33
0.0
  0
SOLID
  5
1A438
  8
寸法線
  6
CONTINUOUS
 62
     0
 10
203.2158627009388
 20
7.449912101572463
 30
0.0
 11
203.2158627009388
 21
7.571560196784067
 31
0.0
 12
203.3043323878808
 22
7.451266852913039
 32
0.0
 13
203.3043323878808
 23
7.451266852913039
 33
0.0
  0
SOLID
  5
1A439
  8
寸法線
  6
CONTINUOUS
 62
     0
 10
203.3043323878808
 20
7.451266852913039
 30
0.0
 11
203.2158627009388
 21
7.571560196784067
 31
0.0
 12
203.3043323878808
 22
7.58027370040556
 32
0.0
 13
203.3043323878808
 23
7.58027370040556
 33
0.0
  0
SOLID
  5
1A43A
  8
寸法線
  6
CONTINUOUS
 62
     0
 10
203.2158627009388
 20
9.580533268620847
 30
0.0
 11
203.2158627009388
 21
9.969510650757485
 31
0.0
 12
203.3043323878808
 22
9.580533268620846
 32
0.0
 13
203.3043323878808
 23
9.580533268620846
 33
0.0
  0
SOLID
  5
1A43B
  8
寸法線
  6
CONTINUOUS
 62
     0
 10
203.3043323878808
 20
9.580533268620846
 30
0.0
 11
203.2158627009388
 21
9.969510650757485
 31
0.0
 12
203.3043323878808
 22
9.969510650757487
 32
0.0
 13
203.3043323878808
 23
9.969510650757487
 33
0.0
  0
SOLID
  5
1A43C
  8
寸法線
  6
CONTINUOUS
 62
     0
 10
203.2158627009388
 20
13.93331896954028
 30
0.0
 11
203.2158627009388
 21
14.06371735689534
 31
0.0
 12
203.3043323878808
 22
13.93331896954028
 32
0.0
 13
203.3043323878808
 23
13.93331896954028
 33
0.0
  0
SOLID
  5
1A43D
  8
寸法線
  6
CONTINUOUS
 62
     0
 10
203.3043323878808
 20
13.93331896954028
 30
0.0
 11
203.2158627009388
 21
14.06371735689534
 31
0.0
 12
203.3043323878808
 22
14.06236260555476
 32
0.0
 13
203.3043323878808
 23
14.06236260555476
 33
0.0
  0
SOLID
  5
1A43E
  8
寸法線
  6
CONTINUOUS
 62
     0
 10
203.3043323878808
 20
7.451266852913039
 30
0.0
 11
203.3043323878808
 21
7.58027370040556
 31
0.0
 12
203.3144917519116
 22
7.451422424979764
 32
0.0
 13
203.3144917519116
 23
7.451422424979764
 33
0.0
  0
SOLID
  5
1A43F
  8
寸法線
  6
CONTINUOUS
 62
     0
 10
203.3144917519116
 20
7.451422424979764
 30
0.0
 11
203.3043323878808
 21
7.58027370040556
 31
0.0
 12
203.3144917519116
 22
7.581274310426168
 32
0.0
 13
203.3144917519116
 23
7.581274310426168
 33
0.0
  0
SOLID
  5
1A440
  8
寸法線
  6
CONTINUOUS
 62
     0
 10
203.3043323878808
 20
9.580533268620846
 30
0.0
 11
203.3043323878808
 21
9.969510650757487
 31
0.0
 12
203.3144917519116
 22
9.581533878641453
 32
0.0
 13
203.3144917519116
 23
9.581533878641453
 33
0.0
  0
SOLID
  5
1A441
  8
寸法線
  6
CONTINUOUS
 62
     0
 10
203.3144917519116
 20
9.581533878641453
 30
0.0
 11
203.3043323878808
 21
9.969510650757487
 31
0.0
 12
203.3144917519116
 22
9.970511260778096
 32
0.0
 13
203.3144917519116
 23
9.970511260778096
 33
0.0
  0
SOLID
  5
1A442
  8
寸法線
  6
CONTINUOUS
 62
     0
 10
203.3043323878808
 20
13.93331896954028
 30
0.0
 11
203.3043323878808
 21
14.06236260555476
 31
0.0
 12
203.3144917519116
 22
13.93331896954028
 32
0.0
 13
203.3144917519116
 23
13.93331896954028
 33
0.0
  0
SOLID
  5
1A443
  8
寸法線
  6
CONTINUOUS
 62
     0
 10
203.3144917519116
 20
13.93331896954028
 30
0.0
 11
203.3043323878808
 21
14.06236260555476
 31
0.0
 12
203.3144917519116
 22
14.06220703348804
 32
0.0
 13
203.3144917519116
 23
14.06220703348804
 33
0.0
  0
SOLID
  5
1A444
  8
寸法線
  6
CONTINUOUS
 62
     0
 10
203.3144917519116
 20
7.451422424979764
 30
0.0
 11
203.3144917519116
 21
7.581274310426168
 31
0.0
 12
203.4130532291806
 22
7.454442382001815
 32
0.0
 13
203.4130532291806
 23
7.454442382001815
 33
0.0
  0
SOLID
  5
1A445
  8
寸法線
  6
CONTINUOUS
 62
     0
 10
203.4130532291806
 20
7.454442382001815
 30
0.0
 11
203.3144917519116
 21
7.581274310426168
 31
0.0
 12
203.4130532291806
 22
7.590981768639349
 32
0.0
 13
203.4130532291806
 23
7.590981768639349
 33
0.0
  0
SOLID
  5
1A446
  8
寸法線
  6
CONTINUOUS
 62
     0
 10
203.3144917519116
 20
9.581533878641453
 30
0.0
 11
203.3144917519116
 21
9.970511260778096
 31
0.0
 12
203.4130532291806
 22
9.591241336854637
 32
0.0
 13
203.4130532291806
 23
9.591241336854637
 33
0.0
  0
SOLID
  5
1A447
  8
寸法線
  6
CONTINUOUS
 62
     0
 10
203.4130532291806
 20
9.591241336854637
 30
0.0
 11
203.3144917519116
 21
9.970511260778096
 31
0.0
 12
203.4130532291806
 22
9.980218718991289
 32
0.0
 13
203.4130532291806
 23
9.980218718991289
 33
0.0
  0
SOLID
  5
1A448
  8
寸法線
  6
CONTINUOUS
 62
     0
 10
203.3144917519116
 20
13.93331896954028
 30
0.0
 11
203.3144917519116
 21
14.06220703348804
 31
0.0
 12
203.4130532291806
 22
13.93331896954028
 32
0.0
 13
203.4130532291806
 23
13.93331896954028
 33
0.0
  0
SOLID
  5
1A449
  8
寸法線
  6
CONTINUOUS
 62
     0
 10
203.4130532291806
 20
13.93331896954028
 30
0.0
 11
203.3144917519116
 21
14.06220703348804
 31
0.0
 12
203.4130532291806
 22
14.05918707646599
 32
0.0
 13
203.4130532291806
 23
14.05918707646599
 33
0.0
  0
SOLID
  5
1A44A
  8
寸法線
  6
CONTINUOUS
 62
     0
 10
203.4130532291806
 20
7.454442382001815
 30
0.0
 11
203.4130532291806
 21
7.590981768639349
 31
0.0
 12
203.4608833766636
 22
7.456642356225181
 32
0.0
 13
203.4608833766636
 23
7.456642356225181
 33
0.0
  0
SOLID
  5
1A44B
  8
寸法線
  6
CONTINUOUS
 62
     0
 10
203.4608833766636
 20
7.456642356225181
 30
0.0
 11
203.4130532291806
 21
7.590981768639349
 31
0.0
 12
203.4608833766636
 22
7.595692626987725
 32
0.0
 13
203.4608833766636
 23
7.595692626987725
 33
0.0
  0
SOLID
  5
1A44C
  8
寸法線
  6
CONTINUOUS
 62
     0
 10
203.4130532291806
 20
9.591241336854637
 30
0.0
 11
203.4130532291806
 21
9.980218718991289
 31
0.0
 12
203.4608833766636
 22
9.595952195203013
 32
0.0
 13
203.4608833766636
 23
9.595952195203013
 33
0.0
  0
SOLID
  5
1A44D
  8
寸法線
  6
CONTINUOUS
 62
     0
 10
203.4608833766636
 20
9.595952195203013
 30
0.0
 11
203.4130532291806
 21
9.980218718991289
 31
0.0
 12
203.4608833766636
 22
9.98492957733967
 32
0.0
 13
203.4608833766636
 23
9.98492957733967
 33
0.0
  0
SOLID
  5
1A44E
  8
寸法線
  6
CONTINUOUS
 62
     0
 10
203.4130532291806
 20
13.93331896954028
 30
0.0
 11
203.4130532291806
 21
14.05918707646599
 31
0.0
 12
203.4608833766636
 22
13.93331896954028
 32
0.0
 13
203.4608833766636
 23
13.93331896954028
 33
0.0
  0
SOLID
  5
1A44F
  8
寸法線
  6
CONTINUOUS
 62
     0
 10
203.4608833766636
 20
13.93331896954028
 30
0.0
 11
203.4130532291806
 21
14.05918707646599
 31
0.0
 12
203.4608833766636
 22
14.05698710224262
 32
0.0
 13
203.4608833766636
 23
14.05698710224262
 33
0.0
  0
SOLID
  5
1A450
  8
寸法線
  6
CONTINUOUS
 62
     0
 10
203.4608833766636
 20
7.456642356225181
 30
0.0
 11
203.4608833766636
 21
7.595692626987725
 31
0.0
 12
203.4680087555261
 22
7.456970091987126
 32
0.0
 13
203.4680087555261
 23
7.456970091987126
 33
0.0
  0
SOLID
  5
1A451
  8
寸法線
  6
CONTINUOUS
 62
     0
 10
203.4680087555261
 20
7.456970091987126
 30
0.0
 11
203.4608833766636
 21
7.595692626987725
 31
0.0
 12
203.4680087555261
 22
7.596394415551347
 32
0.0
 13
203.4680087555261
 23
7.596394415551347
 33
0.0
  0
SOLID
  5
1A452
  8
寸法線
  6
CONTINUOUS
 62
     0
 10
203.4608833766636
 20
9.595952195203013
 30
0.0
 11
203.4608833766636
 21
9.98492957733967
 31
0.0
 12
203.4680087555261
 22
9.596653983766636
 32
0.0
 13
203.4680087555261
 23
9.596653983766636
 33
0.0
  0
SOLID
  5
1A453
  8
寸法線
  6
CONTINUOUS
 62
     0
 10
203.4680087555261
 20
9.596653983766636
 30
0.0
 11
203.4608833766636
 21
9.98492957733967
 31
0.0
 12
203.4680087555261
 22
9.985631365903293
 32
0.0
 13
203.4680087555261
 23
9.985631365903293
 33
0.0
  0
SOLID
  5
1A454
  8
寸法線
  6
CONTINUOUS
 62
     0
 10
203.4608833766636
 20
13.93331896954028
 30
0.0
 11
203.4608833766636
 21
14.05698710224262
 31
0.0
 12
203.4680087555261
 22
13.93198700538921
 32
0.0
 13
203.4680087555261
 23
13.93198700538921
 33
0.0
  0
SOLID
  5
1A455
  8
寸法線
  6
CONTINUOUS
 62
     0
 10
203.4680087555261
 20
13.93198700538921
 30
0.0
 11
203.4608833766636
 21
14.05698710224262
 31
0.0
 12
203.4680087555261
 22
14.05665936648067
 32
0.0
 13
203.4680087555261
 23
14.05665936648067
 33
0.0
  0
SOLID
  5
1A456
  8
寸法線
  6
CONTINUOUS
 62
     0
 10
203.4680087555261
 20
7.456970091987126
 30
0.0
 11
203.4680087555261
 21
7.596394415551347
 31
0.0
 12
203.5115021179017
 22
7.45897059336856
 32
0.0
 13
203.5115021179017
 23
7.45897059336856
 33
0.0
  0
SOLID
  5
1A457
  8
寸法線
  6
CONTINUOUS
 62
     0
 10
203.5115021179017
 20
7.45897059336856
 30
0.0
 11
203.4680087555261
 21
7.596394415551347
 31
0.0
 12
203.5115021179017
 22
7.600678137848443
 32
0.0
 13
203.5115021179017
 23
7.600678137848443
 33
0.0
  0
SOLID
  5
1A458
  8
寸法線
  6
CONTINUOUS
 62
     0
 10
203.4680087555261
 20
9.596653983766636
 30
0.0
 11
203.4680087555261
 21
9.985631365903293
 31
0.0
 12
203.5115021179017
 22
9.600937706063732
 32
0.0
 13
203.5115021179017
 23
9.600937706063732
 33
0.0
  0
SOLID
  5
1A459
  8
寸法線
  6
CONTINUOUS
 62
     0
 10
203.5115021179017
 20
9.600937706063732
 30
0.0
 11
203.4680087555261
 21
9.985631365903293
 31
0.0
 12
203.5115021179017
 22
9.998824933138872
 32
0.0
 13
203.5115021179017
 23
9.998824933138872
 33
0.0
  0
SOLID
  5
1A45A
  8
寸法線
  6
CONTINUOUS
 62
     0
 10
203.4680087555261
 20
13.93198700538921
 30
0.0
 11
203.4680087555261
 21
14.05665936648067
 31
0.0
 12
203.5115021179017
 22
13.92385668690205
 32
0.0
 13
203.5115021179017
 23
13.92385668690205
 33
0.0
  0
SOLID
  5
1A45B
  8
寸法線
  6
CONTINUOUS
 62
     0
 10
203.5115021179017
 20
13.92385668690205
 30
0.0
 11
203.4680087555261
 21
14.05665936648067
 31
0.0
 12
203.5115021179017
 22
14.05465886509924
 32
0.0
 13
203.5115021179017
 23
14.05465886509924
 33
0.0
  0
SOLID
  5
1A45C
  8
寸法線
  6
CONTINUOUS
 62
     0
 10
203.5115021179017
 20
7.45897059336856
 30
0.0
 11
203.5115021179017
 21
7.600678137848443
 31
0.0
 12
203.5438944782641
 22
7.460959256743087
 32
0.0
 13
203.5438944782641
 23
7.460959256743087
 33
0.0
  0
SOLID
  5
1A45D
  8
寸法線
  6
CONTINUOUS
 62
     0
 10
203.5438944782641
 20
7.460959256743087
 30
0.0
 11
203.5115021179017
 21
7.600678137848443
 31
0.0
 12
203.5438944782641
 22
7.603868506878589
 32
0.0
 13
203.5438944782641
 23
7.603868506878589
 33
0.0
  0
SOLID
  5
1A45E
  8
寸法線
  6
CONTINUOUS
 62
     0
 10
203.5115021179017
 20
9.600937706063732
 30
0.0
 11
203.5115021179017
 21
9.998824933138872
 31
0.0
 12
203.5438944782641
 22
9.604128075093879
 32
0.0
 13
203.5438944782641
 23
9.604128075093879
 33
0.0
  0
SOLID
  5
1A45F
  8
寸法線
  6
CONTINUOUS
 62
     0
 10
203.5438944782641
 20
9.604128075093879
 30
0.0
 11
203.5115021179017
 21
9.998824933138872
 31
0.0
 12
203.5438944782641
 22
10.00865104822903
 32
0.0
 13
203.5438944782641
 23
10.00865104822903
 33
0.0
  0
SOLID
  5
1A460
  8
寸法線
  6
CONTINUOUS
 62
     0
 10
203.5115021179017
 20
13.92385668690205
 30
0.0
 11
203.5115021179017
 21
14.05465886509924
 31
0.0
 12
203.5438944782641
 22
13.91780150533151
 32
0.0
 13
203.5438944782641
 23
13.91780150533151
 33
0.0
  0
SOLID
  5
1A461
  8
寸法線
  6
CONTINUOUS
 62
     0
 10
203.5438944782641
 20
13.91780150533151
 30
0.0
 11
203.5115021179017
 21
14.05465886509924
 31
0.0
 12
203.5438944782641
 22
14.05267020172471
 32
0.0
 13
203.5438944782641
 23
14.05267020172471
 33
0.0
  0
SOLID
  5
1A462
  8
寸法線
  6
CONTINUOUS
 62
     0
 10
203.5438944782641
 20
7.460959256743087
 30
0.0
 11
203.5438944782641
 21
7.603868506878589
 31
0.0
 12
203.6097934546521
 22
7.465004990962369
 32
0.0
 13
203.6097934546521
 23
7.465004990962369
 33
0.0
  0
SOLID
  5
1A463
  8
寸法線
  6
CONTINUOUS
 62
     0
 10
203.6097934546521
 20
7.465004990962369
 30
0.0
 11
203.5438944782641
 21
7.603868506878589
 31
0.0
 12
203.6097934546521
 22
7.610358989542839
 32
0.0
 13
203.6097934546521
 23
7.610358989542839
 33
0.0
  0
SOLID
  5
1A464
  8
寸法線
  6
CONTINUOUS
 62
     0
 10
203.5438944782641
 20
9.604128075093879
 30
0.0
 11
203.5438944782641
 21
10.00865104822903
 31
0.0
 12
203.6097934546521
 22
9.624118311034286
 32
0.0
 13
203.6097934546521
 23
9.624118311034286
 33
0.0
  0
SOLID
  5
1A465
  8
寸法線
  6
CONTINUOUS
 62
     0
 10
203.6097934546521
 20
9.624118311034286
 30
0.0
 11
203.5438944782641
 21
10.00865104822903
 31
0.0
 12
203.6097934546521
 22
10.02864128416944
 32
0.0
 13
203.6097934546521
 23
10.02864128416944
 33
0.0
  0
SOLID
  5
1A466
  8
寸法線
  6
CONTINUOUS
 62
     0
 10
203.5438944782641
 20
13.91780150533151
 30
0.0
 11
203.5438944782641
 21
14.05267020172471
 31
0.0
 12
203.6097934546521
 22
13.90548285170835
 32
0.0
 13
203.6097934546521
 23
13.90548285170835
 33
0.0
  0
SOLID
  5
1A467
  8
寸法線
  6
CONTINUOUS
 62
     0
 10
203.6097934546521
 20
13.90548285170835
 30
0.0
 11
203.5438944782641
 21
14.05267020172471
 31
0.0
 12
203.6097934546521
 22
14.04862446750543
 32
0.0
 13
203.6097934546521
 23
14.04862446750543
 33
0.0
  0
SOLID
  5
1A468
  8
寸法線
  6
CONTINUOUS
 62
     0
 10
203.6097934546521
 20
7.465004990962369
 30
0.0
 11
203.6097934546521
 21
7.610358989542839
 31
0.0
 12
203.6253951321536
 22
7.466203931580695
 32
0.0
 13
203.6253951321536
 23
7.466203931580695
 33
0.0
  0
SOLID
  5
1A469
  8
寸法線
  6
CONTINUOUS
 62
     0
 10
203.6253951321536
 20
7.466203931580695
 30
0.0
 11
203.6097934546521
 21
7.610358989542839
 31
0.0
 12
203.6253951321536
 22
7.611895620654684
 32
0.0
 13
203.6253951321536
 23
7.611895620654684
 33
0.0
  0
SOLID
  5
1A46A
  8
寸法線
  6
CONTINUOUS
 62
     0
 10
203.6097934546521
 20
9.624118311034286
 30
0.0
 11
203.6097934546521
 21
10.02864128416944
 31
0.0
 12
203.6253951321536
 22
9.628851028163062
 32
0.0
 13
203.6253951321536
 23
9.628851028163062
 33
0.0
  0
SOLID
  5
1A46B
  8
寸法線
  6
CONTINUOUS
 62
     0
 10
203.6253951321536
 20
9.628851028163062
 30
0.0
 11
203.6097934546521
 21
10.02864128416944
 31
0.0
 12
203.6253951321536
 22
10.03337400129822
 32
0.0
 13
203.6253951321536
 23
10.03337400129822
 33
0.0
  0
SOLID
  5
1A46C
  8
寸法線
  6
CONTINUOUS
 62
     0
 10
203.6097934546521
 20
13.90548285170835
 30
0.0
 11
203.6097934546521
 21
14.04862446750543
 31
0.0
 12
203.6253951321536
 22
13.9025663927341
 32
0.0
 13
203.6253951321536
 23
13.9025663927341
 33
0.0
  0
SOLID
  5
1A46D
  8
寸法線
  6
CONTINUOUS
 62
     0
 10
203.6253951321536
 20
13.9025663927341
 30
0.0
 11
203.6097934546521
 21
14.04862446750543
 31
0.0
 12
203.6253951321536
 22
14.0474255268871
 32
0.0
 13
203.6253951321536
 23
14.0474255268871
 33
0.0
  0
SOLID
  5
1A46E
  8
寸法線
  6
CONTINUOUS
 62
     0
 10
203.6253951321536
 20
7.466203931580695
 30
0.0
 11
203.6253951321536
 21
7.611895620654684
 31
0.0
 12
203.7078823479658
 22
7.472542818762591
 32
0.0
 13
203.7078823479658
 23
7.472542818762591
 33
0.0
  0
SOLID
  5
1A46F
  8
寸法線
  6
CONTINUOUS
 62
     0
 10
203.7078823479658
 20
7.472542818762591
 30
0.0
 11
203.6253951321536
 21
7.611895620654684
 31
0.0
 12
203.7078823479658
 22
7.62001990229906
 32
0.0
 13
203.7078823479658
 23
7.62001990229906
 33
0.0
  0
SOLID
  5
1A470
  8
寸法線
  6
CONTINUOUS
 62
     0
 10
203.6253951321536
 20
9.628851028163062
 30
0.0
 11
203.6253951321536
 21
10.03337400129822
 31
0.0
 12
203.7078823479658
 22
9.653873251519723
 32
0.0
 13
203.7078823479658
 23
9.653873251519723
 33
0.0
  0
SOLID
  5
1A471
  8
寸法線
  6
CONTINUOUS
 62
     0
 10
203.7078823479658
 20
9.653873251519723
 30
0.0
 11
203.6253951321536
 21
10.03337400129822
 31
0.0
 12
203.7078823479658
 22
10.07746433672346
 32
0.0
 13
203.7078823479658
 23
10.07746433672346
 33
0.0
  0
SOLID
  5
1A472
  8
寸法線
  6
CONTINUOUS
 62
     0
 10
203.6253951321536
 20
13.9025663927341
 30
0.0
 11
203.6253951321536
 21
14.0474255268871
 31
0.0
 12
203.7078823479658
 22
13.88714685975155
 32
0.0
 13
203.7078823479658
 23
13.88714685975155
 33
0.0
  0
SOLID
  5
1A473
  8
寸法線
  6
CONTINUOUS
 62
     0
 10
203.7078823479658
 20
13.88714685975155
 30
0.0
 11
203.6253951321536
 21
14.0474255268871
 31
0.0
 12
203.7078823479658
 22
14.04108663970521
 32
0.0
 13
203.7078823479658
 23
14.04108663970521
 33
0.0
  0
SOLID
  5
1A474
  8
寸法線
  6
CONTINUOUS
 62
     0
 10
203.7078823479658
 20
7.472542818762591
 30
0.0
 11
203.7078823479658
 21
7.62001990229906
 31
0.0
 12
203.7704432475727
 22
7.478321685464289
 32
0.0
 13
203.7704432475727
 23
7.478321685464289
 33
0.0
  0
SOLID
  5
1A475
  8
寸法線
  6
CONTINUOUS
 62
     0
 10
203.7704432475727
 20
7.478321685464289
 30
0.0
 11
203.7078823479658
 21
7.62001990229906
 31
0.0
 12
203.7704432475727
 22
7.626181613096624
 32
0.0
 13
203.7704432475727
 23
7.626181613096624
 33
0.0
  0
SOLID
  5
1A476
  8
寸法線
  6
CONTINUOUS
 62
     0
 10
203.7078823479658
 20
9.653873251519723
 30
0.0
 11
203.7078823479658
 21
10.07746433672346
 31
0.0
 12
203.7704432475727
 22
9.67285089293895
 32
0.0
 13
203.7704432475727
 23
9.67285089293895
 33
0.0
  0
SOLID
  5
1A477
  8
寸法線
  6
CONTINUOUS
 62
     0
 10
203.7704432475727
 20
9.67285089293895
 30
0.0
 11
203.7078823479658
 21
10.07746433672346
 31
0.0
 12
203.7704432475727
 22
10.11090383423841
 32
0.0
 13
203.7704432475727
 23
10.11090383423841
 33
0.0
  0
SOLID
  5
1A478
  8
寸法線
  6
CONTINUOUS
 62
     0
 10
203.7078823479658
 20
13.88714685975155
 30
0.0
 11
203.7078823479658
 21
14.04108663970521
 31
0.0
 12
203.7704432475727
 22
13.87545220082281
 32
0.0
 13
203.7704432475727
 23
13.87545220082281
 33
0.0
  0
SOLID
  5
1A479
  8
寸法線
  6
CONTINUOUS
 62
     0
 10
203.7704432475727
 20
13.87545220082281
 30
0.0
 11
203.7078823479658
 21
14.04108663970521
 31
0.0
 12
203.7704432475727
 22
14.03530777300351
 32
0.0
 13
203.7704432475727
 23
14.03530777300351
 33
0.0
  0
SOLID
  5
1A47A
  8
寸法線
  6
CONTINUOUS
 62
     0
 10
203.7704432475727
 20
7.478321685464289
 30
0.0
 11
203.7704432475727
 21
7.626181613096624
 31
0.0
 12
203.774250331862
 22
7.47867335292381
 32
0.0
 13
203.774250331862
 23
7.47867335292381
 33
0.0
  0
SOLID
  5
1A47B
  8
寸法線
  6
CONTINUOUS
 62
     0
 10
203.774250331862
 20
7.47867335292381
 30
0.0
 11
203.7704432475727
 21
7.626181613096624
 31
0.0
 12
203.774250331862
 22
7.626556578170979
 32
0.0
 13
203.774250331862
 23
7.626556578170979
 33
0.0
  0
SOLID
  5
1A47C
  8
寸法線
  6
CONTINUOUS
 62
     0
 10
203.7704432475727
 20
9.67285089293895
 30
0.0
 11
203.7704432475727
 21
10.11090383423841
 31
0.0
 12
203.774250331862
 22
9.67400575933233
 32
0.0
 13
203.774250331862
 23
9.67400575933233
 33
0.0
  0
SOLID
  5
1A47D
  8
寸法線
  6
CONTINUOUS
 62
     0
 10
203.774250331862
 20
9.67400575933233
 30
0.0
 11
203.7704432475727
 21
10.11090383423841
 31
0.0
 12
203.774250331862
 22
10.11402822756956
 32
0.0
 13
203.774250331862
 23
10.11402822756956
 33
0.0
  0
SOLID
  5
1A47E
  8
寸法線
  6
CONTINUOUS
 62
     0
 10
203.7704432475727
 20
13.87545220082281
 30
0.0
 11
203.7704432475727
 21
14.03530777300351
 31
0.0
 12
203.774250331862
 22
13.87474053343062
 32
0.0
 13
203.774250331862
 23
13.87474053343062
 33
0.0
  0
SOLID
  5
1A47F
  8
寸法線
  6
CONTINUOUS
 62
     0
 10
203.774250331862
 20
13.87474053343062
 30
0.0
 11
203.7704432475727
 21
14.03530777300351
 31
0.0
 12
203.774250331862
 22
14.03495610554399
 32
0.0
 13
203.774250331862
 23
14.03495610554399
 33
0.0
  0
SOLID
  5
1A480
  8
寸法線
  6
CONTINUOUS
 62
     0
 10
203.774250331862
 20
7.47867335292381
 30
0.0
 11
203.774250331862
 21
7.626556578170979
 31
0.0
 12
203.7888970251063
 22
7.480026295231412
 32
0.0
 13
203.7888970251063
 23
7.480026295231412
 33
0.0
  0
SOLID
  5
1A481
  8
寸法線
  6
CONTINUOUS
 62
     0
 10
203.7888970251063
 20
7.480026295231412
 30
0.0
 11
203.774250331862
 21
7.626556578170979
 31
0.0
 12
203.7888970251063
 22
7.627999151543156
 32
0.0
 13
203.7888970251063
 23
7.627999151543156
 33
0.0
  0
SOLID
  5
1A482
  8
寸法線
  6
CONTINUOUS
 62
     0
 10
203.774250331862
 20
9.67400575933233
 30
0.0
 11
203.774250331862
 21
10.11402822756956
 31
0.0
 12
203.7888970251063
 22
9.681834579976288
 32
0.0
 13
203.7888970251063
 23
9.681834579976288
 33
0.0
  0
SOLID
  5
1A483
  8
寸法線
  6
CONTINUOUS
 62
     0
 10
203.7888970251063
 20
9.681834579976288
 30
0.0
 11
203.774250331862
 21
10.11402822756956
 31
0.0
 12
203.7888970251063
 22
10.12604845807096
 32
0.0
 13
203.7888970251063
 23
10.12604845807096
 33
0.0
  0
SOLID
  5
1A484
  8
寸法線
  6
CONTINUOUS
 62
     0
 10
203.774250331862
 20
13.87474053343062
 30
0.0
 11
203.774250331862
 21
14.03495610554399
 31
0.0
 12
203.7888970251063
 22
13.87200259195275
 32
0.0
 13
203.7888970251063
 23
13.87200259195275
 33
0.0
  0
SOLID
  5
1A485
  8
寸法線
  6
CONTINUOUS
 62
     0
 10
203.7888970251063
 20
13.87200259195275
 30
0.0
 11
203.774250331862
 21
14.03495610554399
 31
0.0
 12
203.7888970251063
 22
14.03360316323639
 32
0.0
 13
203.7888970251063
 23
14.03360316323639
 33
0.0
  0
SOLID
  5
1A486
  8
寸法線
  6
CONTINUOUS
 62
     0
 10
203.7888970251063
 20
7.480026295231412
 30
0.0
 11
203.7888970251063
 21
7.627999151543156
 31
0.0
 12
203.8057239988366
 22
7.481580634104276
 32
0.0
 13
203.8057239988366
 23
7.481580634104276
 33
0.0
  0
SOLID
  5
1A487
  8
寸法線
  6
CONTINUOUS
 62
     0
 10
203.8057239988366
 20
7.481580634104276
 30
0.0
 11
203.7888970251063
 21
7.627999151543156
 31
0.0
 12
203.8057239988366
 22
7.633103558219382
 32
0.0
 13
203.8057239988366
 23
7.633103558219382
 33
0.0
  0
SOLID
  5
1A488
  8
寸法線
  6
CONTINUOUS
 62
     0
 10
203.7888970251063
 20
9.681834579976288
 30
0.0
 11
203.7888970251063
 21
10.12604845807096
 31
0.0
 12
203.8057239988366
 22
9.690828784819471
 32
0.0
 13
203.8057239988366
 23
9.690828784819471
 33
0.0
  0
SOLID
  5
1A489
  8
寸法線
  6
CONTINUOUS
 62
     0
 10
203.8057239988366
 20
9.690828784819471
 30
0.0
 11
203.7888970251063
 21
10.12604845807096
 31
0.0
 12
203.8057239988366
 22
10.13985799852523
 32
0.0
 13
203.8057239988366
 23
10.13985799852523
 33
0.0
  0
SOLID
  5
1A48A
  8
寸法線
  6
CONTINUOUS
 62
     0
 10
203.7888970251063
 20
13.87200259195275
 30
0.0
 11
203.7888970251063
 21
14.03360316323639
 31
0.0
 12
203.8057239988366
 22
13.86885708541727
 32
0.0
 13
203.8057239988366
 23
13.86885708541727
 33
0.0
  0
SOLID
  5
1A48B
  8
寸法線
  6
CONTINUOUS
 62
     0
 10
203.8057239988366
 20
13.86885708541727
 30
0.0
 11
203.7888970251063
 21
14.03360316323639
 31
0.0
 12
203.8057239988366
 22
14.03204882436352
 32
0.0
 13
203.8057239988366
 23
14.03204882436352
 33
0.0
  0
SOLID
  5
1A48C
  8
寸法線
  6
CONTINUOUS
 62
     0
 10
203.8057239988366
 20
7.481580634104276
 30
0.0
 11
203.8057239988366
 21
7.633103558219382
 31
0.0
 12
203.8975789840518
 22
7.491499376583405
 32
0.0
 13
203.8975789840518
 23
7.491499376583405
 33
0.0
  0
SOLID
  5
1A48D
  8
寸法線
  6
CONTINUOUS
 62
     0
 10
203.8975789840518
 20
7.491499376583405
 30
0.0
 11
203.8057239988366
 21
7.633103558219382
 31
0.0
 12
203.8975789840518
 22
7.660967463357207
 32
0.0
 13
203.8975789840518
 23
7.660967463357207
 33
0.0
  0
SOLID
  5
1A48E
  8
寸法線
  6
CONTINUOUS
 62
     0
 10
203.8057239988366
 20
9.690828784819471
 30
0.0
 11
203.8057239988366
 21
10.13985799852523
 31
0.0
 12
203.8975789840518
 22
9.73992629730958
 32
0.0
 13
203.8975789840518
 23
9.73992629730958
 33
0.0
  0
SOLID
  5
1A48F
  8
寸法線
  6
CONTINUOUS
 62
     0
 10
203.8975789840518
 20
9.73992629730958
 30
0.0
 11
203.8057239988366
 21
10.13985799852523
 31
0.0
 12
203.8975789840518
 22
10.21524143672322
 32
0.0
 13
203.8975789840518
 23
10.21524143672322
 33
0.0
  0
SOLID
  5
1A490
  8
寸法線
  6
CONTINUOUS
 62
     0
 10
203.8057239988366
 20
13.86885708541727
 30
0.0
 11
203.8057239988366
 21
14.03204882436352
 31
0.0
 12
203.8975789840518
 22
13.85168641284468
 32
0.0
 13
203.8975789840518
 23
13.85168641284468
 33
0.0
  0
SOLID
  5
1A491
  8
寸法線
  6
CONTINUOUS
 62
     0
 10
203.8975789840518
 20
13.85168641284468
 30
0.0
 11
203.8057239988366
 21
14.03204882436352
 31
0.0
 12
203.8975789840518
 22
14.02213008188439
 32
0.0
 13
203.8975789840518
 23
14.02213008188439
 33
0.0
  0
SOLID
  5
1A492
  8
寸法線
  6
CONTINUOUS
 62
     0
 10
203.8975789840518
 20
7.491499376583405
 30
0.0
 11
203.8975789840518
 21
7.660967463357207
 31
0.0
 12
203.9032737211784
 22
7.492114309250507
 32
0.0
 13
203.9032737211784
 23
7.492114309250507
 33
0.0
  0
SOLID
  5
1A493
  8
寸法線
  6
CONTINUOUS
 62
     0
 10
203.9032737211784
 20
7.492114309250507
 30
0.0
 11
203.8975789840518
 21
7.660967463357207
 31
0.0
 12
203.9032737211784
 22
7.662694942978574
 32
0.0
 13
203.9032737211784
 23
7.662694942978574
 33
0.0
  0
SOLID
  5
1A494
  8
寸法線
  6
CONTINUOUS
 62
     0
 10
203.8975789840518
 20
9.73992629730958
 30
0.0
 11
203.8975789840518
 21
10.21524143672322
 31
0.0
 12
203.9032737211784
 22
9.742970197720055
 32
0.0
 13
203.9032737211784
 23
9.742970197720055
 33
0.0
  0
SOLID
  5
1A495
  8
寸法線
  6
CONTINUOUS
 62
     0
 10
203.9032737211784
 20
9.742970197720055
 30
0.0
 11
203.8975789840518
 21
10.21524143672322
 31
0.0
 12
203.9032737211784
 22
10.22218049398926
 32
0.0
 13
203.9032737211784
 23
10.22218049398926
 33
0.0
  0
SOLID
  5
1A496
  8
寸法線
  6
CONTINUOUS
 62
     0
 10
203.8975789840518
 20
13.85168641284468
 30
0.0
 11
203.8975789840518
 21
14.02213008188439
 31
0.0
 12
203.9032737211784
 22
13.85062188198271
 32
0.0
 13
203.9032737211784
 23
13.85062188198271
 33
0.0
  0
SOLID
  5
1A497
  8
寸法線
  6
CONTINUOUS
 62
     0
 10
203.9032737211784
 20
13.85062188198271
 30
0.0
 11
203.8975789840518
 21
14.02213008188439
 31
0.0
 12
203.9032737211784
 22
14.02151514921729
 32
0.0
 13
203.9032737211784
 23
14.02151514921729
 33
0.0
  0
SOLID
  5
1A498
  8
寸法線
  6
CONTINUOUS
 62
     0
 10
203.9032737211784
 20
7.492114309250507
 30
0.0
 11
203.9032737211784
 21
7.662694942978574
 31
0.0
 12
203.9865475024057
 22
7.502414801519629
 32
0.0
 13
203.9865475024057
 23
7.502414801519629
 33
0.0
  0
SOLID
  5
1A499
  8
寸法線
  6
CONTINUOUS
 62
     0
 10
203.9865475024057
 20
7.502414801519629
 30
0.0
 11
203.9032737211784
 21
7.662694942978574
 31
0.0
 12
203.9865475024057
 22
7.687955768345315
 32
0.0
 13
203.9865475024057
 23
7.687955768345315
 33
0.0
  0
SOLID
  5
1A49A
  8
寸法線
  6
CONTINUOUS
 62
     0
 10
203.9032737211784
 20
9.742970197720055
 30
0.0
 11
203.9032737211784
 21
10.22218049398926
 31
0.0
 12
203.9865475024057
 22
9.787480961118773
 32
0.0
 13
203.9865475024057
 23
9.787480961118773
 33
0.0
  0
SOLID
  5
1A49B
  8
寸法線
  6
CONTINUOUS
 62
     0
 10
203.9865475024057
 20
9.787480961118773
 30
0.0
 11
203.9032737211784
 21
10.22218049398926
 31
0.0
 12
203.9865475024057
 22
10.32364989000376
 32
0.0
 13
203.9865475024057
 23
10.32364989000376
 33
0.0
  0
SOLID
  5
1A49C
  8
寸法線
  6
CONTINUOUS
 62
     0
 10
203.9032737211784
 20
13.85062188198271
 30
0.0
 11
203.9032737211784
 21
14.02151514921729
 31
0.0
 12
203.9865475024057
 22
13.83505531444165
 32
0.0
 13
203.9865475024057
 23
13.83505531444165
 33
0.0
  0
SOLID
  5
1A49D
  8
寸法線
  6
CONTINUOUS
 62
     0
 10
203.9865475024057
 20
13.83505531444165
 30
0.0
 11
203.9032737211784
 21
14.02151514921729
 31
0.0
 12
203.9865475024057
 22
14.01121465694817
 32
0.0
 13
203.9865475024057
 23
14.01121465694817
 33
0.0
  0
SOLID
  5
1A49E
  8
寸法線
  6
CONTINUOUS
 62
     0
 10
203.9865475024057
 20
7.502414801519629
 30
0.0
 11
203.9865475024057
 21
7.687955768345315
 31
0.0
 12
204.0004869622342
 22
7.504139033277609
 32
0.0
 13
204.0004869622342
 23
7.504139033277609
 33
0.0
  0
SOLID
  5
1A49F
  8
寸法線
  6
CONTINUOUS
 62
     0
 10
204.0004869622342
 20
7.504139033277609
 30
0.0
 11
203.9865475024057
 21
7.687955768345315
 31
0.0
 12
204.0004869622342
 22
7.692184257255565
 32
0.0
 13
204.0004869622342
 23
7.692184257255565
 33
0.0
  0
SOLID
  5
1A4A0
  8
寸法線
  6
CONTINUOUS
 62
     0
 10
203.9865475024057
 20
9.787480961118773
 30
0.0
 11
203.9865475024057
 21
10.32364989000376
 31
0.0
 12
204.0004869622342
 22
9.798920780155624
 32
0.0
 13
204.0004869622342
 23
9.798920780155624
 33
0.0
  0
SOLID
  5
1A4A1
  8
寸法線
  6
CONTINUOUS
 62
     0
 10
204.0004869622342
 20
9.798920780155624
 30
0.0
 11
203.9865475024057
 21
10.32364989000376
 31
0.0
 12
204.0004869622342
 22
10.34063517094957
 32
0.0
 13
204.0004869622342
 23
10.34063517094957
 33
0.0
  0
SOLID
  5
1A4A2
  8
寸法線
  6
CONTINUOUS
 62
     0
 10
203.9865475024057
 20
13.83505531444165
 30
0.0
 11
203.9865475024057
 21
14.01121465694817
 31
0.0
 12
204.0004869622342
 22
13.83244957780152
 32
0.0
 13
204.0004869622342
 23
13.83244957780152
 33
0.0
  0
SOLID
  5
1A4A3
  8
寸法線
  6
CONTINUOUS
 62
     0
 10
204.0004869622342
 20
13.83244957780152
 30
0.0
 11
203.9865475024057
 21
14.01121465694817
 31
0.0
 12
204.0004869622342
 22
14.00949042519019
 32
0.0
 13
204.0004869622342
 23
14.00949042519019
 33
0.0
  0
SOLID
  5
1A4A4
  8
寸法線
  6
CONTINUOUS
 62
     0
 10
204.0004869622342
 20
7.504139033277609
 30
0.0
 11
204.0004869622342
 21
7.692184257255565
 31
0.0
 12
204.0019165865366
 22
7.504338497856446
 32
0.0
 13
204.0019165865366
 23
7.504338497856446
 33
0.0
  0
SOLID
  5
1A4A5
  8
寸法線
  6
CONTINUOUS
 62
     0
 10
204.0019165865366
 20
7.504338497856446
 30
0.0
 11
204.0004869622342
 21
7.692184257255565
 31
0.0
 12
204.0019165865366
 22
7.692617929046513
 32
0.0
 13
204.0019165865366
 23
7.692617929046513
 33
0.0
  0
SOLID
  5
1A4A6
  8
寸法線
  6
CONTINUOUS
 62
     0
 10
204.0004869622342
 20
9.798920780155624
 30
0.0
 11
204.0004869622342
 21
10.34063517094957
 31
0.0
 12
204.0019165865366
 22
9.800094042499484
 32
0.0
 13
204.0019165865366
 23
9.800094042499484
 33
0.0
  0
SOLID
  5
1A4A7
  8
寸法線
  6
CONTINUOUS
 62
     0
 10
204.0019165865366
 20
9.800094042499484
 30
0.0
 11
204.0004869622342
 21
10.34063517094957
 31
0.0
 12
204.0019165865366
 22
10.34237717320235
 32
0.0
 13
204.0019165865366
 23
10.34237717320235
 33
0.0
  0
SOLID
  5
1A4A8
  8
寸法線
  6
CONTINUOUS
 62
     0
 10
204.0004869622342
 20
13.83244957780152
 30
0.0
 11
204.0004869622342
 21
14.00949042519019
 31
0.0
 12
204.0019165865366
 22
13.8321823347037
 32
0.0
 13
204.0019165865366
 23
13.8321823347037
 33
0.0
  0
SOLID
  5
1A4A9
  8
寸法線
  6
CONTINUOUS
 62
     0
 10
204.0019165865366
 20
13.8321823347037
 30
0.0
 11
204.0004869622342
 21
14.00949042519019
 31
0.0
 12
204.0019165865366
 22
14.00929096061135
 32
0.0
 13
204.0019165865366
 23
14.00929096061135
 33
0.0
  0
SOLID
  5
1A4AA
  8
寸法線
  6
CONTINUOUS
 62
     0
 10
204.0019165865366
 20
7.504338497856446
 30
0.0
 11
204.0019165865366
 21
7.692617929046513
 31
0.0
 12
204.0395526912407
 22
7.509589576591666
 32
0.0
 13
204.0395526912407
 23
7.509589576591666
 33
0.0
  0
SOLID
  5
1A4AB
  8
寸法線
  6
CONTINUOUS
 62
     0
 10
204.0395526912407
 20
7.509589576591666
 30
0.0
 11
204.0019165865366
 21
7.692617929046513
 31
0.0
 12
204.0395526912407
 22
7.704034716592388
 32
0.0
 13
204.0395526912407
 23
7.704034716592388
 33
0.0
  0
SOLID
  5
1A4AC
  8
寸法線
  6
CONTINUOUS
 62
     0
 10
204.0019165865366
 20
9.800094042499484
 30
0.0
 11
204.0019165865366
 21
10.34237717320235
 31
0.0
 12
204.0395526912407
 22
9.830981195399517
 32
0.0
 13
204.0395526912407
 23
9.830981195399517
 33
0.0
  0
SOLID
  5
1A4AD
  8
寸法線
  6
CONTINUOUS
 62
     0
 10
204.0395526912407
 20
9.830981195399517
 30
0.0
 11
204.0019165865366
 21
10.34237717320235
 31
0.0
 12
204.0395526912407
 22
10.41278937263596
 32
0.0
 13
204.0395526912407
 23
10.41278937263596
 33
0.0
  0
SOLID
  5
1A4AE
  8
寸法線
  6
CONTINUOUS
 62
     0
 10
204.0019165865366
 20
13.8321823347037
 30
0.0
 11
204.0019165865366
 21
14.00929096061135
 31
0.0
 12
204.0395526912407
 22
13.82514692743356
 32
0.0
 13
204.0395526912407
 23
13.82514692743356
 33
0.0
  0
SOLID
  5
1A4AF
  8
寸法線
  6
CONTINUOUS
 62
     0
 10
204.0395526912407
 20
13.82514692743356
 30
0.0
 11
204.0019165865366
 21
14.00929096061135
 31
0.0
 12
204.0395526912407
 22
14.00403988187613
 32
0.0
 13
204.0395526912407
 23
14.00403988187613
 33
0.0
  0
SOLID
  5
1A4B0
  8
寸法線
  6
CONTINUOUS
 62
     0
 10
204.0395526912407
 20
7.509589576591666
 30
0.0
 11
204.0395526912407
 21
7.704034716592388
 31
0.0
 12
204.0794464194768
 22
7.515155644325207
 32
0.0
 13
204.0794464194768
 23
7.515155644325207
 33
0.0
  0
SOLID
  5
1A4B1
  8
寸法線
  6
CONTINUOUS
 62
     0
 10
204.0794464194768
 20
7.515155644325207
 30
0.0
 11
204.0395526912407
 21
7.704034716592388
 31
0.0
 12
204.0794464194768
 22
7.716136346749553
 32
0.0
 13
204.0794464194768
 23
7.716136346749553
 33
0.0
  0
SOLID
  5
1A4B2
  8
寸法線
  6
CONTINUOUS
 62
     0
 10
204.0395526912407
 20
9.830981195399517
 30
0.0
 11
204.0395526912407
 21
10.41278937263596
 31
0.0
 12
204.0794464194768
 22
9.86372113205
 32
0.0
 13
204.0794464194768
 23
9.86372113205
 33
0.0
  0
SOLID
  5
1A4B3
  8
寸法線
  6
CONTINUOUS
 62
     0
 10
204.0794464194768
 20
9.86372113205
 30
0.0
 11
204.0395526912407
 21
10.41278937263596
 31
0.0
 12
204.0794464194768
 22
10.48742528862145
 32
0.0
 13
204.0794464194768
 23
10.48742528862145
 33
0.0
  0
SOLID
  5
1A4B4
  8
寸法線
  6
CONTINUOUS
 62
     0
 10
204.0395526912407
 20
13.82514692743356
 30
0.0
 11
204.0395526912407
 21
14.00403988187613
 31
0.0
 12
204.0794464194768
 22
13.8096920147788
 32
0.0
 13
204.0794464194768
 23
13.8096920147788
 33
0.0
  0
SOLID
  5
1A4B5
  8
寸法線
  6
CONTINUOUS
 62
     0
 10
204.0794464194768
 20
13.8096920147788
 30
0.0
 11
204.0395526912407
 21
14.00403988187613
 31
0.0
 12
204.0794464194768
 22
13.99847381414259
 32
0.0
 13
204.0794464194768
 23
13.99847381414259
 33
0.0
  0
SOLID
  5
1A4B6
  8
寸法線
  6
CONTINUOUS
 62
     0
 10
204.0794464194768
 20
7.515155644325207
 30
0.0
 11
204.0794464194768
 21
7.716136346749553
 31
0.0
 12
204.0973193229242
 22
7.51764931427239
 32
0.0
 13
204.0973193229242
 23
7.51764931427239
 33
0.0
  0
SOLID
  5
1A4B7
  8
寸法線
  6
CONTINUOUS
 62
     0
 10
204.0973193229242
 20
7.51764931427239
 30
0.0
 11
204.0794464194768
 21
7.716136346749553
 31
0.0
 12
204.0973193229242
 22
7.721558032736772
 32
0.0
 13
204.0973193229242
 23
7.721558032736772
 33
0.0
  0
SOLID
  5
1A4B8
  8
寸法線
  6
CONTINUOUS
 62
     0
 10
204.0794464194768
 20
9.86372113205
 30
0.0
 11
204.0794464194768
 21
10.48742528862145
 31
0.0
 12
204.0973193229242
 22
9.878389044839853
 32
0.0
 13
204.0973193229242
 23
9.878389044839853
 33
0.0
  0
SOLID
  5
1A4B9
  8
寸法線
  6
CONTINUOUS
 62
     0
 10
204.0973193229242
 20
9.878389044839853
 30
0.0
 11
204.0794464194768
 21
10.48742528862145
 31
0.0
 12
204.0973193229242
 22
10.54634435519868
 32
0.0
 13
204.0973193229242
 23
10.54634435519868
 33
0.0
  0
SOLID
  5
1A4BA
  8
寸法線
  6
CONTINUOUS
 62
     0
 10
204.0794464194768
 20
13.8096920147788
 30
0.0
 11
204.0794464194768
 21
13.99847381414259
 31
0.0
 12
204.0973193229242
 22
13.80276801509562
 32
0.0
 13
204.0973193229242
 23
13.80276801509562
 33
0.0
  0
SOLID
  5
1A4BB
  8
寸法線
  6
CONTINUOUS
 62
     0
 10
204.0973193229242
 20
13.80276801509562
 30
0.0
 11
204.0794464194768
 21
13.99847381414259
 31
0.0
 12
204.0973193229242
 22
13.9959801441954
 32
0.0
 13
204.0973193229242
 23
13.9959801441954
 33
0.0
  0
SOLID
  5
1A4BC
  8
寸法線
  6
CONTINUOUS
 62
     0
 10
204.0973193229242
 20
7.51764931427239
 30
0.0
 11
204.0973193229242
 21
7.721558032736772
 31
0.0
 12
204.1271890548717
 22
7.522293543083914
 32
0.0
 13
204.1271890548717
 23
7.522293543083914
 33
0.0
  0
SOLID
  5
1A4BD
  8
寸法線
  6
CONTINUOUS
 62
     0
 10
204.1271890548717
 20
7.522293543083914
 30
0.0
 11
204.0973193229242
 21
7.721558032736772
 31
0.0
 12
204.1271890548717
 22
7.730618916863282
 32
0.0
 13
204.1271890548717
 23
7.730618916863282
 33
0.0
  0
SOLID
  5
1A4BE
  8
寸法線
  6
CONTINUOUS
 62
     0
 10
204.0973193229242
 20
9.878389044839853
 30
0.0
 11
204.0973193229242
 21
10.54634435519868
 31
0.0
 12
204.1271890548717
 22
9.902902500336893
 32
0.0
 13
204.1271890548717
 23
9.902902500336893
 33
0.0
  0
SOLID
  5
1A4BF
  8
寸法線
  6
CONTINUOUS
 62
     0
 10
204.1271890548717
 20
9.902902500336893
 30
0.0
 11
204.0973193229242
 21
10.54634435519868
 31
0.0
 12
204.1271890548717
 22
10.64481166524889
 32
0.0
 13
204.1271890548717
 23
10.64481166524889
 33
0.0
  0
SOLID
  5
1A4C0
  8
寸法線
  6
CONTINUOUS
 62
     0
 10
204.0973193229242
 20
13.80276801509562
 30
0.0
 11
204.0973193229242
 21
13.99598014419541
 31
0.0
 12
204.1271890548717
 22
13.79119641929146
 32
0.0
 13
204.1271890548717
 23
13.79119641929146
 33
0.0
  0
SOLID
  5
1A4C1
  8
寸法線
  6
CONTINUOUS
 62
     0
 10
204.1271890548717
 20
13.79119641929146
 30
0.0
 11
204.0973193229242
 21
13.99598014419541
 31
0.0
 12
204.1271890548717
 22
13.99133591538388
 32
0.0
 13
204.1271890548717
 23
13.99133591538388
 33
0.0
  0
SOLID
  5
1A4C2
  8
寸法線
  6
CONTINUOUS
 62
     0
 10
204.1271890548717
 20
7.522293543083914
 30
0.0
 11
204.1271890548717
 21
7.730618916863282
 31
0.0
 12
204.1433097700174
 22
7.524800036609655
 32
0.0
 13
204.1433097700174
 23
7.524800036609655
 33
0.0
  0
SOLID
  5
1A4C3
  8
寸法線
  6
CONTINUOUS
 62
     0
 10
204.1433097700174
 20
7.524800036609655
 30
0.0
 11
204.1271890548717
 21
7.730618916863282
 31
0.0
 12
204.1433097700174
 22
7.735509082340105
 32
0.0
 13
204.1433097700174
 23
7.735509082340105
 33
0.0
  0
SOLID
  5
1A4C4
  8
寸法線
  6
CONTINUOUS
 62
     0
 10
204.1271890548717
 20
9.902902500336893
 30
0.0
 11
204.1271890548717
 21
10.64481166524889
 31
0.0
 12
204.1433097700174
 22
9.91613242934995
 32
0.0
 13
204.1433097700174
 23
9.91613242934995
 33
0.0
  0
SOLID
  5
1A4C5
  8
寸法線
  6
CONTINUOUS
 62
     0
 10
204.1433097700174
 20
9.91613242934995
 30
0.0
 11
204.1271890548717
 21
10.64481166524889
 31
0.0
 12
204.1433097700174
 22
10.80848803289302
 32
0.0
 13
204.1433097700174
 23
10.80848803289302
 33
0.0
  0
SOLID
  5
1A4C6
  8
寸法線
  6
CONTINUOUS
 62
     0
 10
204.1271890548717
 20
13.79119641929146
 30
0.0
 11
204.1271890548717
 21
13.99133591538388
 31
0.0
 12
204.1433097700174
 22
13.78495122097271
 32
0.0
 13
204.1433097700174
 23
13.78495122097271
 33
0.0
  0
SOLID
  5
1A4C7
  8
寸法線
  6
CONTINUOUS
 62
     0
 10
204.1433097700174
 20
13.78495122097271
 30
0.0
 11
204.1271890548717
 21
13.99133591538388
 31
0.0
 12
204.1433097700174
 22
13.98882942185814
 32
0.0
 13
204.1433097700174
 23
13.98882942185814
 33
0.0
  0
SOLID
  5
1A4C8
  8
寸法線
  6
CONTINUOUS
 62
     0
 10
204.1433097700174
 20
7.524800036609655
 30
0.0
 11
204.1433097700174
 21
7.735509082340105
 31
0.0
 12
204.1726275286888
 22
7.529358443084486
 32
0.0
 13
204.1726275286888
 23
7.529358443084486
 33
0.0
  0
SOLID
  5
1A4C9
  8
寸法線
  6
CONTINUOUS
 62
     0
 10
204.1726275286888
 20
7.529358443084486
 30
0.0
 11
204.1433097700174
 21
7.735509082340105
 31
0.0
 12
204.1726275286888
 22
7.744402527203865
 32
0.0
 13
204.1726275286888
 23
7.744402527203865
 33
0.0
  0
SOLID
  5
1A4CA
  8
寸法線
  6
CONTINUOUS
 62
     0
 10
204.1433097700174
 20
9.91613242934995
 30
0.0
 11
204.1433097700174
 21
11.93309618984693
 31
0.0
 12
204.1726275286888
 22
9.940192892086177
 32
0.0
 13
204.1726275286888
 23
9.940192892086177
 33
0.0
  0
SOLID
  5
1A4CB
  8
寸法線
  6
CONTINUOUS
 62
     0
 10
204.1726275286888
 20
9.940192892086177
 30
0.0
 11
204.1433097700174
 21
11.93309618984693
 31
0.0
 12
204.1726275286888
 22
11.93309618984693
 32
0.0
 13
204.1726275286888
 23
11.93309618984693
 33
0.0
  0
SOLID
  5
1A4CC
  8
寸法線
  6
CONTINUOUS
 62
     0
 10
204.1433097700174
 20
13.78495122097271
 30
0.0
 11
204.1433097700174
 21
13.98882942185814
 31
0.0
 12
204.1726275286888
 22
13.77359346075493
 32
0.0
 13
204.1726275286888
 23
13.77359346075493
 33
0.0
  0
SOLID
  5
1A4CD
  8
寸法線
  6
CONTINUOUS
 62
     0
 10
204.1726275286888
 20
13.77359346075493
 30
0.0
 11
204.1433097700174
 21
13.98882942185814
 31
0.0
 12
204.1726275286888
 22
13.98427101538331
 32
0.0
 13
204.1726275286888
 23
13.98427101538331
 33
0.0
  0
SOLID
  5
1A4CE
  8
寸法線
  6
CONTINUOUS
 62
     0
 10
204.1726275286888
 20
7.529358443084486
 30
0.0
 11
204.1726275286888
 21
7.744402527203865
 31
0.0
 12
204.1937265781239
 22
7.5326389818404
 32
0.0
 13
204.1937265781239
 23
7.5326389818404
 33
0.0
  0
SOLID
  5
1A4CF
  8
寸法線
  6
CONTINUOUS
 62
     0
 10
204.1937265781239
 20
7.5326389818404
 30
0.0
 11
204.1726275286888
 21
7.744402527203865
 31
0.0
 12
204.1937265781239
 22
7.750802853877285
 32
0.0
 13
204.1937265781239
 23
7.750802853877285
 33
0.0
  0
SOLID
  5
1A4D0
  8
寸法線
  6
CONTINUOUS
 62
     0
 10
204.1726275286888
 20
9.940192892086177
 30
0.0
 11
204.1726275286888
 21
11.93309618984693
 31
0.0
 12
204.1937265781239
 22
9.965902158209465
 32
0.0
 13
204.1937265781239
 23
9.965902158209465
 33
0.0
  0
SOLID
  5
1A4D1
  8
寸法線
  6
CONTINUOUS
 62
     0
 10
204.1937265781239
 20
9.965902158209465
 30
0.0
 11
204.1726275286888
 21
11.93309618984693
 31
0.0
 12
204.1937265781239
 22
11.93309618984693
 32
0.0
 13
204.1937265781239
 23
11.93309618984693
 33
0.0
  0
SOLID
  5
1A4D2
  8
寸法線
  6
CONTINUOUS
 62
     0
 10
204.1726275286888
 20
13.77359346075493
 30
0.0
 11
204.1726275286888
 21
13.98427101538331
 31
0.0
 12
204.1937265781239
 22
13.76541964545773
 32
0.0
 13
204.1937265781239
 23
13.76541964545773
 33
0.0
  0
SOLID
  5
1A4D3
  8
寸法線
  6
CONTINUOUS
 62
     0
 10
204.1937265781239
 20
13.76541964545773
 30
0.0
 11
204.1726275286888
 21
13.98427101538331
 31
0.0
 12
204.1937265781239
 22
13.9809904766274
 32
0.0
 13
204.1937265781239
 23
13.9809904766274
 33
0.0
  0
SOLID
  5
1A4D4
  8
寸法線
  6
CONTINUOUS
 62
     0
 10
204.1937265781239
 20
7.5326389818404
 30
0.0
 11
204.1937265781239
 21
7.750802853877285
 31
0.0
 12
204.2896646968621
 22
7.549101189924059
 32
0.0
 13
204.2896646968621
 23
7.549101189924059
 33
0.0
  0
SOLID
  5
1A4D5
  8
寸法線
  6
CONTINUOUS
 62
     0
 10
204.2896646968621
 20
7.549101189924059
 30
0.0
 11
204.1937265781239
 21
7.750802853877285
 31
0.0
 12
204.2896646968621
 22
7.779905364028041
 32
0.0
 13
204.2896646968621
 23
7.779905364028041
 33
0.0
  0
SOLID
  5
1A4D6
  8
寸法線
  6
CONTINUOUS
 62
     0
 10
204.1937265781239
 20
9.965902158209465
 30
0.0
 11
204.1937265781239
 21
11.93309618984693
 31
0.0
 12
204.2896646968621
 22
10.08280309413023
 32
0.0
 13
204.2896646968621
 23
10.08280309413023
 33
0.0
  0
SOLID
  5
1A4D7
  8
寸法線
  6
CONTINUOUS
 62
     0
 10
204.2896646968621
 20
10.08280309413023
 30
0.0
 11
204.1937265781239
 21
11.93309618984693
 31
0.0
 12
204.2896646968621
 22
11.93309618984692
 32
0.0
 13
204.2896646968621
 23
11.93309618984692
 33
0.0
  0
SOLID
  5
1A4D8
  8
寸法線
  6
CONTINUOUS
 62
     0
 10
204.1937265781239
 20
13.76541964545773
 30
0.0
 11
204.1937265781239
 21
13.9809904766274
 31
0.0
 12
204.2896646968621
 22
13.72825302025326
 32
0.0
 13
204.2896646968621
 23
13.72825302025326
 33
0.0
  0
SOLID
  5
1A4D9
  8
寸法線
  6
CONTINUOUS
 62
     0
 10
204.2896646968621
 20
13.72825302025326
 30
0.0
 11
204.1937265781239
 21
13.9809904766274
 31
0.0
 12
204.2896646968621
 22
13.96452826854374
 32
0.0
 13
204.2896646968621
 23
13.96452826854374
 33
0.0
  0
SOLID
  5
1A4DA
  8
寸法線
  6
CONTINUOUS
 62
     0
 10
204.2896646968621
 20
7.549101189924059
 30
0.0
 11
204.2896646968621
 21
7.779905364028041
 31
0.0
 12
204.3253394596562
 22
7.555803297006424
 32
0.0
 13
204.3253394596562
 23
7.555803297006424
 33
0.0
  0
SOLID
  5
1A4DB
  8
寸法線
  6
CONTINUOUS
 62
     0
 10
204.3253394596562
 20
7.555803297006424
 30
0.0
 11
204.2896646968621
 21
7.779905364028041
 31
0.0
 12
204.3253394596562
 22
7.790727185010097
 32
0.0
 13
204.3253394596562
 23
7.790727185010097
 33
0.0
  0
SOLID
  5
1A4DC
  8
寸法線
  6
CONTINUOUS
 62
     0
 10
204.2896646968621
 20
10.08280309413023
 30
0.0
 11
204.2896646968621
 21
11.93309618984692
 31
0.0
 12
204.3253394596562
 22
10.12627291836931
 32
0.0
 13
204.3253394596562
 23
10.12627291836931
 33
0.0
  0
SOLID
  5
1A4DD
  8
寸法線
  6
CONTINUOUS
 62
     0
 10
204.3253394596562
 20
10.12627291836931
 30
0.0
 11
204.2896646968621
 21
11.93309618984692
 31
0.0
 12
204.3253394596562
 22
11.93309618984692
 32
0.0
 13
204.3253394596562
 23
11.93309618984692
 33
0.0
  0
SOLID
  5
1A4DE
  8
寸法線
  6
CONTINUOUS
 62
     0
 10
204.2896646968621
 20
13.72825302025326
 30
0.0
 11
204.2896646968621
 21
13.96452826854374
 31
0.0
 12
204.3253394596562
 22
13.71443254351822
 32
0.0
 13
204.3253394596562
 23
13.71443254351822
 33
0.0
  0
SOLID
  5
1A4DF
  8
寸法線
  6
CONTINUOUS
 62
     0
 10
204.3253394596562
 20
13.71443254351822
 30
0.0
 11
204.2896646968621
 21
13.96452826854374
 31
0.0
 12
204.3253394596562
 22
13.95782616146137
 32
0.0
 13
204.3253394596562
 23
13.95782616146137
 33
0.0
  0
SOLID
  5
1A4E0
  8
寸法線
  6
CONTINUOUS
 62
     0
 10
204.3253394596562
 20
7.555803297006424
 30
0.0
 11
204.3253394596562
 21
7.790727185010097
 31
0.0
 12
204.3850898624309
 22
7.567028419929384
 32
0.0
 13
204.3850898624309
 23
7.567028419929384
 33
0.0
  0
SOLID
  5
1A4E1
  8
寸法線
  6
CONTINUOUS
 62
     0
 10
204.3850898624309
 20
7.567028419929384
 30
0.0
 11
204.3253394596562
 21
7.790727185010097
 31
0.0
 12
204.3850898624309
 22
7.808852271536017
 32
0.0
 13
204.3850898624309
 23
7.808852271536017
 33
0.0
  0
SOLID
  5
1A4E2
  8
寸法線
  6
CONTINUOUS
 62
     0
 10
204.3253394596562
 20
10.12627291836931
 30
0.0
 11
204.3253394596562
 21
11.93309618984692
 31
0.0
 12
204.3850898624309
 22
10.23805805951227
 32
0.0
 13
204.3850898624309
 23
10.23805805951227
 33
0.0
  0
SOLID
  5
1A4E3
  8
寸法線
  6
CONTINUOUS
 62
     0
 10
204.3850898624309
 20
10.23805805951227
 30
0.0
 11
204.3253394596562
 21
11.93309618984692
 31
0.0
 12
204.3850898624309
 22
11.93309618984692
 32
0.0
 13
204.3850898624309
 23
11.93309618984692
 33
0.0
  0
SOLID
  5
1A4E4
  8
寸法線
  6
CONTINUOUS
 62
     0
 10
204.3253394596562
 20
13.71443254351822
 30
0.0
 11
204.3253394596562
 21
13.95782616146137
 31
0.0
 12
204.3850898624309
 22
13.69128511416529
 32
0.0
 13
204.3850898624309
 23
13.69128511416529
 33
0.0
  0
SOLID
  5
1A4E5
  8
寸法線
  6
CONTINUOUS
 62
     0
 10
204.3850898624309
 20
13.69128511416529
 30
0.0
 11
204.3253394596562
 21
13.95782616146137
 31
0.0
 12
204.3850898624309
 22
13.94660103853842
 32
0.0
 13
204.3850898624309
 23
13.94660103853842
 33
0.0
  0
SOLID
  5
1A4E6
  8
寸法線
  6
CONTINUOUS
 62
     0
 10
204.3850898624309
 20
7.567028419929384
 30
0.0
 11
204.3850898624309
 21
7.808852271536017
 31
0.0
 12
204.3873401886151
 22
7.567488218572078
 32
0.0
 13
204.3873401886151
 23
7.567488218572078
 33
0.0
  0
SOLID
  5
1A4E7
  8
寸法線
  6
CONTINUOUS
 62
     0
 10
204.3873401886151
 20
7.567488218572078
 30
0.0
 11
204.3850898624309
 21
7.808852271536017
 31
0.0
 12
204.3873401886151
 22
7.80953490052101
 32
0.0
 13
204.3873401886151
 23
7.80953490052101
 33
0.0
  0
SOLID
  5
1A4E8
  8
寸法線
  6
CONTINUOUS
 62
     0
 10
204.3850898624309
 20
10.23805805951227
 30
0.0
 11
204.3850898624309
 21
11.93309618984692
 31
0.0
 12
204.3873401886151
 22
10.2422681236864
 32
0.0
 13
204.3873401886151
 23
10.2422681236864
 33
0.0
  0
SOLID
  5
1A4E9
  8
寸法線
  6
CONTINUOUS
 62
     0
 10
204.3873401886151
 20
10.2422681236864
 30
0.0
 11
204.3850898624309
 21
11.93309618984692
 31
0.0
 12
204.3873401886151
 22
11.93309618984692
 32
0.0
 13
204.3873401886151
 23
11.93309618984692
 33
0.0
  0
SOLID
  5
1A4EA
  8
寸法線
  6
CONTINUOUS
 62
     0
 10
204.3850898624309
 20
13.69128511416529
 30
0.0
 11
204.3850898624309
 21
13.94660103853841
 31
0.0
 12
204.3873401886151
 22
13.69041333315714
 32
0.0
 13
204.3873401886151
 23
13.69041333315714
 33
0.0
  0
SOLID
  5
1A4EB
  8
寸法線
  6
CONTINUOUS
 62
     0
 10
204.3873401886151
 20
13.69041333315714
 30
0.0
 11
204.3850898624309
 21
13.94660103853841
 31
0.0
 12
204.3873401886151
 22
13.94614123989572
 32
0.0
 13
204.3873401886151
 23
13.94614123989572
 33
0.0
  0
SOLID
  5
1A4EC
  8
寸法線
  6
CONTINUOUS
 62
     0
 10
204.3873401886151
 20
7.567488218572078
 30
0.0
 11
204.3873401886151
 21
7.80953490052101
 31
0.0
 12
204.4388146614426
 22
7.578005757276592
 32
0.0
 13
204.4388146614426
 23
7.578005757276592
 33
0.0
  0
SOLID
  5
1A4ED
  8
寸法線
  6
CONTINUOUS
 62
     0
 10
204.4388146614426
 20
7.578005757276592
 30
0.0
 11
204.3873401886151
 21
7.80953490052101
 31
0.0
 12
204.4388146614426
 22
7.837048579464533
 32
0.0
 13
204.4388146614426
 23
7.837048579464533
 33
0.0
  0
SOLID
  5
1A4EE
  8
寸法線
  6
CONTINUOUS
 62
     0
 10
204.3873401886151
 20
10.2422681236864
 30
0.0
 11
204.3873401886151
 21
11.93309618984692
 31
0.0
 12
204.4388146614426
 22
10.33857008891298
 32
0.0
 13
204.4388146614426
 23
10.33857008891298
 33
0.0
  0
SOLID
  5
1A4EF
  8
寸法線
  6
CONTINUOUS
 62
     0
 10
204.4388146614426
 20
10.33857008891298
 30
0.0
 11
204.3873401886151
 21
11.93309618984692
 31
0.0
 12
204.4388146614426
 22
11.93309618984692
 32
0.0
 13
204.4388146614426
 23
11.93309618984692
 33
0.0
  0
SOLID
  5
1A4F0
  8
寸法線
  6
CONTINUOUS
 62
     0
 10
204.3873401886151
 20
13.69041333315714
 30
0.0
 11
204.3873401886151
 21
13.94614123989572
 31
0.0
 12
204.4388146614426
 22
13.67047201614633
 32
0.0
 13
204.4388146614426
 23
13.67047201614633
 33
0.0
  0
SOLID
  5
1A4F1
  8
寸法線
  6
CONTINUOUS
 62
     0
 10
204.4388146614426
 20
13.67047201614633
 30
0.0
 11
204.3873401886151
 21
13.94614123989572
 31
0.0
 12
204.4388146614426
 22
13.9356237011912
 32
0.0
 13
204.4388146614426
 23
13.9356237011912
 33
0.0
  0
SOLID
  5
1A4F2
  8
寸法線
  6
CONTINUOUS
 62
     0
 10
204.4388146614426
 20
7.578005757276592
 30
0.0
 11
204.4388146614426
 21
7.837048579464533
 31
0.0
 12
204.4799584923977
 22
7.586412484159863
 32
0.0
 13
204.4799584923977
 23
7.586412484159863
 33
0.0
  0
SOLID
  5
1A4F3
  8
寸法線
  6
CONTINUOUS
 62
     0
 10
204.4799584923977
 20
7.586412484159863
 30
0.0
 11
204.4388146614426
 21
7.837048579464533
 31
0.0
 12
204.4799584923977
 22
7.859040415285677
 32
0.0
 13
204.4799584923977
 23
7.859040415285677
 33
0.0
  0
SOLID
  5
1A4F4
  8
寸法線
  6
CONTINUOUS
 62
     0
 10
204.4388146614426
 20
10.33857008891298
 30
0.0
 11
204.4388146614426
 21
11.93309618984692
 31
0.0
 12
204.4799584923977
 22
10.474203122595
 32
0.0
 13
204.4799584923977
 23
10.474203122595
 33
0.0
  0
SOLID
  5
1A4F5
  8
寸法線
  6
CONTINUOUS
 62
     0
 10
204.4799584923977
 20
10.474203122595
 30
0.0
 11
204.4388146614426
 21
11.93309618984692
 31
0.0
 12
204.4799584923977
 22
11.93309618984692
 32
0.0
 13
204.4799584923977
 23
11.93309618984692
 33
0.0
  0
SOLID
  5
1A4F6
  8
寸法線
  6
CONTINUOUS
 62
     0
 10
204.4388146614426
 20
13.67047201614633
 30
0.0
 11
204.4388146614426
 21
13.9356237011912
 31
0.0
 12
204.4799584923977
 22
13.65453281111819
 32
0.0
 13
204.4799584923977
 23
13.65453281111819
 33
0.0
  0
SOLID
  5
1A4F7
  8
寸法線
  6
CONTINUOUS
 62
     0
 10
204.4799584923977
 20
13.65453281111819
 30
0.0
 11
204.4388146614426
 21
13.9356237011912
 31
0.0
 12
204.4799584923977
 22
13.92721697430793
 32
0.0
 13
204.4799584923977
 23
13.92721697430793
 33
0.0
  0
SOLID
  5
1A4F8
  8
寸法線
  6
CONTINUOUS
 62
     0
 10
204.4799584923977
 20
7.586412484159863
 30
0.0
 11
204.4799584923977
 21
7.859040415285677
 31
0.0
 12
204.5086923456811
 22
7.592762253661379
 32
0.0
 13
204.5086923456811
 23
7.592762253661379
 33
0.0
  0
SOLID
  5
1A4F9
  8
寸法線
  6
CONTINUOUS
 62
     0
 10
204.5086923456811
 20
7.592762253661379
 30
0.0
 11
204.4799584923977
 21
7.859040415285677
 31
0.0
 12
204.5086923456811
 22
7.874398979844431
 32
0.0
 13
204.5086923456811
 23
7.874398979844431
 33
0.0
  0
SOLID
  5
1A4FA
  8
寸法線
  6
CONTINUOUS
 62
     0
 10
204.4799584923977
 20
10.474203122595
 30
0.0
 11
204.4799584923977
 21
11.93309618984692
 31
0.0
 12
204.5086923456811
 22
10.56892594251083
 32
0.0
 13
204.5086923456811
 23
10.56892594251083
 33
0.0
  0
SOLID
  5
1A4FB
  8
寸法線
  6
CONTINUOUS
 62
     0
 10
204.5086923456811
 20
10.56892594251083
 30
0.0
 11
204.4799584923977
 21
11.93309618984692
 31
0.0
 12
204.5086923456811
 22
11.93309618984692
 32
0.0
 13
204.5086923456811
 23
11.93309618984692
 33
0.0
  0
SOLID
  5
1A4FC
  8
寸法線
  6
CONTINUOUS
 62
     0
 10
204.4799584923977
 20
13.65453281111819
 30
0.0
 11
204.4799584923977
 21
13.92721697430793
 31
0.0
 12
204.5086923456811
 22
13.64340125705282
 32
0.0
 13
204.5086923456811
 23
13.64340125705282
 33
0.0
  0
SOLID
  5
1A4FD
  8
寸法線
  6
CONTINUOUS
 62
     0
 10
204.5086923456811
 20
13.64340125705282
 30
0.0
 11
204.4799584923977
 21
13.92721697430793
 31
0.0
 12
204.5086923456811
 22
13.92086720480641
 32
0.0
 13
204.5086923456811
 23
13.92086720480641
 33
0.0
  0
SOLID
  5
1A4FE
  8
寸法線
  6
CONTINUOUS
 62
     0
 10
204.5086923456811
 20
7.592762253661379
 30
0.0
 11
204.5086923456811
 21
7.874398979844431
 31
0.0
 12
204.5322871521541
 22
7.597976367517217
 32
0.0
 13
204.5322871521541
 23
7.597976367517217
 33
0.0
  0
SOLID
  5
1A4FF
  8
寸法線
  6
CONTINUOUS
 62
     0
 10
204.5322871521541
 20
7.597976367517217
 30
0.0
 11
204.5086923456811
 21
7.874398979844431
 31
0.0
 12
204.5322871521541
 22
7.887010666654868
 32
0.0
 13
204.5322871521541
 23
7.887010666654868
 33
0.0
  0
SOLID
  5
1A500
  8
寸法線
  6
CONTINUOUS
 62
     0
 10
204.5086923456811
 20
10.56892594251083
 30
0.0
 11
204.5086923456811
 21
11.93309618984692
 31
0.0
 12
204.5322871521541
 22
10.80848803289415
 32
0.0
 13
204.5322871521541
 23
10.80848803289415
 33
0.0
  0
SOLID
  5
1A501
  8
寸法線
  6
CONTINUOUS
 62
     0
 10
204.5322871521541
 20
10.80848803289415
 30
0.0
 11
204.5086923456811
 21
11.93309618984692
 31
0.0
 12
204.5322871521541
 22
11.93309618984692
 32
0.0
 13
204.5322871521541
 23
11.93309618984692
 33
0.0
  0
SOLID
  5
1A502
  8
寸法線
  6
CONTINUOUS
 62
     0
 10
204.5086923456811
 20
13.64340125705282
 30
0.0
 11
204.5086923456811
 21
13.92086720480641
 31
0.0
 12
204.5322871521541
 22
13.63426058032819
 32
0.0
 13
204.5322871521541
 23
13.63426058032819
 33
0.0
  0
SOLID
  5
1A503
  8
寸法線
  6
CONTINUOUS
 62
     0
 10
204.5322871521541
 20
13.63426058032819
 30
0.0
 11
204.5086923456811
 21
13.92086720480641
 31
0.0
 12
204.5322871521541
 22
13.91565309095058
 32
0.0
 13
204.5322871521541
 23
13.91565309095058
 33
0.0
  0
SOLID
  5
1A504
  8
寸法線
  6
CONTINUOUS
 62
     0
 10
204.5322871521541
 20
7.597976367517217
 30
0.0
 11
204.5322871521541
 21
7.887010666654868
 31
0.0
 12
204.5742272585097
 22
7.607244529555931
 32
0.0
 13
204.5742272585097
 23
7.607244529555931
 33
0.0
  0
SOLID
  5
1A505
  8
寸法線
  6
CONTINUOUS
 62
     0
 10
204.5742272585097
 20
7.607244529555931
 30
0.0
 11
204.5322871521541
 21
7.887010666654868
 31
0.0
 12
204.5742272585097
 22
7.909428120544904
 32
0.0
 13
204.5742272585097
 23
7.909428120544904
 33
0.0
  0
SOLID
  5
1A506
  8
寸法線
  6
CONTINUOUS
 62
     0
 10
204.5322871521541
 20
13.63426058032819
 30
0.0
 11
204.5322871521541
 21
13.91565309095058
 31
0.0
 12
204.5742272585097
 22
13.61801289656645
 32
0.0
 13
204.5742272585097
 23
13.61801289656645
 33
0.0
  0
SOLID
  5
1A507
  8
寸法線
  6
CONTINUOUS
 62
     0
 10
204.5742272585097
 20
13.61801289656645
 30
0.0
 11
204.5322871521541
 21
13.91565309095058
 31
0.0
 12
204.5742272585097
 22
13.90638492891186
 32
0.0
 13
204.5742272585097
 23
13.90638492891186
 33
0.0
  0
SOLID
  5
1A508
  8
寸法線
  6
CONTINUOUS
 62
     0
 10
204.5742272585097
 20
7.607244529555931
 30
0.0
 11
204.5742272585097
 21
7.909428120544904
 31
0.0
 12
204.5884925005041
 22
7.610637761793578
 32
0.0
 13
204.5884925005041
 23
7.610637761793578
 33
0.0
  0
SOLID
  5
1A509
  8
寸法線
  6
CONTINUOUS
 62
     0
 10
204.5884925005041
 20
7.610637761793578
 30
0.0
 11
204.5742272585097
 21
7.909428120544904
 31
0.0
 12
204.5884925005041
 22
7.917053051247941
 32
0.0
 13
204.5884925005041
 23
7.917053051247941
 33
0.0
  0
SOLID
  5
1A50A
  8
寸法線
  6
CONTINUOUS
 62
     0
 10
204.5742272585097
 20
13.61801289656645
 30
0.0
 11
204.5742272585097
 21
13.90638492891186
 31
0.0
 12
204.5884925005041
 22
13.612486512376
 32
0.0
 13
204.5884925005041
 23
13.612486512376
 33
0.0
  0
SOLID
  5
1A50B
  8
寸法線
  6
CONTINUOUS
 62
     0
 10
204.5884925005041
 20
13.612486512376
 30
0.0
 11
204.5742272585097
 21
13.90638492891186
 31
0.0
 12
204.5884925005041
 22
13.90299169667422
 32
0.0
 13
204.5884925005041
 23
13.90299169667422
 33
0.0
  0
SOLID
  5
1A50C
  8
寸法線
  6
CONTINUOUS
 62
     0
 10
204.5884925005041
 20
7.610637761793578
 30
0.0
 11
204.5884925005041
 21
7.917053051247941
 31
0.0
 12
204.6678531064833
 22
7.629515041738327
 32
0.0
 13
204.6678531064833
 23
7.629515041738327
 33
0.0
  0
SOLID
  5
1A50D
  8
寸法線
  6
CONTINUOUS
 62
     0
 10
204.6678531064833
 20
7.629515041738327
 30
0.0
 11
204.5884925005041
 21
7.917053051247941
 31
0.0
 12
204.6678531064833
 22
7.959472178899622
 32
0.0
 13
204.6678531064833
 23
7.959472178899622
 33
0.0
  0
SOLID
  5
1A50E
  8
寸法線
  6
CONTINUOUS
 62
     0
 10
204.5884925005041
 20
13.612486512376
 30
0.0
 11
204.5884925005041
 21
13.90299169667422
 31
0.0
 12
204.6678531064833
 22
13.56334850551022
 32
0.0
 13
204.6678531064833
 23
13.56334850551022
 33
0.0
  0
SOLID
  5
1A50F
  8
寸法線
  6
CONTINUOUS
 62
     0
 10
204.6678531064833
 20
13.56334850551022
 30
0.0
 11
204.5884925005041
 21
13.90299169667422
 31
0.0
 12
204.6678531064833
 22
13.88411441672947
 32
0.0
 13
204.6678531064833
 23
13.88411441672947
 33
0.0
  0
SOLID
  5
1A510
  8
寸法線
  6
CONTINUOUS
 62
     0
 10
204.6678531064833
 20
7.629515041738327
 30
0.0
 11
204.6678531064833
 21
7.959472178899622
 31
0.0
 12
204.7607932756672
 22
7.653213849353483
 32
0.0
 13
204.7607932756672
 23
7.653213849353483
 33
0.0
  0
SOLID
  5
1A511
  8
寸法線
  6
CONTINUOUS
 62
     0
 10
204.7607932756672
 20
7.653213849353483
 30
0.0
 11
204.6678531064833
 21
7.959472178899622
 31
0.0
 12
204.7607932756672
 22
8.009149734305595
 32
0.0
 13
204.7607932756672
 23
8.009149734305595
 33
0.0
  0
SOLID
  5
1A512
  8
寸法線
  6
CONTINUOUS
 62
     0
 10
204.6678531064833
 20
13.56334850551022
 30
0.0
 11
204.6678531064833
 21
13.88411441672947
 31
0.0
 12
204.7607932756672
 22
13.50580238908232
 32
0.0
 13
204.7607932756672
 23
13.50580238908232
 33
0.0
  0
SOLID
  5
1A513
  8
寸法線
  6
CONTINUOUS
 62
     0
 10
204.7607932756672
 20
13.50580238908232
 30
0.0
 11
204.6678531064833
 21
13.88411441672947
 31
0.0
 12
204.7607932756672
 22
13.86041560911432
 32
0.0
 13
204.7607932756672
 23
13.86041560911432
 33
0.0
  0
SOLID
  5
1A514
  8
寸法線
  6
CONTINUOUS
 62
     0
 10
204.7607932756672
 20
7.653213849353483
 30
0.0
 11
204.7607932756672
 21
8.009149734305595
 31
0.0
 12
204.8530053185726
 22
7.678330128718968
 32
0.0
 13
204.8530053185726
 23
7.678330128718968
 33
0.0
  0
SOLID
  5
1A515
  8
寸法線
  6
CONTINUOUS
 62
     0
 10
204.8530053185726
 20
7.678330128718968
 30
0.0
 11
204.7607932756672
 21
8.009149734305595
 31
0.0
 12
204.8530053185726
 22
8.058438098107276
 32
0.0
 13
204.8530053185726
 23
8.058438098107276
 33
0.0
  0
SOLID
  5
1A516
  8
寸法線
  6
CONTINUOUS
 62
     0
 10
204.7607932756672
 20
13.50580238908232
 30
0.0
 11
204.7607932756672
 21
13.86041560911431
 31
0.0
 12
204.8530053185726
 22
13.44870710935905
 32
0.0
 13
204.8530053185726
 23
13.44870710935905
 33
0.0
  0
SOLID
  5
1A517
  8
寸法線
  6
CONTINUOUS
 62
     0
 10
204.8530053185726
 20
13.44870710935905
 30
0.0
 11
204.7607932756672
 21
13.86041560911431
 31
0.0
 12
204.8530053185726
 22
13.83529932974882
 32
0.0
 13
204.8530053185726
 23
13.83529932974882
 33
0.0
  0
SOLID
  5
1A518
  8
寸法線
  6
CONTINUOUS
 62
     0
 10
204.8530053185726
 20
7.678330128718968
 30
0.0
 11
204.8530053185726
 21
8.058438098107276
 31
0.0
 12
204.9388685668168
 22
7.703234374630122
 32
0.0
 13
204.9388685668168
 23
7.703234374630122
 33
0.0
  0
SOLID
  5
1A519
  8
寸法線
  6
CONTINUOUS
 62
     0
 10
204.9388685668168
 20
7.703234374630122
 30
0.0
 11
204.8530053185726
 21
8.058438098107276
 31
0.0
 12
204.9388685668168
 22
8.10433296046273
 32
0.0
 13
204.9388685668168
 23
8.10433296046273
 33
0.0
  0
SOLID
  5
1A51A
  8
寸法線
  6
CONTINUOUS
 62
     0
 10
204.8530053185726
 20
13.44870710935905
 30
0.0
 11
204.8530053185726
 21
13.83529932974882
 31
0.0
 12
204.9388685668168
 22
13.39554283686282
 32
0.0
 13
204.9388685668168
 23
13.39554283686282
 33
0.0
  0
SOLID
  5
1A51B
  8
寸法線
  6
CONTINUOUS
 62
     0
 10
204.9388685668168
 20
13.39554283686282
 30
0.0
 11
204.8530053185726
 21
13.83529932974882
 31
0.0
 12
204.9388685668168
 22
13.81039508383767
 32
0.0
 13
204.9388685668168
 23
13.81039508383767
 33
0.0
  0
SOLID
  5
1A51C
  8
寸法線
  6
CONTINUOUS
 62
     0
 10
204.9388685668168
 20
7.703234374630122
 30
0.0
 11
204.9388685668168
 21
8.10433296046273
 31
0.0
 12
204.9444471202589
 22
7.704852408766868
 32
0.0
 13
204.9444471202589
 23
7.704852408766868
 33
0.0
  0
SOLID
  5
1A51D
  8
寸法線
  6
CONTINUOUS
 62
     0
 10
204.9444471202589
 20
7.704852408766868
 30
0.0
 11
204.9388685668168
 21
8.10433296046273
 31
0.0
 12
204.9444471202589
 22
8.10891116095618
 32
0.0
 13
204.9444471202589
 23
8.10891116095618
 33
0.0
  0
SOLID
  5
1A51E
  8
寸法線
  6
CONTINUOUS
 62
     0
 10
204.9388685668168
 20
13.39554283686282
 30
0.0
 11
204.9388685668168
 21
13.81039508383767
 31
0.0
 12
204.9444471202589
 22
13.39208874280749
 32
0.0
 13
204.9444471202589
 23
13.39208874280749
 33
0.0
  0
SOLID
  5
1A51F
  8
寸法線
  6
CONTINUOUS
 62
     0
 10
204.9444471202589
 20
13.39208874280749
 30
0.0
 11
204.9388685668168
 21
13.81039508383767
 31
0.0
 12
204.9444471202589
 22
13.80877704970093
 32
0.0
 13
204.9444471202589
 23
13.80877704970093
 33
0.0
  0
SOLID
  5
1A520
  8
寸法線
  6
CONTINUOUS
 62
     0
 10
204.9444471202589
 20
7.704852408766868
 30
0.0
 11
204.9444471202589
 21
8.10891116095618
 31
0.0
 12
205.0350769175693
 22
7.732768576282832
 32
0.0
 13
205.0350769175693
 23
7.732768576282832
 33
0.0
  0
SOLID
  5
1A521
  8
寸法線
  6
CONTINUOUS
 62
     0
 10
205.0350769175693
 20
7.732768576282832
 30
0.0
 11
204.9444471202589
 21
8.10891116095618
 31
0.0
 12
205.0350769175693
 22
8.18328911342594
 32
0.0
 13
205.0350769175693
 23
8.18328911342594
 33
0.0
  0
SOLID
  5
1A522
  8
寸法線
  6
CONTINUOUS
 62
     0
 10
204.9444471202589
 20
13.39208874280749
 30
0.0
 11
204.9444471202589
 21
13.80877704970093
 31
0.0
 12
205.0350769175693
 22
13.33597314807967
 32
0.0
 13
205.0350769175693
 23
13.33597314807967
 33
0.0
  0
SOLID
  5
1A523
  8
寸法線
  6
CONTINUOUS
 62
     0
 10
205.0350769175693
 20
13.33597314807967
 30
0.0
 11
204.9444471202589
 21
13.80877704970093
 31
0.0
 12
205.0350769175693
 22
13.78086088218496
 32
0.0
 13
205.0350769175693
 23
13.78086088218496
 33
0.0
  0
SOLID
  5
1A524
  8
寸法線
  6
CONTINUOUS
 62
     0
 10
205.0350769175693
 20
7.732768576282832
 30
0.0
 11
205.0350769175693
 21
8.18328911342594
 31
0.0
 12
205.073429235902
 22
7.745284332825405
 32
0.0
 13
205.073429235902
 23
7.745284332825405
 33
0.0
  0
SOLID
  5
1A525
  8
寸法線
  6
CONTINUOUS
 62
     0
 10
205.073429235902
 20
7.745284332825405
 30
0.0
 11
205.0350769175693
 21
8.18328911342594
 31
0.0
 12
205.073429235902
 22
8.214764047660646
 32
0.0
 13
205.073429235902
 23
8.214764047660646
 33
0.0
  0
SOLID
  5
1A526
  8
寸法線
  6
CONTINUOUS
 62
     0
 10
205.0350769175693
 20
13.33597314807967
 30
0.0
 11
205.0350769175693
 21
13.78086088218496
 31
0.0
 12
205.073429235902
 22
13.31222639793461
 32
0.0
 13
205.073429235902
 23
13.31222639793461
 33
0.0
  0
SOLID
  5
1A527
  8
寸法線
  6
CONTINUOUS
 62
     0
 10
205.073429235902
 20
13.31222639793461
 30
0.0
 11
205.0350769175693
 21
13.78086088218496
 31
0.0
 12
205.073429235902
 22
13.76834512564239
 32
0.0
 13
205.073429235902
 23
13.76834512564239
 33
0.0
  0
SOLID
  5
1A528
  8
寸法線
  6
CONTINUOUS
 62
     0
 10
205.073429235902
 20
7.745284332825405
 30
0.0
 11
205.073429235902
 21
8.214764047660646
 31
0.0
 12
205.0890093176301
 22
7.750368680220829
 32
0.0
 13
205.0890093176301
 23
7.750368680220829
 33
0.0
  0
SOLID
  5
1A529
  8
寸法線
  6
CONTINUOUS
 62
     0
 10
205.0890093176301
 20
7.750368680220829
 30
0.0
 11
205.073429235902
 21
8.214764047660646
 31
0.0
 12
205.0890093176301
 22
8.227550290294324
 32
0.0
 13
205.0890093176301
 23
8.227550290294324
 33
0.0
  0
SOLID
  5
1A52A
  8
寸法線
  6
CONTINUOUS
 62
     0
 10
205.073429235902
 20
9.580533268620849
 30
0.0
 11
205.073429235902
 21
11.93309618984692
 31
0.0
 12
205.0890093176301
 22
9.580533268620849
 32
0.0
 13
205.0890093176301
 23
9.580533268620849
 33
0.0
  0
SOLID
  5
1A52B
  8
寸法線
  6
CONTINUOUS
 62
     0
 10
205.0890093176301
 20
9.580533268620849
 30
0.0
 11
205.073429235902
 21
11.93309618984692
 31
0.0
 12
205.0890093176301
 22
11.93309618984692
 32
0.0
 13
205.0890093176301
 23
11.93309618984692
 33
0.0
  0
SOLID
  5
1A52C
  8
寸法線
  6
CONTINUOUS
 62
     0
 10
205.073429235902
 20
13.31222639793461
 30
0.0
 11
205.073429235902
 21
13.76834512564239
 31
0.0
 12
205.0890093176301
 22
13.30257961974433
 32
0.0
 13
205.0890093176301
 23
13.30257961974433
 33
0.0
  0
SOLID
  5
1A52D
  8
寸法線
  6
CONTINUOUS
 62
     0
 10
205.0890093176301
 20
13.30257961974433
 30
0.0
 11
205.073429235902
 21
13.76834512564239
 31
0.0
 12
205.0890093176301
 22
13.76326077824697
 32
0.0
 13
205.0890093176301
 23
13.76326077824697
 33
0.0
  0
SOLID
  5
1A52E
  8
寸法線
  6
CONTINUOUS
 62
     0
 10
205.0890093176301
 20
7.750368680220829
 30
0.0
 11
205.0890093176301
 21
8.227550290294324
 31
0.0
 12
205.1248533182042
 22
7.762065881438397
 32
0.0
 13
205.1248533182042
 23
7.762065881438397
 33
0.0
  0
SOLID
  5
1A52F
  8
寸法線
  6
CONTINUOUS
 62
     0
 10
205.1248533182042
 20
7.762065881438397
 30
0.0
 11
205.0890093176301
 21
8.227550290294324
 31
0.0
 12
205.1248533182042
 22
8.256966701343929
 32
0.0
 13
205.1248533182042
 23
8.256966701343929
 33
0.0
  0
SOLID
  5
1A530
  8
寸法線
  6
CONTINUOUS
 62
     0
 10
205.0890093176301
 20
9.580533268620849
 30
0.0
 11
205.0890093176301
 21
11.93309618984692
 31
0.0
 12
205.1248533182042
 22
9.580533268620849
 32
0.0
 13
205.1248533182042
 23
9.580533268620849
 33
0.0
  0
SOLID
  5
1A531
  8
寸法線
  6
CONTINUOUS
 62
     0
 10
205.1248533182042
 20
9.580533268620849
 30
0.0
 11
205.0890093176301
 21
11.93309618984692
 31
0.0
 12
205.1248533182042
 22
11.93309618984692
 32
0.0
 13
205.1248533182042
 23
11.93309618984692
 33
0.0
  0
SOLID
  5
1A532
  8
寸法線
  6
CONTINUOUS
 62
     0
 10
205.0890093176301
 20
13.30257961974433
 30
0.0
 11
205.0890093176301
 21
13.76326077824697
 31
0.0
 12
205.1248533182042
 22
13.26990349571535
 32
0.0
 13
205.1248533182042
 23
13.26990349571535
 33
0.0
  0
SOLID
  5
1A533
  8
寸法線
  6
CONTINUOUS
 62
     0
 10
205.1248533182042
 20
13.26990349571535
 30
0.0
 11
205.0890093176301
 21
13.76326077824697
 31
0.0
 12
205.1248533182042
 22
13.7515635770294
 32
0.0
 13
205.1248533182042
 23
13.7515635770294
 33
0.0
  0
SOLID
  5
1A534
  8
寸法線
  6
CONTINUOUS
 62
     0
 10
205.1248533182042
 20
7.762065881438397
 30
0.0
 11
205.1248533182042
 21
8.256966701343929
 31
0.0
 12
205.213735319626
 22
7.792730943614075
 32
0.0
 13
205.213735319626
 23
7.792730943614075
 33
0.0
  0
SOLID
  5
1A535
  8
寸法線
  6
CONTINUOUS
 62
     0
 10
205.213735319626
 20
7.792730943614075
 30
0.0
 11
205.1248533182042
 21
8.256966701343929
 31
0.0
 12
205.213735319626
 22
8.32991027479721
 32
0.0
 13
205.213735319626
 23
8.32991027479721
 33
0.0
  0
SOLID
  5
1A536
  8
寸法線
  6
CONTINUOUS
 62
     0
 10
205.1248533182042
 20
9.580533268620849
 30
0.0
 11
205.1248533182042
 21
11.93309618984692
 31
0.0
 12
205.213735319626
 22
9.580533268620847
 32
0.0
 13
205.213735319626
 23
9.580533268620847
 33
0.0
  0
SOLID
  5
1A537
  8
寸法線
  6
CONTINUOUS
 62
     0
 10
205.213735319626
 20
9.580533268620847
 30
0.0
 11
205.1248533182042
 21
11.93309618984692
 31
0.0
 12
205.213735319626
 22
11.93309618984692
 32
0.0
 13
205.213735319626
 23
11.93309618984692
 33
0.0
  0
SOLID
  5
1A538
  8
寸法線
  6
CONTINUOUS
 62
     0
 10
205.1248533182042
 20
13.26990349571535
 30
0.0
 11
205.1248533182042
 21
13.75156357702939
 31
0.0
 12
205.213735319626
 22
13.18887684534466
 32
0.0
 13
205.213735319626
 23
13.18887684534466
 33
0.0
  0
SOLID
  5
1A539
  8
寸法線
  6
CONTINUOUS
 62
     0
 10
205.213735319626
 20
13.18887684534466
 30
0.0
 11
205.1248533182042
 21
13.75156357702939
 31
0.0
 12
205.213735319626
 22
13.72089851485371
 32
0.0
 13
205.213735319626
 23
13.72089851485371
 33
0.0
  0
SOLID
  5
1A53A
  8
寸法線
  6
CONTINUOUS
 62
     0
 10
205.213735319626
 20
7.792730943614075
 30
0.0
 11
205.213735319626
 21
8.32991027479721
 31
0.0
 12
205.3016823277857
 22
7.824749757510523
 32
0.0
 13
205.3016823277857
 23
7.824749757510523
 33
0.0
  0
SOLID
  5
1A53B
  8
寸法線
  6
CONTINUOUS
 62
     0
 10
205.3016823277857
 20
7.824749757510523
 30
0.0
 11
205.213735319626
 21
8.32991027479721
 31
0.0
 12
205.3016823277857
 22
8.402086519110702
 32
0.0
 13
205.3016823277857
 23
8.402086519110702
 33
0.0
  0
SOLID
  5
1A53C
  8
寸法線
  6
CONTINUOUS
 62
     0
 10
205.213735319626
 20
9.580533268620847
 30
0.0
 11
205.213735319626
 21
11.93309618984692
 31
0.0
 12
205.3016823277857
 22
9.580533268620847
 32
0.0
 13
205.3016823277857
 23
9.580533268620847
 33
0.0
  0
SOLID
  5
1A53D
  8
寸法線
  6
CONTINUOUS
 62
     0
 10
205.3016823277857
 20
9.580533268620847
 30
0.0
 11
205.213735319626
 21
11.93309618984692
 31
0.0
 12
205.3016823277857
 22
11.93309618984693
 32
0.0
 13
205.3016823277857
 23
11.93309618984693
 33
0.0
  0
SOLID
  5
1A53E
  8
寸法線
  6
CONTINUOUS
 62
     0
 10
205.213735319626
 20
13.18887684534466
 30
0.0
 11
205.213735319626
 21
13.72089851485372
 31
0.0
 12
205.3016823277857
 22
13.10870255395483
 32
0.0
 13
205.3016823277857
 23
13.10870255395483
 33
0.0
  0
SOLID
  5
1A53F
  8
寸法線
  6
CONTINUOUS
 62
     0
 10
205.3016823277857
 20
13.10870255395483
 30
0.0
 11
205.213735319626
 21
13.72089851485372
 31
0.0
 12
205.3016823277857
 22
13.68887970095728
 32
0.0
 13
205.3016823277857
 23
13.68887970095728
 33
0.0
  0
SOLID
  5
1A540
  8
寸法線
  6
CONTINUOUS
 62
     0
 10
205.3016823277857
 20
7.824749757510523
 30
0.0
 11
205.3016823277857
 21
8.402086519110702
 31
0.0
 12
205.388654175663
 22
7.85810769954503
 32
0.0
 13
205.388654175663
 23
7.85810769954503
 33
0.0
  0
SOLID
  5
1A541
  8
寸法線
  6
CONTINUOUS
 62
     0
 10
205.388654175663
 20
7.85810769954503
 30
0.0
 11
205.3016823277857
 21
8.402086519110702
 31
0.0
 12
205.388654175663
 22
8.473462470062772
 32
0.0
 13
205.388654175663
 23
8.473462470062772
 33
0.0
  0
SOLID
  5
1A542
  8
寸法線
  6
CONTINUOUS
 62
     0
 10
205.3016823277857
 20
9.580533268620847
 30
0.0
 11
205.3016823277857
 21
11.93309618984693
 31
0.0
 12
205.388654175663
 22
9.580533268620846
 32
0.0
 13
205.388654175663
 23
9.580533268620846
 33
0.0
  0
SOLID
  5
1A543
  8
寸法線
  6
CONTINUOUS
 62
     0
 10
205.388654175663
 20
9.580533268620846
 30
0.0
 11
205.3016823277857
 21
11.93309618984693
 31
0.0
 12
205.388654175663
 22
11.93309618984693
 32
0.0
 13
205.388654175663
 23
11.93309618984693
 33
0.0
  0
SOLID
  5
1A544
  8
寸法線
  6
CONTINUOUS
 62
     0
 10
205.3016823277857
 20
13.10870255395483
 30
0.0
 11
205.3016823277857
 21
13.68887970095727
 31
0.0
 12
205.388654175663
 22
13.02941723862307
 32
0.0
 13
205.388654175663
 23
13.02941723862307
 33
0.0
  0
SOLID
  5
1A545
  8
寸法線
  6
CONTINUOUS
 62
     0
 10
205.388654175663
 20
13.02941723862307
 30
0.0
 11
205.3016823277857
 21
13.68887970095727
 31
0.0
 12
205.388654175663
 22
13.65552175892276
 32
0.0
 13
205.388654175663
 23
13.65552175892276
 33
0.0
  0
SOLID
  5
1A546
  8
寸法線
  6
CONTINUOUS
 62
     0
 10
205.388654175663
 20
7.85810769954503
 30
0.0
 11
205.388654175663
 21
8.473462470062772
 31
0.0
 12
205.422287233438
 22
7.871677933753927
 32
0.0
 13
205.422287233438
 23
7.871677933753927
 33
0.0
  0
SOLID
  5
1A547
  8
寸法線
  6
CONTINUOUS
 62
     0
 10
205.422287233438
 20
7.871677933753927
 30
0.0
 11
205.388654175663
 21
8.473462470062772
 31
0.0
 12
205.422287233438
 22
8.501064407249412
 32
0.0
 13
205.422287233438
 23
8.501064407249412
 33
0.0
  0
SOLID
  5
1A548
  8
寸法線
  6
CONTINUOUS
 62
     0
 10
205.388654175663
 20
9.580533268620846
 30
0.0
 11
205.388654175663
 21
11.93309618984693
 31
0.0
 12
205.422287233438
 22
9.580533268620846
 32
0.0
 13
205.422287233438
 23
9.580533268620846
 33
0.0
  0
SOLID
  5
1A549
  8
寸法線
  6
CONTINUOUS
 62
     0
 10
205.422287233438
 20
9.580533268620846
 30
0.0
 11
205.388654175663
 21
11.93309618984693
 31
0.0
 12
205.422287233438
 22
11.93309618984693
 32
0.0
 13
205.422287233438
 23
11.93309618984693
 33
0.0
  0
SOLID
  5
1A54A
  8
寸法線
  6
CONTINUOUS
 62
     0
 10
205.388654175663
 20
13.02941723862307
 30
0.0
 11
205.388654175663
 21
13.65552175892276
 31
0.0
 12
205.422287233438
 22
12.99875665526944
 32
0.0
 13
205.422287233438
 23
12.99875665526944
 33
0.0
  0
SOLID
  5
1A54B
  8
寸法線
  6
CONTINUOUS
 62
     0
 10
205.422287233438
 20
12.99875665526944
 30
0.0
 11
205.388654175663
 21
13.65552175892276
 31
0.0
 12
205.422287233438
 22
13.64195152471386
 32
0.0
 13
205.422287233438
 23
13.64195152471386
 33
0.0
  0
SOLID
  5
1A54C
  8
寸法線
  6
CONTINUOUS
 62
     0
 10
205.422287233438
 20
7.871677933753927
 30
0.0
 11
205.422287233438
 21
8.501064407249412
 31
0.0
 12
205.4624066180386
 22
7.887865264950216
 32
0.0
 13
205.4624066180386
 23
7.887865264950216
 33
0.0
  0
SOLID
  5
1A54D
  8
寸法線
  6
CONTINUOUS
 62
     0
 10
205.4624066180386
 20
7.887865264950216
 30
0.0
 11
205.422287233438
 21
8.501064407249412
 31
0.0
 12
205.4624066180386
 22
8.549950018829714
 32
0.0
 13
205.4624066180386
 23
8.549950018829714
 33
0.0
  0
SOLID
  5
1A54E
  8
寸法線
  6
CONTINUOUS
 62
     0
 10
205.422287233438
 20
9.580533268620846
 30
0.0
 11
205.422287233438
 21
11.93309618984693
 31
0.0
 12
205.4624066180386
 22
9.580533268620846
 32
0.0
 13
205.4624066180386
 23
9.580533268620846
 33
0.0
  0
SOLID
  5
1A54F
  8
寸法線
  6
CONTINUOUS
 62
     0
 10
205.4624066180386
 20
9.580533268620846
 30
0.0
 11
205.422287233438
 21
11.93309618984693
 31
0.0
 12
205.4624066180386
 22
11.93309618984693
 32
0.0
 13
205.4624066180386
 23
11.93309618984693
 33
0.0
  0
SOLID
  5
1A550
  8
寸法線
  6
CONTINUOUS
 62
     0
 10
205.422287233438
 20
12.99875665526944
 30
0.0
 11
205.422287233438
 21
13.64195152471386
 31
0.0
 12
205.4624066180386
 22
12.96218300371882
 32
0.0
 13
205.4624066180386
 23
12.96218300371882
 33
0.0
  0
SOLID
  5
1A551
  8
寸法線
  6
CONTINUOUS
 62
     0
 10
205.4624066180386
 20
12.96218300371882
 30
0.0
 11
205.422287233438
 21
13.64195152471386
 31
0.0
 12
205.4624066180386
 22
13.62576419351757
 32
0.0
 13
205.4624066180386
 23
13.62576419351757
 33
0.0
  0
SOLID
  5
1A552
  8
寸法線
  6
CONTINUOUS
 62
     0
 10
205.4624066180386
 20
7.887865264950216
 30
0.0
 11
205.4624066180386
 21
8.549950018829714
 31
0.0
 12
205.4746111416113
 22
7.892789534530369
 32
0.0
 13
205.4746111416113
 23
7.892789534530369
 33
0.0
  0
SOLID
  5
1A553
  8
寸法線
  6
CONTINUOUS
 62
     0
 10
205.4746111416113
 20
7.892789534530369
 30
0.0
 11
205.4624066180386
 21
8.549950018829714
 31
0.0
 12
205.4746111416113
 22
8.564821273831107
 32
0.0
 13
205.4746111416113
 23
8.564821273831107
 33
0.0
  0
SOLID
  5
1A554
  8
寸法線
  6
CONTINUOUS
 62
     0
 10
205.4624066180386
 20
12.96218300371882
 30
0.0
 11
205.4624066180386
 21
13.62576419351757
 31
0.0
 12
205.4746111416113
 22
12.95105711041485
 32
0.0
 13
205.4746111416113
 23
12.95105711041485
 33
0.0
  0
SOLID
  5
1A555
  8
寸法線
  6
CONTINUOUS
 62
     0
 10
205.4746111416113
 20
12.95105711041485
 30
0.0
 11
205.4624066180386
 21
13.62576419351757
 31
0.0
 12
205.4746111416113
 22
13.62083992393742
 32
0.0
 13
205.4746111416113
 23
13.62083992393742
 33
0.0
  0
SOLID
  5
1A556
  8
寸法線
  6
CONTINUOUS
 62
     0
 10
205.4746111416113
 20
7.892789534530369
 30
0.0
 11
205.4746111416113
 21
8.564821273831107
 31
0.0
 12
205.5240586427154
 22
7.913750085761498
 32
0.0
 13
205.5240586427154
 23
7.913750085761498
 33
0.0
  0
SOLID
  5
1A557
  8
寸法線
  6
CONTINUOUS
 62
     0
 10
205.5240586427154
 20
7.913750085761498
 30
0.0
 11
205.4746111416113
 21
8.564821273831107
 31
0.0
 12
205.5240586427154
 22
8.625073228257945
 32
0.0
 13
205.5240586427154
 23
8.625073228257945
 33
0.0
  0
SOLID
  5
1A558
  8
寸法線
  6
CONTINUOUS
 62
     0
 10
205.4746111416113
 20
12.95105711041485
 30
0.0
 11
205.4746111416113
 21
13.62083992393742
 31
0.0
 12
205.5240586427154
 22
12.90597975707477
 32
0.0
 13
205.5240586427154
 23
12.90597975707477
 33
0.0
  0
SOLID
  5
1A559
  8
寸法線
  6
CONTINUOUS
 62
     0
 10
205.5240586427154
 20
12.90597975707477
 30
0.0
 11
205.4746111416113
 21
13.62083992393742
 31
0.0
 12
205.5240586427154
 22
13.59987937270629
 32
0.0
 13
205.5240586427154
 23
13.59987937270629
 33
0.0
  0
SOLID
  5
1A55A
  8
寸法線
  6
CONTINUOUS
 62
     0
 10
205.5240586427154
 20
7.913750085761498
 30
0.0
 11
205.5240586427154
 21
8.625073228257945
 31
0.0
 12
205.5595139674992
 22
7.92877942263299
 32
0.0
 13
205.5595139674992
 23
7.92877942263299
 33
0.0
  0
SOLID
  5
1A55B
  8
寸法線
  6
CONTINUOUS
 62
     0
 10
205.5595139674992
 20
7.92877942263299
 30
0.0
 11
205.5240586427154
 21
8.625073228257945
 31
0.0
 12
205.5595139674992
 22
8.66827566650785
 32
0.0
 13
205.5595139674992
 23
8.66827566650785
 33
0.0
  0
SOLID
  5
1A55C
  8
寸法線
  6
CONTINUOUS
 62
     0
 10
205.5240586427154
 20
12.90597975707477
 30
0.0
 11
205.5240586427154
 21
13.59987937270629
 31
0.0
 12
205.5595139674992
 22
12.85902931933314
 32
0.0
 13
205.5595139674992
 23
12.85902931933314
 33
0.0
  0
SOLID
  5
1A55D
  8
寸法線
  6
CONTINUOUS
 62
     0
 10
205.5595139674992
 20
12.85902931933314
 30
0.0
 11
205.5240586427154
 21
13.59987937270629
 31
0.0
 12
205.5595139674992
 22
13.5848500358348
 32
0.0
 13
205.5595139674992
 23
13.5848500358348
 33
0.0
  0
SOLID
  5
1A55E
  8
寸法線
  6
CONTINUOUS
 62
     0
 10
205.5595139674992
 20
7.92877942263299
 30
0.0
 11
205.5595139674992
 21
8.66827566650785
 31
0.0
 12
205.6433238766405
 22
7.966060926607364
 32
0.0
 13
205.6433238766405
 23
7.966060926607364
 33
0.0
  0
SOLID
  5
1A55F
  8
寸法線
  6
CONTINUOUS
 62
     0
 10
205.6433238766405
 20
7.966060926607364
 30
0.0
 11
205.5595139674992
 21
8.66827566650785
 31
0.0
 12
205.6433238766405
 22
8.770398336275806
 32
0.0
 13
205.6433238766405
 23
8.770398336275806
 33
0.0
  0
SOLID
  5
1A560
  8
寸法線
  6
CONTINUOUS
 62
     0
 10
205.5595139674992
 20
12.85902931933314
 30
0.0
 11
205.5595139674992
 21
13.5848500358348
 31
0.0
 12
205.6433238766405
 22
12.74804706362769
 32
0.0
 13
205.6433238766405
 23
12.74804706362769
 33
0.0
  0
SOLID
  5
1A561
  8
寸法線
  6
CONTINUOUS
 62
     0
 10
205.6433238766405
 20
12.74804706362769
 30
0.0
 11
205.5595139674992
 21
13.5848500358348
 31
0.0
 12
205.6433238766405
 22
13.54756853186042
 32
0.0
 13
205.6433238766405
 23
13.54756853186042
 33
0.0
  0
SOLID
  5
1A562
  8
寸法線
  6
CONTINUOUS
 62
     0
 10
205.6433238766405
 20
7.966060926607364
 30
0.0
 11
205.6433238766405
 21
8.770398336275806
 31
0.0
 12
205.7260025915045
 22
8.00461701930318
 32
0.0
 13
205.7260025915045
 23
8.00461701930318
 33
0.0
  0
SOLID
  5
1A563
  8
寸法線
  6
CONTINUOUS
 62
     0
 10
205.7260025915045
 20
8.00461701930318
 30
0.0
 11
205.6433238766405
 21
8.770398336275806
 31
0.0
 12
205.7260025915045
 22
8.871142641828584
 32
0.0
 13
205.7260025915045
 23
8.871142641828584
 33
0.0
  0
SOLID
  5
1A564
  8
寸法線
  6
CONTINUOUS
 62
     0
 10
205.6433238766405
 20
12.74804706362769
 30
0.0
 11
205.6433238766405
 21
13.54756853186042
 31
0.0
 12
205.7260025915045
 22
12.63856275123034
 32
0.0
 13
205.7260025915045
 23
12.63856275123034
 33
0.0
  0
SOLID
  5
1A565
  8
寸法線
  6
CONTINUOUS
 62
     0
 10
205.7260025915045
 20
12.63856275123034
 30
0.0
 11
205.6433238766405
 21
13.54756853186042
 31
0.0
 12
205.7260025915045
 22
13.50901243916461
 32
0.0
 13
205.7260025915045
 23
13.50901243916461
 33
0.0
  0
SOLID
  5
1A566
  8
寸法線
  6
CONTINUOUS
 62
     0
 10
205.7260025915045
 20
8.00461701930318
 30
0.0
 11
205.7260025915045
 21
8.871142641828584
 31
0.0
 12
205.8075123511973
 22
8.044430091441951
 32
0.0
 13
205.8075123511973
 23
8.044430091441951
 33
0.0
  0
SOLID
  5
1A567
  8
寸法線
  6
CONTINUOUS
 62
     0
 10
205.8075123511973
 20
8.044430091441951
 30
0.0
 11
205.7260025915045
 21
8.871142641828584
 31
0.0
 12
205.8075123511973
 22
8.970462571384196
 32
0.0
 13
205.8075123511973
 23
8.970462571384196
 33
0.0
  0
SOLID
  5
1A568
  8
寸法線
  6
CONTINUOUS
 62
     0
 10
205.7260025915045
 20
12.63856275123034
 30
0.0
 11
205.7260025915045
 21
13.50901243916461
 31
0.0
 12
205.8075123511973
 22
12.53062638564537
 32
0.0
 13
205.8075123511973
 23
12.53062638564537
 33
0.0
  0
SOLID
  5
1A569
  8
寸法線
  6
CONTINUOUS
 62
     0
 10
205.8075123511973
 20
12.53062638564537
 30
0.0
 11
205.7260025915045
 21
13.50901243916461
 31
0.0
 12
205.8075123511973
 22
13.46919936702582
 32
0.0
 13
205.8075123511973
 23
13.46919936702582
 33
0.0
  0
SOLID
  5
1A56A
  8
寸法線
  6
CONTINUOUS
 62
     0
 10
205.8075123511973
 20
8.044430091441951
 30
0.0
 11
205.8075123511973
 21
8.970462571384196
 31
0.0
 12
205.8190186802247
 22
8.050312224187913
 32
0.0
 13
205.8190186802247
 23
8.050312224187913
 33
0.0
  0
SOLID
  5
1A56B
  8
寸法線
  6
CONTINUOUS
 62
     0
 10
205.8190186802247
 20
8.050312224187913
 30
0.0
 11
205.8075123511973
 21
8.970462571384196
 31
0.0
 12
205.8190186802247
 22
8.984483073870603
 32
0.0
 13
205.8190186802247
 23
8.984483073870603
 33
0.0
  0
SOLID
  5
1A56C
  8
寸法線
  6
CONTINUOUS
 62
     0
 10
205.8075123511973
 20
12.53062638564537
 30
0.0
 11
205.8075123511973
 21
13.46919936702584
 31
0.0
 12
205.8190186802247
 22
12.51538954356514
 32
0.0
 13
205.8190186802247
 23
12.51538954356514
 33
0.0
  0
SOLID
  5
1A56D
  8
寸法線
  6
CONTINUOUS
 62
     0
 10
205.8190186802247
 20
12.51538954356514
 30
0.0
 11
205.8075123511973
 21
13.46919936702584
 31
0.0
 12
205.8190186802247
 22
13.46331723427988
 32
0.0
 13
205.8190186802247
 23
13.46331723427988
 33
0.0
  0
SOLID
  5
1A56E
  8
寸法線
  6
CONTINUOUS
 62
     0
 10
205.8190186802247
 20
8.050312224187913
 30
0.0
 11
205.8190186802247
 21
8.984483073870603
 31
0.0
 12
205.8788253927781
 22
8.080885921628909
 32
0.0
 13
205.8788253927781
 23
8.080885921628909
 33
0.0
  0
SOLID
  5
1A56F
  8
寸法線
  6
CONTINUOUS
 62
     0
 10
205.8788253927781
 20
8.080885921628909
 30
0.0
 11
205.8190186802247
 21
8.984483073870603
 31
0.0
 12
205.8788253927781
 22
9.096373563199801
 32
0.0
 13
205.8788253927781
 23
9.096373563199801
 33
0.0
  0
SOLID
  5
1A570
  8
寸法線
  6
CONTINUOUS
 62
     0
 10
205.8190186802247
 20
12.51538954356514
 30
0.0
 11
205.8190186802247
 21
13.46331723427988
 31
0.0
 12
205.8788253927781
 22
12.43619265702143
 32
0.0
 13
205.8788253927781
 23
12.43619265702143
 33
0.0
  0
SOLID
  5
1A571
  8
寸法線
  6
CONTINUOUS
 62
     0
 10
205.8788253927781
 20
12.43619265702143
 30
0.0
 11
205.8190186802247
 21
13.46331723427988
 31
0.0
 12
205.8788253927781
 22
13.43274353683889
 32
0.0
 13
205.8788253927781
 23
13.43274353683889
 33
0.0
  0
SOLID
  5
1A572
  8
寸法線
  6
CONTINUOUS
 62
     0
 10
205.8788253927781
 20
8.080885921628909
 30
0.0
 11
205.8788253927781
 21
9.096373563199801
 31
0.0
 12
205.8878159287089
 22
8.085481959659504
 32
0.0
 13
205.8878159287089
 23
8.085481959659504
 33
0.0
  0
SOLID
  5
1A573
  8
寸法線
  6
CONTINUOUS
 62
     0
 10
205.8878159287089
 20
8.085481959659504
 30
0.0
 11
205.8788253927781
 21
9.096373563199801
 31
0.0
 12
205.8878159287089
 22
9.11319367287778
 32
0.0
 13
205.8878159287089
 23
9.11319367287778
 33
0.0
  0
SOLID
  5
1A574
  8
寸法線
  6
CONTINUOUS
 62
     0
 10
205.8788253927781
 20
12.43619265702143
 30
0.0
 11
205.8788253927781
 21
13.43274353683889
 31
0.0
 12
205.8878159287089
 22
12.41813722690069
 32
0.0
 13
205.8878159287089
 23
12.41813722690069
 33
0.0
  0
SOLID
  5
1A575
  8
寸法線
  6
CONTINUOUS
 62
     0
 10
205.8878159287089
 20
12.41813722690069
 30
0.0
 11
205.8788253927781
 21
13.43274353683889
 31
0.0
 12
205.8878159287089
 22
13.4281474988083
 32
0.0
 13
205.8878159287089
 23
13.4281474988083
 33
0.0
  0
SOLID
  5
1A576
  8
寸法線
  6
CONTINUOUS
 62
     0
 10
205.8878159287089
 20
8.085481959659504
 30
0.0
 11
205.8878159287089
 21
9.11319367287778
 31
0.0
 12
205.9668766479146
 22
8.127753874810653
 32
0.0
 13
205.9668766479146
 23
8.127753874810653
 33
0.0
  0
SOLID
  5
1A577
  8
寸法線
  6
CONTINUOUS
 62
     0
 10
205.9668766479146
 20
8.127753874810653
 30
0.0
 11
205.8878159287089
 21
9.11319367287778
 31
0.0
 12
205.9668766479146
 22
9.261105875053076
 32
0.0
 13
205.9668766479146
 23
9.261105875053076
 33
0.0
  0
SOLID
  5
1A578
  8
寸法線
  6
CONTINUOUS
 62
     0
 10
205.8878159287089
 20
12.41813722690069
 30
0.0
 11
205.8878159287089
 21
13.42814749880828
 31
0.0
 12
205.9668766479146
 22
12.25936189894452
 32
0.0
 13
205.9668766479146
 23
12.25936189894452
 33
0.0
  0
SOLID
  5
1A579
  8
寸法線
  6
CONTINUOUS
 62
     0
 10
205.9668766479146
 20
12.25936189894452
 30
0.0
 11
205.8878159287089
 21
13.42814749880828
 31
0.0
 12
205.9668766479146
 22
13.38587558365713
 32
0.0
 13
205.9668766479146
 23
13.38587558365713
 33
0.0
  0
SOLID
  5
1A57A
  8
寸法線
  6
CONTINUOUS
 62
     0
 10
205.9668766479146
 20
8.127753874810653
 30
0.0
 11
205.9668766479146
 21
9.261105875053076
 31
0.0
 12
206.0446584003261
 22
8.171226530532278
 32
0.0
 13
206.0446584003261
 23
8.171226530532278
 33
0.0
  0
SOLID
  5
1A57B
  8
寸法線
  6
CONTINUOUS
 62
     0
 10
206.0446584003261
 20
8.171226530532278
 30
0.0
 11
205.9668766479146
 21
9.261105875053076
 31
0.0
 12
206.0446584003261
 22
9.406625298653399
 32
0.0
 13
206.0446584003261
 23
9.406625298653399
 33
0.0
  0
SOLID
  5
1A57C
  8
寸法線
  6
CONTINUOUS
 62
     0
 10
205.9668766479146
 20
12.25936189894452
 30
0.0
 11
205.9668766479146
 21
13.38587558365713
 31
0.0
 12
206.0446584003261
 22
12.10315508256062
 32
0.0
 13
206.0446584003261
 23
12.10315508256062
 33
0.0
  0
SOLID
  5
1A57D
  8
寸法線
  6
CONTINUOUS
 62
     0
 10
206.0446584003261
 20
12.10315508256062
 30
0.0
 11
205.9668766479146
 21
13.38587558365713
 31
0.0
 12
206.0446584003261
 22
13.34240292793551
 32
0.0
 13
206.0446584003261
 23
13.34240292793551
 33
0.0
  0
SOLID
  5
1A57E
  8
寸法線
  6
CONTINUOUS
 62
     0
 10
206.0446584003261
 20
8.171226530532278
 30
0.0
 11
206.0446584003261
 21
9.406625298653399
 31
0.0
 12
206.1138167401664
 22
8.211611981107511
 32
0.0
 13
206.1138167401664
 23
8.211611981107511
 33
0.0
  0
SOLID
  5
1A57F
  8
寸法線
  6
CONTINUOUS
 62
     0
 10
206.1138167401664
 20
8.211611981107511
 30
0.0
 11
206.0446584003261
 21
9.406625298653399
 31
0.0
 12
206.1138167401664
 22
9.536011452072362
 32
0.0
 13
206.1138167401664
 23
9.536011452072362
 33
0.0
  0
SOLID
  5
1A580
  8
寸法線
  6
CONTINUOUS
 62
     0
 10
206.0446584003261
 20
12.10315508256062
 30
0.0
 11
206.0446584003261
 21
13.34240292793551
 31
0.0
 12
206.1138167401664
 22
11.96426641320163
 32
0.0
 13
206.1138167401664
 23
11.96426641320163
 33
0.0
  0
SOLID
  5
1A581
  8
寸法線
  6
CONTINUOUS
 62
     0
 10
206.1138167401664
 20
11.96426641320163
 30
0.0
 11
206.0446584003261
 21
13.34240292793551
 31
0.0
 12
206.1138167401664
 22
13.30201747736028
 32
0.0
 13
206.1138167401664
 23
13.30201747736028
 33
0.0
  0
SOLID
  5
1A582
  8
寸法線
  6
CONTINUOUS
 62
     0
 10
206.1138167401664
 20
8.211611981107511
 30
0.0
 11
206.1138167401664
 21
9.536011452072362
 31
0.0
 12
206.1211256615829
 22
8.215880072060907
 32
0.0
 13
206.1211256615829
 23
8.215880072060907
 33
0.0
  0
SOLID
  5
1A583
  8
寸法線
  6
CONTINUOUS
 62
     0
 10
206.1211256615829
 20
8.215880072060907
 30
0.0
 11
206.1138167401664
 21
9.536011452072362
 31
0.0
 12
206.1211256615829
 22
9.560105736966392
 32
0.0
 13
206.1211256615829
 23
9.560105736966392
 33
0.0
  0
SOLID
  5
1A584
  8
寸法線
  6
CONTINUOUS
 62
     0
 10
206.1138167401664
 20
11.96426641320163
 30
0.0
 11
206.1138167401664
 21
13.30201747736028
 31
0.0
 12
206.1211256615829
 22
11.94958812028236
 32
0.0
 13
206.1211256615829
 23
11.94958812028236
 33
0.0
  0
SOLID
  5
1A585
  8
寸法線
  6
CONTINUOUS
 62
     0
 10
206.1211256615829
 20
11.94958812028236
 30
0.0
 11
206.1138167401664
 21
13.30201747736028
 31
0.0
 12
206.1211256615829
 22
13.29774938640688
 32
0.0
 13
206.1211256615829
 23
13.29774938640688
 33
0.0
  0
SOLID
  5
1A586
  8
寸法線
  6
CONTINUOUS
 62
     0
 10
206.1211256615829
 20
8.215880072060907
 30
0.0
 11
206.1211256615829
 21
9.560105736966392
 31
0.0
 12
206.1412284116409
 22
8.22814064803933
 32
0.0
 13
206.1412284116409
 23
8.22814064803933
 33
0.0
  0
SOLID
  5
1A587
  8
寸法線
  6
CONTINUOUS
 62
     0
 10
206.1412284116409
 20
8.22814064803933
 30
0.0
 11
206.1211256615829
 21
9.560105736966392
 31
0.0
 12
206.1412284116409
 22
9.626375622692281
 32
0.0
 13
206.1412284116409
 23
9.626375622692281
 33
0.0
  0
SOLID
  5
1A588
  8
寸法線
  6
CONTINUOUS
 62
     0
 10
206.1211256615829
 20
11.94958812028236
 30
0.0
 11
206.1211256615829
 21
13.29774938640688
 31
0.0
 12
206.1412284116409
 22
11.9092163558291
 32
0.0
 13
206.1412284116409
 23
11.9092163558291
 33
0.0
  0
SOLID
  5
1A589
  8
寸法線
  6
CONTINUOUS
 62
     0
 10
206.1412284116409
 20
11.9092163558291
 30
0.0
 11
206.1211256615829
 21
13.29774938640688
 31
0.0
 12
206.1412284116409
 22
13.28548881042845
 32
0.0
 13
206.1412284116409
 23
13.28548881042845
 33
0.0
  0
SOLID
  5
1A58A
  8
寸法線
  6
CONTINUOUS
 62
     0
 10
206.1412284116409
 20
8.22814064803933
 30
0.0
 11
206.1412284116409
 21
9.626375622692281
 31
0.0
 12
206.1962435076767
 22
8.261694105300734
 32
0.0
 13
206.1962435076767
 23
8.261694105300734
 33
0.0
  0
SOLID
  5
1A58B
  8
寸法線
  6
CONTINUOUS
 62
     0
 10
206.1962435076767
 20
8.261694105300734
 30
0.0
 11
206.1412284116409
 21
9.626375622692281
 31
0.0
 12
206.1962435076767
 22
9.80773608914467
 32
0.0
 13
206.1962435076767
 23
9.80773608914467
 33
0.0
  0
SOLID
  5
1A58C
  8
寸法線
  6
CONTINUOUS
 62
     0
 10
206.1412284116409
 20
11.9092163558291
 30
0.0
 11
206.1412284116409
 21
13.28548881042845
 31
0.0
 12
206.1962435076767
 22
11.71585834963712
 32
0.0
 13
206.1962435076767
 23
11.71585834963712
 33
0.0
  0
SOLID
  5
1A58D
  8
寸法線
  6
CONTINUOUS
 62
     0
 10
206.1962435076767
 20
11.71585834963712
 30
0.0
 11
206.1412284116409
 21
13.28548881042845
 31
0.0
 12
206.1962435076767
 22
13.25193535316703
 32
0.0
 13
206.1962435076767
 23
13.25193535316703
 33
0.0
  0
SOLID
  5
1A58E
  8
寸法線
  6
CONTINUOUS
 62
     0
 10
206.1962435076767
 20
8.261694105300734
 30
0.0
 11
206.1962435076767
 21
9.80773608914467
 31
0.0
 12
206.2699776309021
 22
8.308647706138
 32
0.0
 13
206.2699776309021
 23
8.308647706138
 33
0.0
  0
SOLID
  5
1A58F
  8
寸法線
  6
CONTINUOUS
 62
     0
 10
206.2699776309021
 20
8.308647706138
 30
0.0
 11
206.1962435076767
 21
9.80773608914467
 31
0.0
 12
206.2699776309021
 22
10.0508049183421
 32
0.0
 13
206.2699776309021
 23
10.0508049183421
 33
0.0
  0
SOLID
  5
1A590
  8
寸法線
  6
CONTINUOUS
 62
     0
 10
206.1962435076767
 20
11.71585834963712
 30
0.0
 11
206.1962435076767
 21
13.25193535316705
 31
0.0
 12
206.2699776309021
 22
11.45670978710644
 32
0.0
 13
206.2699776309021
 23
11.45670978710644
 33
0.0
  0
SOLID
  5
1A591
  8
寸法線
  6
CONTINUOUS
 62
     0
 10
206.2699776309021
 20
11.45670978710644
 30
0.0
 11
206.1962435076767
 21
13.25193535316705
 31
0.0
 12
206.2699776309021
 22
13.20498175232978
 32
0.0
 13
206.2699776309021
 23
13.20498175232978
 33
0.0
  0
SOLID
  5
1A592
  8
寸法線
  6
CONTINUOUS
 62
     0
 10
206.2699776309021
 20
8.308647706138
 30
0.0
 11
206.2699776309021
 21
10.0508049183421
 31
0.0
 12
206.2953524891443
 22
8.325515355837922
 32
0.0
 13
206.2953524891443
 23
8.325515355837922
 33
0.0
  0
SOLID
  5
1A593
  8
寸法線
  6
CONTINUOUS
 62
     0
 10
206.2953524891443
 20
8.325515355837922
 30
0.0
 11
206.2699776309021
 21
10.0508049183421
 31
0.0
 12
206.2953524891443
 22
10.13445461558107
 32
0.0
 13
206.2953524891443
 23
10.13445461558107
 33
0.0
  0
SOLID
  5
1A594
  8
寸法線
  6
CONTINUOUS
 62
     0
 10
206.2699776309021
 20
11.45670978710644
 30
0.0
 11
206.2699776309021
 21
13.20498175232978
 31
0.0
 12
206.2953524891443
 22
11.36752641107594
 32
0.0
 13
206.2953524891443
 23
11.36752641107594
 33
0.0
  0
SOLID
  5
1A595
  8
寸法線
  6
CONTINUOUS
 62
     0
 10
206.2953524891443
 20
11.36752641107594
 30
0.0
 11
206.2699776309021
 21
13.20498175232978
 31
0.0
 12
206.2953524891443
 22
13.18811410262986
 32
0.0
 13
206.2953524891443
 23
13.18811410262986
 33
0.0
  0
SOLID
  5
1A596
  8
寸法線
  6
CONTINUOUS
 62
     0
 10
206.2953524891443
 20
8.325515355837922
 30
0.0
 11
206.2953524891443
 21
10.13445461558107
 31
0.0
 12
206.3023318792139
 22
8.330154826359902
 32
0.0
 13
206.3023318792139
 23
8.330154826359902
 33
0.0
  0
SOLID
  5
1A597
  8
寸法線
  6
CONTINUOUS
 62
     0
 10
206.3023318792139
 20
8.330154826359902
 30
0.0
 11
206.2953524891443
 21
10.13445461558107
 31
0.0
 12
206.3023318792139
 22
10.20531755215993
 32
0.0
 13
206.3023318792139
 23
10.20531755215993
 33
0.0
  0
SOLID
  5
1A598
  8
寸法線
  6
CONTINUOUS
 62
     0
 10
206.2953524891443
 20
11.36752641107594
 30
0.0
 11
206.2953524891443
 21
13.18811410262986
 31
0.0
 12
206.3023318792139
 22
11.34299639939647
 32
0.0
 13
206.3023318792139
 23
11.34299639939647
 33
0.0
  0
SOLID
  5
1A599
  8
寸法線
  6
CONTINUOUS
 62
     0
 10
206.3023318792139
 20
11.34299639939647
 30
0.0
 11
206.2953524891443
 21
13.18811410262986
 31
0.0
 12
206.3023318792139
 22
13.18347463210788
 32
0.0
 13
206.3023318792139
 23
13.18347463210788
 33
0.0
  0
SOLID
  5
1A59A
  8
寸法線
  6
CONTINUOUS
 62
     0
 10
206.3023318792139
 20
8.330154826359902
 30
0.0
 11
206.3023318792139
 21
10.20531755215993
 31
0.0
 12
206.3422943555253
 22
8.356719429997405
 32
0.0
 13
206.3422943555253
 23
8.356719429997405
 33
0.0
  0
SOLID
  5
1A59B
  8
寸法線
  6
CONTINUOUS
 62
     0
 10
206.3422943555253
 20
8.356719429997405
 30
0.0
 11
206.3023318792139
 21
10.20531755215993
 31
0.0
 12
206.3422943555253
 22
10.61106338326031
 32
0.0
 13
206.3422943555253
 23
10.61106338326031
 33
0.0
  0
SOLID
  5
1A59C
  8
寸法線
  6
CONTINUOUS
 62
     0
 10
206.3023318792139
 20
11.34299639939647
 30
0.0
 11
206.3023318792139
 21
13.18347463210788
 31
0.0
 12
206.3422943555253
 22
10.91173259819657
 32
0.0
 13
206.3422943555253
 23
10.91173259819657
 33
0.0
  0
SOLID
  5
1A59D
  8
寸法線
  6
CONTINUOUS
 62
     0
 10
206.3422943555253
 20
10.91173259819657
 30
0.0
 11
206.3023318792139
 21
13.18347463210788
 31
0.0
 12
206.3422943555253
 22
13.15691002847037
 32
0.0
 13
206.3422943555253
 23
13.15691002847037
 33
0.0
  0
SOLID
  5
1A59E
  8
寸法線
  6
CONTINUOUS
 62
     0
 10
206.3422943555253
 20
8.356719429997405
 30
0.0
 11
206.3422943555253
 21
10.61106338326031
 31
0.0
 12
206.3566496101315
 22
8.366679278704508
 32
0.0
 13
206.3566496101315
 23
8.366679278704508
 33
0.0
  0
SOLID
  5
1A59F
  8
寸法線
  6
CONTINUOUS
 62
     0
 10
206.3566496101315
 20
8.366679278704508
 30
0.0
 11
206.3422943555253
 21
10.61106338326031
 31
0.0
 12
206.3566496101315
 22
10.75681472923389
 32
0.0
 13
206.3566496101315
 23
10.75681472923389
 33
0.0
  0
SOLID
  5
1A5A0
  8
寸法線
  6
CONTINUOUS
 62
     0
 10
206.3422943555253
 20
10.91173259819657
 30
0.0
 11
206.3422943555253
 21
13.15691002847037
 31
0.0
 12
206.3566496101315
 22
10.75681472923389
 32
0.0
 13
206.3566496101315
 23
10.75681472923389
 33
0.0
  0
SOLID
  5
1A5A1
  8
寸法線
  6
CONTINUOUS
 62
     0
 10
206.3566496101315
 20
10.75681472923389
 30
0.0
 11
206.3422943555253
 21
13.15691002847037
 31
0.0
 12
206.3566496101315
 22
13.14695017976327
 32
0.0
 13
206.3566496101315
 23
13.14695017976327
 33
0.0
  0
SOLID
  5
1A5A2
  8
寸法線
  6
CONTINUOUS
 62
     0
 10
206.3566496101315
 20
8.366679278704508
 30
0.0
 11
206.3566496101315
 21
13.14695017976327
 31
0.0
 12
206.4131606531649
 22
8.405887321636252
 32
0.0
 13
206.4131606531649
 23
8.405887321636252
 33
0.0
  0
SOLID
  5
1A5A3
  8
寸法線
  6
CONTINUOUS
 62
     0
 10
206.4131606531649
 20
8.405887321636252
 30
0.0
 11
206.3566496101315
 21
13.14695017976327
 31
0.0
 12
206.4131606531649
 22
13.10774213683155
 32
0.0
 13
206.4131606531649
 23
13.10774213683155
 33
0.0
  0
SOLID
  5
1A5A4
  8
寸法線
  6
CONTINUOUS
 62
     0
 10
206.4131606531649
 20
8.405887321636252
 30
0.0
 11
206.4131606531649
 21
13.10774213683153
 31
0.0
 12
206.4825441578758
 22
8.456128925171802
 32
0.0
 13
206.4825441578758
 23
8.456128925171802
 33
0.0
  0
SOLID
  5
1A5A5
  8
寸法線
  6
CONTINUOUS
 62
     0
 10
206.4825441578758
 20
8.456128925171802
 30
0.0
 11
206.4131606531649
 21
13.10774213683153
 31
0.0
 12
206.4825441578758
 22
13.05750053329595
 32
0.0
 13
206.4825441578758
 23
13.05750053329595
 33
0.0
  0
SOLID
  5
1A5A6
  8
寸法線
  6
CONTINUOUS
 62
     0
 10
206.4825441578758
 20
8.456128925171802
 30
0.0
 11
206.4825441578758
 21
13.05750053329598
 31
0.0
 12
206.5504131809322
 22
8.507421294337297
 32
0.0
 13
206.5504131809322
 23
8.507421294337297
 33
0.0
  0
SOLID
  5
1A5A7
  8
寸法線
  6
CONTINUOUS
 62
     0
 10
206.5504131809322
 20
8.507421294337297
 30
0.0
 11
206.4825441578758
 21
13.05750053329598
 31
0.0
 12
206.5504131809322
 22
13.0062081641305
 32
0.0
 13
206.5504131809322
 23
13.0062081641305
 33
0.0
  0
SOLID
  5
1A5A8
  8
寸法線
  6
CONTINUOUS
 62
     0
 10
206.5504131809322
 20
8.507421294337297
 30
0.0
 11
206.5504131809322
 21
13.00620816413048
 31
0.0
 12
206.6167367252997
 22
8.559741002961937
 32
0.0
 13
206.6167367252997
 23
8.559741002961937
 33
0.0
  0
SOLID
  5
1A5A9
  8
寸法線
  6
CONTINUOUS
 62
     0
 10
206.6167367252997
 20
8.559741002961937
 30
0.0
 11
206.5504131809322
 21
13.00620816413048
 31
0.0
 12
206.6167367252997
 22
12.95388845550582
 32
0.0
 13
206.6167367252997
 23
12.95388845550582
 33
0.0
  0
SOLID
  5
1A5AA
  8
寸法線
  6
CONTINUOUS
 62
     0
 10
206.6167367252997
 20
8.559741002961937
 30
0.0
 11
206.6167367252997
 21
12.95388845550584
 31
0.0
 12
206.6814844997927
 22
8.613064155670052
 32
0.0
 13
206.6814844997927
 23
8.613064155670052
 33
0.0
  0
SOLID
  5
1A5AB
  8
寸法線
  6
CONTINUOUS
 62
     0
 10
206.6814844997927
 20
8.613064155670052
 30
0.0
 11
206.6167367252997
 21
12.95388845550584
 31
0.0
 12
206.6814844997927
 22
12.90056530279772
 32
0.0
 13
206.6814844997927
 23
12.90056530279772
 33
0.0
  0
SOLID
  5
1A5AC
  8
寸法線
  6
CONTINUOUS
 62
     0
 10
206.6814844997927
 20
8.613064155670052
 30
0.0
 11
206.6814844997927
 21
12.90056530279772
 31
0.0
 12
206.7446269329086
 22
8.667366398794556
 32
0.0
 13
206.7446269329086
 23
8.667366398794556
 33
0.0
  0
SOLID
  5
1A5AD
  8
寸法線
  6
CONTINUOUS
 62
     0
 10
206.7446269329086
 20
8.667366398794556
 30
0.0
 11
206.6814844997927
 21
12.90056530279772
 31
0.0
 12
206.7446269329086
 22
12.84626305967322
 32
0.0
 13
206.7446269329086
 23
12.84626305967322
 33
0.0
  0
SOLID
  5
1A5AE
  8
寸法線
  6
CONTINUOUS
 62
     0
 10
206.7446269329086
 20
8.667366398794556
 30
0.0
 11
206.7446269329086
 21
12.84626305967322
 31
0.0
 12
206.8061351863339
 22
8.72262293149971
 32
0.0
 13
206.8061351863339
 23
8.72262293149971
 33
0.0
  0
SOLID
  5
1A5AF
  8
寸法線
  6
CONTINUOUS
 62
     0
 10
206.8061351863339
 20
8.72262293149971
 30
0.0
 11
206.7446269329086
 21
12.84626305967322
 31
0.0
 12
206.8061351863339
 22
12.79100652696809
 32
0.0
 13
206.8061351863339
 23
12.79100652696809
 33
0.0
  0
SOLID
  5
1A5B0
  8
寸法線
  6
CONTINUOUS
 62
     0
 10
206.8061351863339
 20
8.72262293149971
 30
0.0
 11
206.8061351863339
 21
12.79100652696807
 31
0.0
 12
206.8659811681152
 22
8.778808517108134
 32
0.0
 13
206.8659811681152
 23
8.778808517108134
 33
0.0
  0
SOLID
  5
1A5B1
  8
寸法線
  6
CONTINUOUS
 62
     0
 10
206.8659811681152
 20
8.778808517108134
 30
0.0
 11
206.8061351863339
 21
12.79100652696807
 31
0.0
 12
206.8659811681152
 22
12.73482094135964
 32
0.0
 13
206.8659811681152
 23
12.73482094135964
 33
0.0
  0
SOLID
  5
1A5B2
  8
寸法線
  6
CONTINUOUS
 62
     0
 10
206.8659811681152
 20
8.778808517108134
 30
0.0
 11
206.8659811681152
 21
12.73482094135964
 31
0.0
 12
206.9241375454889
 22
8.835897494626852
 32
0.0
 13
206.9241375454889
 23
8.835897494626852
 33
0.0
  0
SOLID
  5
1A5B3
  8
寸法線
  6
CONTINUOUS
 62
     0
 10
206.9241375454889
 20
8.835897494626852
 30
0.0
 11
206.8659811681152
 21
12.73482094135964
 31
0.0
 12
206.9241375454889
 22
12.67773196384089
 32
0.0
 13
206.9241375454889
 23
12.67773196384089
 33
0.0
  0
SOLID
  5
1A5B4
  8
寸法線
  6
CONTINUOUS
 62
     0
 10
206.9241375454889
 20
8.835897494626852
 30
0.0
 11
206.9241375454889
 21
12.67773196384092
 31
0.0
 12
206.9805777573653
 22
8.893863790467146
 32
0.0
 13
206.9805777573653
 23
8.893863790467146
 33
0.0
  0
SOLID
  5
1A5B5
  8
寸法線
  6
CONTINUOUS
 62
     0
 10
206.9805777573653
 20
8.893863790467146
 30
0.0
 11
206.9241375454889
 21
12.67773196384092
 31
0.0
 12
206.9805777573653
 22
12.61976566800066
 32
0.0
 13
206.9805777573653
 23
12.61976566800066
 33
0.0
  0
SOLID
  5
1A5B6
  8
寸法線
  6
CONTINUOUS
 62
     0
 10
206.9805777573653
 20
8.893863790467146
 30
0.0
 11
206.9805777573653
 21
12.61976566800063
 31
0.0
 12
207.0352760264587
 22
8.952680930352843
 32
0.0
 13
207.0352760264587
 23
8.952680930352843
 33
0.0
  0
SOLID
  5
1A5B7
  8
寸法線
  6
CONTINUOUS
 62
     0
 10
207.0352760264587
 20
8.952680930352843
 30
0.0
 11
206.9805777573653
 21
12.61976566800063
 31
0.0
 12
207.0352760264587
 22
12.56094852811493
 32
0.0
 13
207.0352760264587
 23
12.56094852811493
 33
0.0
  0
SOLID
  5
1A5B8
  8
寸法線
  6
CONTINUOUS
 62
     0
 10
207.0352760264587
 20
8.952680930352843
 30
0.0
 11
207.0352760264587
 21
12.56094852811493
 31
0.0
 12
207.0882073710612
 22
9.012322051411603
 32
0.0
 13
207.0882073710612
 23
9.012322051411603
 33
0.0
  0
SOLID
  5
1A5B9
  8
寸法線
  6
CONTINUOUS
 62
     0
 10
207.0882073710612
 20
9.012322051411603
 30
0.0
 11
207.0352760264587
 21
12.56094852811493
 31
0.0
 12
207.0882073710612
 22
12.50130740705614
 32
0.0
 13
207.0882073710612
 23
12.50130740705614
 33
0.0
  0
SOLID
  5
1A5BA
  8
寸法線
  6
CONTINUOUS
 62
     0
 10
207.0882073710612
 20
9.012322051411603
 30
0.0
 11
207.0882073710612
 21
12.50130740705617
 31
0.0
 12
207.1393476164516
 22
9.072759914443697
 32
0.0
 13
207.1393476164516
 23
9.072759914443697
 33
0.0
  0
SOLID
  5
1A5BB
  8
寸法線
  6
CONTINUOUS
 62
     0
 10
207.1393476164516
 20
9.072759914443697
 30
0.0
 11
207.0882073710612
 21
12.50130740705617
 31
0.0
 12
207.1393476164516
 22
12.44086954402411
 32
0.0
 13
207.1393476164516
 23
12.44086954402411
 33
0.0
  0
SOLID
  5
1A5BC
  8
寸法線
  6
CONTINUOUS
 62
     0
 10
207.1393476164516
 20
9.072759914443697
 30
0.0
 11
207.1393476164516
 21
12.44086954402408
 31
0.0
 12
207.1886734059368
 22
9.133966916362638
 32
0.0
 13
207.1886734059368
 23
9.133966916362638
 33
0.0
  0
SOLID
  5
1A5BD
  8
寸法線
  6
CONTINUOUS
 62
     0
 10
207.1886734059368
 20
9.133966916362638
 30
0.0
 11
207.1393476164516
 21
12.44086954402408
 31
0.0
 12
207.1886734059368
 22
12.3796625421051
 32
0.0
 13
207.1886734059368
 23
12.3796625421051
 33
0.0
  0
SOLID
  5
1A5BE
  8
寸法線
  6
CONTINUOUS
 62
     0
 10
207.1886734059368
 20
9.133966916362638
 30
0.0
 11
207.1886734059368
 21
12.37966254210513
 31
0.0
 12
207.2361622115193
 22
9.195915102802033
 32
0.0
 13
207.2361622115193
 23
9.195915102802033
 33
0.0
  0
SOLID
  5
1A5BF
  8
寸法線
  6
CONTINUOUS
 62
     0
 10
207.2361622115193
 20
9.195915102802033
 30
0.0
 11
207.1886734059368
 21
12.37966254210513
 31
0.0
 12
207.2361622115193
 22
12.31771435566574
 32
0.0
 13
207.2361622115193
 23
12.31771435566574
 33
0.0
  0
SOLID
  5
1A5C0
  8
寸法線
  6
CONTINUOUS
 62
     0
 10
207.2361622115193
 20
9.195915102802033
 30
0.0
 11
207.2361622115193
 21
12.31771435566574
 31
0.0
 12
207.2817923441859
 22
9.258576180882846
 32
0.0
 13
207.2817923441859
 23
9.258576180882846
 33
0.0
  0
SOLID
  5
1A5C1
  8
寸法線
  6
CONTINUOUS
 62
     0
 10
207.2817923441859
 20
9.258576180882846
 30
0.0
 11
207.2361622115193
 21
12.31771435566574
 31
0.0
 12
207.2817923441859
 22
12.25505327758493
 32
0.0
 13
207.2817923441859
 23
12.25505327758493
 33
0.0
  0
SOLID
  5
1A5C2
  8
寸法線
  6
CONTINUOUS
 62
     0
 10
207.2817923441859
 20
9.258576180882846
 30
0.0
 11
207.2817923441859
 21
12.25505327758493
 31
0.0
 12
207.3255429638135
 22
9.321921532135288
 32
0.0
 13
207.3255429638135
 23
9.321921532135288
 33
0.0
  0
SOLID
  5
1A5C3
  8
寸法線
  6
CONTINUOUS
 62
     0
 10
207.3255429638135
 20
9.321921532135288
 30
0.0
 11
207.2817923441859
 21
12.25505327758493
 31
0.0
 12
207.3255429638135
 22
12.19170792633248
 32
0.0
 13
207.3255429638135
 23
12.19170792633248
 33
0.0
  0
SOLID
  5
1A5C4
  8
寸法線
  6
CONTINUOUS
 62
     0
 10
207.3255429638135
 20
9.321921532135288
 30
0.0
 11
207.3255429638135
 21
12.19170792633248
 31
0.0
 12
207.3673940886875
 22
9.385922225569391
 32
0.0
 13
207.3673940886875
 23
9.385922225569391
 33
0.0
  0
SOLID
  5
1A5C5
  8
寸法線
  6
CONTINUOUS
 62
     0
 10
207.3673940886875
 20
9.385922225569391
 30
0.0
 11
207.3255429638135
 21
12.19170792633248
 31
0.0
 12
207.3673940886875
 22
12.12770723289842
 32
0.0
 13
207.3673940886875
 23
12.12770723289842
 33
0.0
  0
SOLID
  5
1A5C6
  8
寸法線
  6
CONTINUOUS
 62
     0
 10
207.3673940886875
 20
9.385922225569391
 30
0.0
 11
207.3673940886875
 21
12.12770723289838
 31
0.0
 12
207.4073266046275
 22
9.45054903088833
 32
0.0
 13
207.4073266046275
 23
9.45054903088833
 33
0.0
  0
SOLID
  5
1A5C7
  8
寸法線
  6
CONTINUOUS
 62
     0
 10
207.4073266046275
 20
9.45054903088833
 30
0.0
 11
207.3673940886875
 21
12.12770723289838
 31
0.0
 12
207.4073266046275
 22
12.06308042757944
 32
0.0
 13
207.4073266046275
 23
12.06308042757944
 33
0.0
  0
SOLID
  5
1A5C8
  8
寸法線
  6
CONTINUOUS
 62
     0
 10
207.4073266046275
 20
9.45054903088833
 30
0.0
 11
207.4073266046275
 21
12.06308042757944
 31
0.0
 12
207.445322273717
 22
9.51577243183844
 32
0.0
 13
207.445322273717
 23
9.51577243183844
 33
0.0
  0
SOLID
  5
1A5C9
  8
寸法線
  6
CONTINUOUS
 62
     0
 10
207.445322273717
 20
9.51577243183844
 30
0.0
 11
207.4073266046275
 21
12.06308042757944
 31
0.0
 12
207.445322273717
 22
11.99785702662928
 32
0.0
 13
207.445322273717
 23
11.99785702662928
 33
0.0
  0
SOLID
  5
1A5CA
  8
寸法線
  6
CONTINUOUS
 62
     0
 10
207.445322273717
 20
9.51577243183844
 30
0.0
 11
207.445322273717
 21
11.99785702662933
 31
0.0
 12
207.4813637426334
 22
9.581562639689825
 32
0.0
 13
207.4813637426334
 23
9.581562639689825
 33
0.0
  0
SOLID
  5
1A5CB
  8
寸法線
  6
CONTINUOUS
 62
     0
 10
207.4813637426334
 20
9.581562639689825
 30
0.0
 11
207.445322273717
 21
11.99785702662933
 31
0.0
 12
207.4813637426334
 22
11.932066818778
 32
0.0
 13
207.4813637426334
 23
11.932066818778
 33
0.0
  0
SOLID
  5
1A5CC
  8
寸法線
  6
CONTINUOUS
 62
     0
 10
207.4813637426334
 20
9.581562639689825
 30
0.0
 11
207.4813637426334
 21
11.93206681877795
 31
0.0
 12
207.5154345505733
 22
9.64788960684143
 32
0.0
 13
207.5154345505733
 23
9.64788960684143
 33
0.0
  0
SOLID
  5
1A5CD
  8
寸法線
  6
CONTINUOUS
 62
     0
 10
207.5154345505733
 20
9.64788960684143
 30
0.0
 11
207.4813637426334
 21
11.93206681877795
 31
0.0
 12
207.5154345505733
 22
11.86573985162629
 32
0.0
 13
207.5154345505733
 23
11.86573985162629
 33
0.0
  0
SOLID
  5
1A5CE
  8
寸法線
  6
CONTINUOUS
 62
     0
 10
207.5154345505733
 20
9.64788960684143
 30
0.0
 11
207.5154345505733
 21
11.86573985162634
 31
0.0
 12
207.5475191367704
 22
9.714723040544328
 32
0.0
 13
207.5475191367704
 23
9.714723040544328
 33
0.0
  0
SOLID
  5
1A5CF
  8
寸法線
  6
CONTINUOUS
 62
     0
 10
207.5475191367704
 20
9.714723040544328
 30
0.0
 11
207.5154345505733
 21
11.86573985162634
 31
0.0
 12
207.5475191367704
 22
11.79890641792344
 32
0.0
 13
207.5475191367704
 23
11.79890641792344
 33
0.0
  0
SOLID
  5
1A5D0
  8
寸法線
  6
CONTINUOUS
 62
     0
 10
207.5475191367704
 20
9.714723040544328
 30
0.0
 11
207.5475191367704
 21
11.79890641792344
 31
0.0
 12
207.5776028476026
 22
9.78203241673698
 32
0.0
 13
207.5776028476026
 23
9.78203241673698
 33
0.0
  0
SOLID
  5
1A5D1
  8
寸法線
  6
CONTINUOUS
 62
     0
 10
207.5776028476026
 20
9.78203241673698
 30
0.0
 11
207.5475191367704
 21
11.79890641792344
 31
0.0
 12
207.5776028476026
 22
11.73159704173085
 32
0.0
 13
207.5776028476026
 23
11.73159704173085
 33
0.0
  0
SOLID
  5
1A5D2
  8
寸法線
  6
CONTINUOUS
 62
     0
 10
207.5776028476026
 20
9.78203241673698
 30
0.0
 11
207.5776028476026
 21
11.73159704173079
 31
0.0
 12
207.6056719432844
 22
9.849786993986134
 32
0.0
 13
207.6056719432844
 23
9.849786993986134
 33
0.0
  0
SOLID
  5
1A5D3
  8
寸法線
  6
CONTINUOUS
 62
     0
 10
207.6056719432844
 20
9.849786993986134
 30
0.0
 11
207.5776028476026
 21
11.73159704173079
 31
0.0
 12
207.6056719432844
 22
11.66384246448157
 32
0.0
 13
207.6056719432844
 23
11.66384246448157
 33
0.0
  0
SOLID
  5
1A5D4
  8
寸法線
  6
CONTINUOUS
 62
     0
 10
207.6056719432844
 20
9.849786993986134
 30
0.0
 11
207.6056719432844
 21
11.66384246448164
 31
0.0
 12
207.6317136041423
 22
9.917955827527008
 32
0.0
 13
207.6317136041423
 23
9.917955827527008
 33
0.0
  0
SOLID
  5
1A5D5
  8
寸法線
  6
CONTINUOUS
 62
     0
 10
207.6317136041423
 20
9.917955827527008
 30
0.0
 11
207.6056719432844
 21
11.66384246448164
 31
0.0
 12
207.6317136041423
 22
11.59567363094076
 32
0.0
 13
207.6317136041423
 23
11.59567363094076
 33
0.0
  0
SOLID
  5
1A5D6
  8
寸法線
  6
CONTINUOUS
 62
     0
 10
207.6317136041423
 20
9.917955827527008
 30
0.0
 11
207.6317136041423
 21
11.59567363094076
 31
0.0
 12
207.6557159364694
 22
9.986507783396334
 32
0.0
 13
207.6557159364694
 23
9.986507783396334
 33
0.0
  0
SOLID
  5
1A5D7
  8
寸法線
  6
CONTINUOUS
 62
     0
 10
207.6557159364694
 20
9.986507783396334
 30
0.0
 11
207.6317136041423
 21
11.59567363094076
 31
0.0
 12
207.6557159364694
 22
11.52712167507152
 32
0.0
 13
207.6557159364694
 23
11.52712167507152
 33
0.0
  0
SOLID
  5
1A5D8
  8
寸法線
  6
CONTINUOUS
 62
     0
 10
207.6557159364694
 20
9.986507783396334
 30
0.0
 11
207.6557159364694
 21
11.52712167507144
 31
0.0
 12
207.6776679779582
 22
10.05541155265181
 32
0.0
 13
207.6776679779582
 23
10.05541155265181
 33
0.0
  0
SOLID
  5
1A5D9
  8
寸法線
  6
CONTINUOUS
 62
     0
 10
207.6776679779582
 20
10.05541155265181
 30
0.0
 11
207.6557159364694
 21
11.52712167507144
 31
0.0
 12
207.6776679779582
 22
11.45821790581587
 32
0.0
 13
207.6776679779582
 23
11.45821790581587
 33
0.0
  0
SOLID
  5
1A5DA
  8
寸法線
  6
CONTINUOUS
 62
     0
 10
207.6776679779582
 20
10.05541155265181
 30
0.0
 11
207.6776679779582
 21
11.45821790581596
 31
0.0
 12
207.6975597027065
 22
10.12463566567147
 32
0.0
 13
207.6975597027065
 23
10.12463566567147
 33
0.0
  0
SOLID
  5
1A5DB
  8
寸法線
  6
CONTINUOUS
 62
     0
 10
207.6975597027065
 20
10.12463566567147
 30
0.0
 11
207.6776679779582
 21
11.45821790581596
 31
0.0
 12
207.6975597027065
 22
11.3889937927963
 32
0.0
 13
207.6975597027065
 23
11.3889937927963
 33
0.0
  0
SOLID
  5
1A5DC
  8
寸法線
  6
CONTINUOUS
 62
     0
 10
207.6975597027065
 20
10.12463566567147
 30
0.0
 11
207.6975597027065
 21
11.3889937927963
 31
0.0
 12
207.7153820257966
 22
10.19414850652646
 32
0.0
 13
207.7153820257966
 23
10.19414850652646
 33
0.0
  0
SOLID
  5
1A5DD
  8
寸法線
  6
CONTINUOUS
 62
     0
 10
207.7153820257966
 20
10.19414850652646
 30
0.0
 11
207.6975597027065
 21
11.3889937927963
 31
0.0
 12
207.7153820257966
 22
11.31948095194131
 32
0.0
 13
207.7153820257966
 23
11.31948095194131
 33
0.0
  0
SOLID
  5
1A5DE
  8
寸法線
  6
CONTINUOUS
 62
     0
 10
207.7153820257966
 20
10.19414850652646
 30
0.0
 11
207.7153820257966
 21
11.31948095194131
 31
0.0
 12
207.7311268074452
 22
10.26391832742057
 32
0.0
 13
207.7311268074452
 23
10.26391832742057
 33
0.0
  0
SOLID
  5
1A5DF
  8
寸法線
  6
CONTINUOUS
 62
     0
 10
207.7311268074452
 20
10.26391832742057
 30
0.0
 11
207.7153820257966
 21
11.31948095194131
 31
0.0
 12
207.7311268074452
 22
11.2497111310472
 32
0.0
 13
207.7311268074452
 23
11.2497111310472
 33
0.0
  0
SOLID
  5
1A5E0
  8
寸法線
  6
CONTINUOUS
 62
     0
 10
207.7311268074452
 20
10.26391832742057
 30
0.0
 11
207.7311268074452
 21
11.2497111310472
 31
0.0
 12
207.74478685672
 22
10.3339132631901
 32
0.0
 13
207.74478685672
 23
10.3339132631901
 33
0.0
  0
SOLID
  5
1A5E1
  8
寸法線
  6
CONTINUOUS
 62
     0
 10
207.74478685672
 20
10.3339132631901
 30
0.0
 11
207.7311268074452
 21
11.2497111310472
 31
0.0
 12
207.74478685672
 22
11.17971619527767
 32
0.0
 13
207.74478685672
 23
11.17971619527767
 33
0.0
  0
SOLID
  5
1A5E2
  8
寸法線
  6
CONTINUOUS
 62
     0
 10
207.74478685672
 20
10.3339132631901
 30
0.0
 11
207.74478685672
 21
11.17971619527767
 31
0.0
 12
207.7563559348247
 22
10.40410134585721
 32
0.0
 13
207.7563559348247
 23
10.40410134585721
 33
0.0
  0
SOLID
  5
1A5E3
  8
寸法線
  6
CONTINUOUS
 62
     0
 10
207.7563559348247
 20
10.40410134585721
 30
0.0
 11
207.74478685672
 21
11.17971619527767
 31
0.0
 12
207.7563559348247
 22
11.10952811261056
 32
0.0
 13
207.7563559348247
 23
11.10952811261056
 33
0.0
  0
SOLID
  5
1A5E4
  8
寸法線
  6
CONTINUOUS
 62
     0
 10
207.7563559348247
 20
10.40410134585721
 30
0.0
 11
207.7563559348247
 21
11.10952811261056
 31
0.0
 12
207.7658287579481
 22
10.47445051923033
 32
0.0
 13
207.7658287579481
 23
10.47445051923033
 33
0.0
  0
SOLID
  5
1A5E5
  8
寸法線
  6
CONTINUOUS
 62
     0
 10
207.7658287579481
 20
10.47445051923033
 30
0.0
 11
207.7563559348247
 21
11.10952811261056
 31
0.0
 12
207.7658287579481
 22
11.03917893923744
 32
0.0
 13
207.7658287579481
 23
11.03917893923744
 33
0.0
  0
SOLID
  5
1A5E6
  8
寸法線
  6
CONTINUOUS
 62
     0
 10
207.7658287579481
 20
10.47445051923033
 30
0.0
 11
207.7658287579481
 21
11.03917893923744
 31
0.0
 12
207.773200999677
 22
10.54492865354478
 32
0.0
 13
207.773200999677
 23
10.54492865354478
 33
0.0
  0
SOLID
  5
1A5E7
  8
寸法線
  6
CONTINUOUS
 62
     0
 10
207.773200999677
 20
10.54492865354478
 30
0.0
 11
207.7658287579481
 21
11.03917893923744
 31
0.0
 12
207.773200999677
 22
10.96870080492299
 32
0.0
 13
207.773200999677
 23
10.96870080492299
 33
0.0
  0
SOLID
  5
1A5E8
  8
寸法線
  6
CONTINUOUS
 62
     0
 10
207.773200999677
 20
10.54492865354478
 30
0.0
 11
207.773200999677
 21
10.96870080492299
 31
0.0
 12
207.7784692929727
 22
10.61550356013704
 32
0.0
 13
207.7784692929727
 23
10.61550356013704
 33
0.0
  0
SOLID
  5
1A5E9
  8
寸法線
  6
CONTINUOUS
 62
     0
 10
207.7784692929727
 20
10.61550356013704
 30
0.0
 11
207.773200999677
 21
10.96870080492299
 31
0.0
 12
207.7784692929727
 22
10.89812589833073
 32
0.0
 13
207.7784692929727
 23
10.89812589833073
 33
0.0
  0
SOLID
  5
1A5EA
  8
寸法線
  6
CONTINUOUS
 62
     0
 10
207.7784692929727
 20
10.61550356013704
 30
0.0
 11
207.7784692929727
 21
10.89812589833073
 31
0.0
 12
207.7816312317087
 22
10.68614300614592
 32
0.0
 13
207.7816312317087
 23
10.68614300614592
 33
0.0
  0
SOLID
  5
1A5EB
  8
寸法線
  6
CONTINUOUS
 62
     0
 10
207.7816312317087
 20
10.68614300614592
 30
0.0
 11
207.7784692929727
 21
10.89812589833073
 31
0.0
 12
207.7816312317087
 22
10.82748645232184
 32
0.0
 13
207.7816312317087
 23
10.82748645232184
 33
0.0
  0
SOLID
  5
1A5EC
  8
寸法線
  6
CONTINUOUS
 62
     0
 10
207.7816312317087
 20
10.68614300614592
 30
0.0
 11
207.7816312317087
 21
10.82748645232184
 31
0.0
 12
207.7826853717691
 22
10.75681472923388
 32
0.0
 13
207.7826853717691
 23
10.75681472923388
 33
0.0
  0
ENDBLK
  8
0
  0
BLOCK
  8
0
  2
*X14
 70
     1
 10
0.0
 20
0.0
 30
0.0
  0
TEXT
  5
1A60E
  8
0
  6
CONTINUOUS
 10
212.0917351097154
 20
7.274959223093951
 30
0.0
 40
1.5
  1
OHJI RUBBER & CHEMICALS CO
  0
TEXT
  5
1A60F
  8
0
  6
CONTINUOUS
 10
259.6345922525726
 20
7.274959223093951
 30
0.0
 40
1.5
  1
.,
  0
TEXT
  5
1A610
  8
0
  6
CONTINUOUS
 10
262.063163681144
 20
7.274959223093951
 30
0.0
 40
1.5
  1
LTD
  0
ENDBLK
  8
0
  0
ENDSEC
  0
SECTION
  2
ENTITIES
  0
POLYLINE
  5
19B7D
  8
0
 62
     0
 66
     1
 10
0.0
 20
0.0
 30
0.0
 70
     1
  0
VERTEX
  5
1A0E2
  8
0
 62
     0
 10
45.5
 20
31.5
 30
0.0
 42
-0.9999999999999999
  0
VERTEX
  5
1A0E3
  8
0
 62
     0
 10
44.5
 20
31.5
 30
0.0
  0
VERTEX
  5
1A0E4
  8
0
 62
     0
 10
44.5
 20
33.0
 30
0.0
 42
0.9999999999999999
  0
VERTEX
  5
1A0E5
  8
0
 62
     0
 10
40.5
 20
33.0
 30
0.0
  0
VERTEX
  5
1A0E6
  8
0
 62
     0
 10
40.5
 20
31.5
 30
0.0
 42
-0.9999999999999999
  0
VERTEX
  5
1A0E7
  8
0
 62
     0
 10
39.5
 20
31.5
 30
0.0
  0
VERTEX
  5
1A0E8
  8
0
 62
     0
 10
39.5
 20
33.0
 30
0.0
 42
0.9999999999999999
  0
VERTEX
  5
1A0E9
  8
0
 62
     0
 10
35.5
 20
33.0
 30
0.0
  0
VERTEX
  5
1A0EA
  8
0
 62
     0
 10
35.5
 20
31.5
 30
0.0
 42
-0.9999999999999999
  0
VERTEX
  5
1A0EB
  8
0
 62
     0
 10
34.5
 20
31.5
 30
0.0
  0
VERTEX
  5
1A0EC
  8
0
 62
     0
 10
34.5
 20
33.0
 30
0.0
 42
0.9999999999999999
  0
VERTEX
  5
1A0ED
  8
0
 62
     0
 10
30.5
 20
33.0
 30
0.0
  0
VERTEX
  5
1A0EE
  8
0
 62
     0
 10
30.5
 20
31.0
 30
0.0
 42
0.9999999999999999
  0
VERTEX
  5
1A0EF
  8
0
 62
     0
 10
30.5
 20
30.0
 30
0.0
  0
VERTEX
  5
1A0F0
  8
0
 62
     0
 10
139.5
 20
30.0
 30
0.0
 42
0.9999999999999999
  0
VERTEX
  5
1A0F1
  8
0
 62
     0
 10
139.5
 20
31.0
 30
0.0
  0
VERTEX
  5
1A0F2
  8
0
 62
     0
 10
139.5
 20
33.0
 30
0.0
 42
0.9999999999999999
  0
VERTEX
  5
1A0F3
  8
0
 62
     0
 10
135.5
 20
33.0
 30
0.0
  0
VERTEX
  5
1A0F4
  8
0
 62
     0
 10
135.5
 20
31.5
 30
0.0
 42
-0.9999999999999999
  0
VERTEX
  5
1A0F5
  8
0
 62
     0
 10
134.5
 20
31.5
 30
0.0
  0
VERTEX
  5
1A0F6
  8
0
 62
     0
 10
134.5
 20
33.0
 30
0.0
 42
0.9999999999999999
  0
VERTEX
  5
1A0F7
  8
0
 62
     0
 10
130.5
 20
33.0
 30
0.0
  0
VERTEX
  5
1A0F8
  8
0
 62
     0
 10
130.5
 20
31.5
 30
0.0
 42
-0.9999999999999999
  0
VERTEX
  5
1A0F9
  8
0
 62
     0
 10
129.5
 20
31.5
 30
0.0
  0
VERTEX
  5
1A0FA
  8
0
 62
     0
 10
129.5
 20
33.0
 30
0.0
 42
0.9999999999999999
  0
VERTEX
  5
1A0FB
  8
0
 62
     0
 10
125.5
 20
33.0
 30
0.0
  0
VERTEX
  5
1A0FC
  8
0
 62
     0
 10
125.5
 20
31.5
 30
0.0
 42
-0.9999999999999999
  0
VERTEX
  5
1A0FD
  8
0
 62
     0
 10
124.5
 20
31.5
 30
0.0
  0
VERTEX
  5
1A0FE
  8
0
 62
     0
 10
124.5
 20
33.0
 30
0.0
 42
0.9999999999999999
  0
VERTEX
  5
1A0FF
  8
0
 62
     0
 10
120.5
 20
33.0
 30
0.0
  0
VERTEX
  5
1A100
  8
0
 62
     0
 10
120.5
 20
31.5
 30
0.0
 42
-0.9999999999999999
  0
VERTEX
  5
1A101
  8
0
 62
     0
 10
119.5
 20
31.5
 30
0.0
  0
VERTEX
  5
1A102
  8
0
 62
     0
 10
119.5
 20
33.0
 30
0.0
 42
0.9999999999999999
  0
VERTEX
  5
1A103
  8
0
 62
     0
 10
115.5
 20
33.0
 30
0.0
  0
VERTEX
  5
1A104
  8
0
 62
     0
 10
115.5
 20
31.5
 30
0.0
 42
-0.9999999999999999
  0
VERTEX
  5
1A105
  8
0
 62
     0
 10
114.5
 20
31.5
 30
0.0
  0
VERTEX
  5
1A106
  8
0
 62
     0
 10
114.5
 20
33.0
 30
0.0
 42
0.9999999999999999
  0
VERTEX
  5
1A107
  8
0
 62
     0
 10
110.5
 20
33.0
 30
0.0
  0
VERTEX
  5
1A108
  8
0
 62
     0
 10
110.5
 20
31.5
 30
0.0
 42
-0.9999999999999999
  0
VERTEX
  5
1A109
  8
0
 62
     0
 10
109.5
 20
31.5
 30
0.0
  0
VERTEX
  5
1A10A
  8
0
 62
     0
 10
109.5
 20
33.0
 30
0.0
 42
0.9999999999999999
  0
VERTEX
  5
1A10B
  8
0
 62
     0
 10
105.5
 20
33.0
 30
0.0
  0
VERTEX
  5
1A10C
  8
0
 62
     0
 10
105.5
 20
31.5
 30
0.0
 42
-0.9999999999999999
  0
VERTEX
  5
1A10D
  8
0
 62
     0
 10
104.5
 20
31.5
 30
0.0
  0
VERTEX
  5
1A10E
  8
0
 62
     0
 10
104.5
 20
33.0
 30
0.0
 42
0.9999999999999999
  0
VERTEX
  5
1A10F
  8
0
 62
     0
 10
100.5
 20
33.0
 30
0.0
  0
VERTEX
  5
1A110
  8
0
 62
     0
 10
100.5
 20
31.5
 30
0.0
 42
-0.9999999999999999
  0
VERTEX
  5
1A111
  8
0
 62
     0
 10
99.5
 20
31.5
 30
0.0
  0
VERTEX
  5
1A112
  8
0
 62
     0
 10
99.5
 20
33.0
 30
0.0
 42
0.9999999999999999
  0
VERTEX
  5
1A113
  8
0
 62
     0
 10
95.5
 20
33.0
 30
0.0
  0
VERTEX
  5
1A114
  8
0
 62
     0
 10
95.5
 20
31.5
 30
0.0
 42
-0.9999999999999999
  0
VERTEX
  5
1A115
  8
0
 62
     0
 10
94.5
 20
31.5
 30
0.0
  0
VERTEX
  5
1A116
  8
0
 62
     0
 10
94.5
 20
33.0
 30
0.0
 42
0.9999999999999999
  0
VERTEX
  5
1A117
  8
0
 62
     0
 10
90.5
 20
33.0
 30
0.0
  0
VERTEX
  5
1A118
  8
0
 62
     0
 10
90.5
 20
31.5
 30
0.0
 42
-0.9999999999999999
  0
VERTEX
  5
1A119
  8
0
 62
     0
 10
89.5
 20
31.5
 30
0.0
  0
VERTEX
  5
1A11A
  8
0
 62
     0
 10
89.5
 20
33.0
 30
0.0
 42
0.9999999999999999
  0
VERTEX
  5
1A11B
  8
0
 62
     0
 10
85.5
 20
33.0
 30
0.0
  0
VERTEX
  5
1A11C
  8
0
 62
     0
 10
85.5
 20
31.5
 30
0.0
 42
-0.9999999999999999
  0
VERTEX
  5
1A11D
  8
0
 62
     0
 10
84.5
 20
31.5
 30
0.0
  0
VERTEX
  5
1A11E
  8
0
 62
     0
 10
84.5
 20
33.0
 30
0.0
 42
0.9999999999999999
  0
VERTEX
  5
1A11F
  8
0
 62
     0
 10
80.5
 20
33.0
 30
0.0
  0
VERTEX
  5
1A120
  8
0
 62
     0
 10
80.5
 20
31.5
 30
0.0
 42
-0.9999999999999999
  0
VERTEX
  5
1A121
  8
0
 62
     0
 10
79.5
 20
31.5
 30
0.0
  0
VERTEX
  5
1A122
  8
0
 62
     0
 10
79.5
 20
33.0
 30
0.0
 42
0.9999999999999999
  0
VERTEX
  5
1A123
  8
0
 62
     0
 10
75.5
 20
33.0
 30
0.0
  0
VERTEX
  5
1A124
  8
0
 62
     0
 10
75.5
 20
31.5
 30
0.0
 42
-0.9999999999999999
  0
VERTEX
  5
1A125
  8
0
 62
     0
 10
74.5
 20
31.5
 30
0.0
  0
VERTEX
  5
1A126
  8
0
 62
     0
 10
74.5
 20
33.0
 30
0.0
 42
0.9999999999999999
  0
VERTEX
  5
1A127
  8
0
 62
     0
 10
70.5
 20
33.0
 30
0.0
  0
VERTEX
  5
1A128
  8
0
 62
     0
 10
70.5
 20
31.5
 30
0.0
 42
-0.9999999999999999
  0
VERTEX
  5
1A129
  8
0
 62
     0
 10
69.5
 20
31.5
 30
0.0
  0
VERTEX
  5
1A12A
  8
0
 62
     0
 10
69.5
 20
33.0
 30
0.0
 42
0.9999999999999999
  0
VERTEX
  5
1A12B
  8
0
 62
     0
 10
65.5
 20
33.0
 30
0.0
  0
VERTEX
  5
1A12C
  8
0
 62
     0
 10
65.5
 20
31.5
 30
0.0
 42
-0.9999999999999999
  0
VERTEX
  5
1A12D
  8
0
 62
     0
 10
64.5
 20
31.5
 30
0.0
  0
VERTEX
  5
1A12E
  8
0
 62
     0
 10
64.5
 20
33.0
 30
0.0
 42
0.9999999999999999
  0
VERTEX
  5
1A12F
  8
0
 62
     0
 10
60.5
 20
33.0
 30
0.0
  0
VERTEX
  5
1A130
  8
0
 62
     0
 10
60.5
 20
31.5
 30
0.0
 42
-0.9999999999999999
  0
VERTEX
  5
1A131
  8
0
 62
     0
 10
59.5
 20
31.5
 30
0.0
  0
VERTEX
  5
1A132
  8
0
 62
     0
 10
59.5
 20
33.0
 30
0.0
 42
0.9999999999999999
  0
VERTEX
  5
1A133
  8
0
 62
     0
 10
55.5
 20
33.0
 30
0.0
  0
VERTEX
  5
1A134
  8
0
 62
     0
 10
55.5
 20
31.5
 30
0.0
 42
-0.9999999999999999
  0
VERTEX
  5
1A135
  8
0
 62
     0
 10
54.5
 20
31.5
 30
0.0
  0
VERTEX
  5
1A136
  8
0
 62
     0
 10
54.5
 20
33.0
 30
0.0
 42
0.9999999999999999
  0
VERTEX
  5
1A137
  8
0
 62
     0
 10
50.5
 20
33.0
 30
0.0
  0
VERTEX
  5
1A138
  8
0
 62
     0
 10
50.5
 20
31.5
 30
0.0
 42
-0.9999999999999999
  0
VERTEX
  5
1A139
  8
0
 62
     0
 10
49.5
 20
31.5
 30
0.0
  0
VERTEX
  5
1A13A
  8
0
 62
     0
 10
49.5
 20
33.0
 30
0.0
 42
0.9999999999999999
  0
VERTEX
  5
1A13B
  8
0
 62
     0
 10
45.5
 20
33.0
 30
0.0
  0
SEQEND
  5
1A61D
  8
0
 62
     0
  0
LINE
  5
19D0E
  8
0
 62
     0
 10
31.0
 20
29.0
 30
0.0
 11
81.0
 21
29.0
 31
0.0
  0
LINE
  5
19D0F
  8
0
 62
     0
 10
89.0
 20
29.0
 30
0.0
 11
139.0
 21
29.0
 31
0.0
  0
LINE
  5
19D10
  8
0
 62
     0
 10
31.0
 20
28.9
 30
0.0
 11
81.0
 21
28.9
 31
0.0
  0
LINE
  5
19D11
  8
0
 62
     0
 10
89.0
 20
28.9
 30
0.0
 11
139.0
 21
28.9
 31
0.0
  0
DIMENSION
  5
19D12
  8
寸法線
 62
     0
  2
*D4
 10
81.0
 20
24.19245920590055
 30
0.0
 11
56.0
 21
25.56745920590055
 31
0.0
 70
    32
 13
31.0
 23
28.9
 33
0.0
 14
81.0
 24
29.0
 34
0.0
  0
DIMENSION
  5
19D1F
  8
寸法線
 62
     0
  2
*D5
 10
139.0
 20
24.19245920590055
 30
0.0
 11
114.0
 21
25.56745920590055
 31
0.0
 70
    32
 13
89.0
 23
29.0
 33
0.0
 14
139.0
 24
28.9
 34
0.0
  0
DIMENSION
  5
19D2C
  8
寸法線
 62
     0
  2
*D6
 10
142.7354733457721
 20
30.0
 30
0.0
 11
145.7979733457721
 21
32.45625000000002
 31
0.0
 70
    32
 13
135.0
 23
31.0
 33
0.0
 14
139.5
 24
30.0
 34
0.0
 50
90.0
  0
DIMENSION
  5
19D3E
  8
寸法線
 62
     0
  2
*D7
 10
27.22650303317641
 20
35.0
 30
0.0
 11
25.85150303317641
 21
32.50000000000001
 31
0.0
 70
    32
 13
30.5
 23
30.0
 33
0.0
 14
32.5
 24
35.0
 34
0.0
 50
90.0
  0
DIMENSION
  5
19D4B
  8
寸法線
 62
     0
  2
*D8
 10
30.0
 20
38.29840243357432
 30
0.0
 11
85.0
 21
39.67340243357432
 31
0.0
 70
    32
 13
140.0
 23
30.5
 33
0.0
 14
30.0
 24
30.5
 34
0.0
  0
INSERT
  5
19D60
  8
寸法線
 62
     0
  2
*X9
 10
0.0
 20
0.0
 30
0.0
  0
INSERT
  5
19D61
  8
寸法線
 62
     0
  2
*X10
 10
0.0
 20
0.0
 30
0.0
  0
TEXT
  5
19D79
  8
寸法線
  6
CONTINUOUS
 62
     0
 10
31.51338785664618
 20
48.66519864405983
 30
0.0
 40
1.5
  1
山数：22個
  0
INSERT
  5
19D7A
  8
寸法線
 62
     0
  2
*X11
 10
0.0
 20
0.0
 30
0.0
  0
POLYLINE
  5
19D8F
  8
0
 66
     1
 10
0.0
 20
0.0
 30
0.0
 70
     1
  0
VERTEX
  5
1A147
  8
0
 10
195.5
 20
31.5
 30
0.0
 42
-0.9999999999999999
  0
VERTEX
  5
1A148
  8
0
 10
194.5
 20
31.5
 30
0.0
  0
VERTEX
  5
1A149
  8
0
 10
194.5
 20
33.0
 30
0.0
 42
0.9999999999999999
  0
VERTEX
  5
1A14A
  8
0
 10
190.5
 20
33.0
 30
0.0
  0
VERTEX
  5
1A14B
  8
0
 10
190.5
 20
31.5
 30
0.0
 42
-0.9999999999999999
  0
VERTEX
  5
1A14C
  8
0
 10
189.5
 20
31.5
 30
0.0
  0
VERTEX
  5
1A14D
  8
0
 10
189.5
 20
33.0
 30
0.0
 42
0.9999999999999999
  0
VERTEX
  5
1A14E
  8
0
 10
185.5
 20
33.0
 30
0.0
  0
VERTEX
  5
1A14F
  8
0
 10
185.5
 20
31.5
 30
0.0
 42
-0.9999999999999999
  0
VERTEX
  5
1A150
  8
0
 10
184.5
 20
31.5
 30
0.0
  0
VERTEX
  5
1A151
  8
0
 10
184.5
 20
33.0
 30
0.0
 42
0.9999999999999999
  0
VERTEX
  5
1A152
  8
0
 10
180.5
 20
33.0
 30
0.0
  0
VERTEX
  5
1A153
  8
0
 10
180.5
 20
31.0
 30
0.0
 42
0.9999999999999999
  0
VERTEX
  5
1A154
  8
0
 10
180.5
 20
30.0
 30
0.0
  0
VERTEX
  5
1A155
  8
0
 10
289.5
 20
30.0
 30
0.0
 42
0.9999999999999999
  0
VERTEX
  5
1A156
  8
0
 10
289.5
 20
31.0
 30
0.0
  0
VERTEX
  5
1A157
  8
0
 10
289.5
 20
33.0
 30
0.0
 42
0.9999999999999999
  0
VERTEX
  5
1A158
  8
0
 10
285.5
 20
33.0
 30
0.0
  0
VERTEX
  5
1A159
  8
0
 10
285.5
 20
31.5
 30
0.0
 42
-0.9999999999999999
  0
VERTEX
  5
1A15A
  8
0
 10
284.5
 20
31.5
 30
0.0
  0
VERTEX
  5
1A15B
  8
0
 10
284.5
 20
33.0
 30
0.0
 42
0.9999999999999999
  0
VERTEX
  5
1A15C
  8
0
 10
280.5
 20
33.0
 30
0.0
  0
VERTEX
  5
1A15D
  8
0
 10
280.5
 20
31.5
 30
0.0
 42
-0.9999999999999999
  0
VERTEX
  5
1A15E
  8
0
 10
279.5
 20
31.5
 30
0.0
  0
VERTEX
  5
1A15F
  8
0
 10
279.5
 20
33.0
 30
0.0
 42
0.9999999999999999
  0
VERTEX
  5
1A160
  8
0
 10
275.5
 20
33.0
 30
0.0
  0
VERTEX
  5
1A161
  8
0
 10
275.5
 20
31.5
 30
0.0
 42
-0.9999999999999999
  0
VERTEX
  5
1A162
  8
0
 10
274.5
 20
31.5
 30
0.0
  0
VERTEX
  5
1A163
  8
0
 10
274.5
 20
33.0
 30
0.0
 42
0.9999999999999999
  0
VERTEX
  5
1A164
  8
0
 10
270.5
 20
33.0
 30
0.0
  0
VERTEX
  5
1A165
  8
0
 10
270.5
 20
31.5
 30
0.0
 42
-0.9999999999999999
  0
VERTEX
  5
1A166
  8
0
 10
269.5
 20
31.5
 30
0.0
  0
VERTEX
  5
1A167
  8
0
 10
269.5
 20
33.0
 30
0.0
 42
0.9999999999999999
  0
VERTEX
  5
1A168
  8
0
 10
265.5
 20
33.0
 30
0.0
  0
VERTEX
  5
1A169
  8
0
 10
265.5
 20
31.5
 30
0.0
 42
-0.9999999999999999
  0
VERTEX
  5
1A16A
  8
0
 10
264.5
 20
31.5
 30
0.0
  0
VERTEX
  5
1A16B
  8
0
 10
264.5
 20
33.0
 30
0.0
 42
0.9999999999999999
  0
VERTEX
  5
1A16C
  8
0
 10
260.5
 20
33.0
 30
0.0
  0
VERTEX
  5
1A16D
  8
0
 10
260.5
 20
31.5
 30
0.0
 42
-0.9999999999999999
  0
VERTEX
  5
1A16E
  8
0
 10
259.5
 20
31.5
 30
0.0
  0
VERTEX
  5
1A16F
  8
0
 10
259.5
 20
33.0
 30
0.0
 42
0.9999999999999999
  0
VERTEX
  5
1A170
  8
0
 10
255.5
 20
33.0
 30
0.0
  0
VERTEX
  5
1A171
  8
0
 10
255.5
 20
31.5
 30
0.0
 42
-0.9999999999999999
  0
VERTEX
  5
1A172
  8
0
 10
254.5
 20
31.5
 30
0.0
  0
VERTEX
  5
1A173
  8
0
 10
254.5
 20
33.0
 30
0.0
 42
0.9999999999999999
  0
VERTEX
  5
1A174
  8
0
 10
250.5
 20
33.0
 30
0.0
  0
VERTEX
  5
1A175
  8
0
 10
250.5
 20
31.5
 30
0.0
 42
-0.9999999999999999
  0
VERTEX
  5
1A176
  8
0
 10
249.5
 20
31.5
 30
0.0
  0
VERTEX
  5
1A177
  8
0
 10
249.5
 20
33.0
 30
0.0
 42
0.9999999999999999
  0
VERTEX
  5
1A178
  8
0
 10
245.5
 20
33.0
 30
0.0
  0
VERTEX
  5
1A179
  8
0
 10
245.5
 20
31.5
 30
0.0
 42
-0.9999999999999999
  0
VERTEX
  5
1A17A
  8
0
 10
244.5
 20
31.5
 30
0.0
  0
VERTEX
  5
1A17B
  8
0
 10
244.5
 20
33.0
 30
0.0
 42
0.9999999999999999
  0
VERTEX
  5
1A17C
  8
0
 10
240.5
 20
33.0
 30
0.0
  0
VERTEX
  5
1A17D
  8
0
 10
240.5
 20
31.5
 30
0.0
 42
-0.9999999999999999
  0
VERTEX
  5
1A17E
  8
0
 10
239.5
 20
31.5
 30
0.0
  0
VERTEX
  5
1A17F
  8
0
 10
239.5
 20
33.0
 30
0.0
 42
0.9999999999999999
  0
VERTEX
  5
1A180
  8
0
 10
235.5
 20
33.0
 30
0.0
  0
VERTEX
  5
1A181
  8
0
 10
235.5
 20
31.5
 30
0.0
 42
-0.9999999999999999
  0
VERTEX
  5
1A182
  8
0
 10
234.5
 20
31.5
 30
0.0
  0
VERTEX
  5
1A183
  8
0
 10
234.5
 20
33.0
 30
0.0
 42
0.9999999999999999
  0
VERTEX
  5
1A184
  8
0
 10
230.5
 20
33.0
 30
0.0
  0
VERTEX
  5
1A185
  8
0
 10
230.5
 20
31.5
 30
0.0
 42
-0.9999999999999999
  0
VERTEX
  5
1A186
  8
0
 10
229.5
 20
31.5
 30
0.0
  0
VERTEX
  5
1A187
  8
0
 10
229.5
 20
33.0
 30
0.0
 42
0.9999999999999999
  0
VERTEX
  5
1A188
  8
0
 10
225.5
 20
33.0
 30
0.0
  0
VERTEX
  5
1A189
  8
0
 10
225.5
 20
31.5
 30
0.0
 42
-0.9999999999999999
  0
VERTEX
  5
1A18A
  8
0
 10
224.5
 20
31.5
 30
0.0
  0
VERTEX
  5
1A18B
  8
0
 10
224.5
 20
33.0
 30
0.0
 42
0.9999999999999999
  0
VERTEX
  5
1A18C
  8
0
 10
220.5
 20
33.0
 30
0.0
  0
VERTEX
  5
1A18D
  8
0
 10
220.5
 20
31.5
 30
0.0
 42
-0.9999999999999999
  0
VERTEX
  5
1A18E
  8
0
 10
219.5
 20
31.5
 30
0.0
  0
VERTEX
  5
1A18F
  8
0
 10
219.5
 20
33.0
 30
0.0
 42
0.9999999999999999
  0
VERTEX
  5
1A190
  8
0
 10
215.5
 20
33.0
 30
0.0
  0
VERTEX
  5
1A191
  8
0
 10
215.5
 20
31.5
 30
0.0
 42
-0.9999999999999999
  0
VERTEX
  5
1A192
  8
0
 10
214.5
 20
31.5
 30
0.0
  0
VERTEX
  5
1A193
  8
0
 10
214.5
 20
33.0
 30
0.0
 42
0.9999999999999999
  0
VERTEX
  5
1A194
  8
0
 10
210.5
 20
33.0
 30
0.0
  0
VERTEX
  5
1A195
  8
0
 10
210.5
 20
31.5
 30
0.0
 42
-0.9999999999999999
  0
VERTEX
  5
1A196
  8
0
 10
209.5
 20
31.5
 30
0.0
  0
VERTEX
  5
1A197
  8
0
 10
209.5
 20
33.0
 30
0.0
 42
0.9999999999999999
  0
VERTEX
  5
1A198
  8
0
 10
205.5
 20
33.0
 30
0.0
  0
VERTEX
  5
1A199
  8
0
 10
205.5
 20
31.5
 30
0.0
 42
-0.9999999999999999
  0
VERTEX
  5
1A19A
  8
0
 10
204.5
 20
31.5
 30
0.0
  0
VERTEX
  5
1A19B
  8
0
 10
204.5
 20
33.0
 30
0.0
 42
0.9999999999999999
  0
VERTEX
  5
1A19C
  8
0
 10
200.5
 20
33.0
 30
0.0
  0
VERTEX
  5
1A19D
  8
0
 10
200.5
 20
31.5
 30
0.0
 42
-0.9999999999999999
  0
VERTEX
  5
1A19E
  8
0
 10
199.5
 20
31.5
 30
0.0
  0
VERTEX
  5
1A19F
  8
0
 10
199.5
 20
33.0
 30
0.0
 42
0.9999999999999999
  0
VERTEX
  5
1A1A0
  8
0
 10
195.5
 20
33.0
 30
0.0
  0
SEQEND
  5
1A61E
  8
0
  0
LINE
  5
19D90
  8
0
 10
181.0
 20
29.0
 30
0.0
 11
231.0
 21
29.0
 31
0.0
  0
LINE
  5
19D91
  8
0
 10
239.0
 20
29.0
 30
0.0
 11
289.0
 21
29.0
 31
0.0
  0
LINE
  5
19D92
  8
0
 10
181.0
 20
28.9
 30
0.0
 11
231.0
 21
28.9
 31
0.0
  0
LINE
  5
19D93
  8
0
 10
239.0
 20
28.9
 30
0.0
 11
289.0
 21
28.9
 31
0.0
  0
ENDSEC
  0
EOF
