  0
SECTION
  2
HEADER
  9
$ACADVER
  1
AC1006
  9
$DWGCODEPAGE
  3
ansi_932
  9
$INSBASE
 10
0.0
 20
0.0
 30
0.0
  9
$EXTMIN
 10
0.0
 20
0.0
  9
$EXTMAX
 10
390.0
 20
272.0
  9
$LIMMIN
 10
0.0
 20
0.0
  9
$LIMMAX
 10
420.0
 20
297.0
  9
$ORTHOMODE
 70
     1
  9
$REGENMODE
 70
     1
  9
$FILLMODE
 70
     1
  9
$QTEXTMODE
 70
     0
  9
$MIRRTEXT
 70
     0
  9
$DRAGMODE
 70
     2
  9
$LTSCALE
 40
1.0
  9
$OSMODE
 70
    37
  9
$ATTMODE
 70
     1
  9
$TEXTSIZE
 40
3.5
  9
$TRACEWID
 40
0.05
  9
$TEXTSTYLE
  7
STANDARD
  9
$CLAYER
  8
0
  9
$CELTYPE
  6
BYLAYER
  9
$CECOLOR
 62
   256
  9
$DIMSCALE
 40
1.0
  9
$DIMASZ
 40
3.0
  9
$DIMEXO
 40
2.0
  9
$DIMDLI
 40
10.0
  9
$DIMRND
 40
0.0
  9
$DIMDLE
 40
0.0
  9
$DIMEXE
 40
2.0
  9
$DIMTP
 40
0.0
  9
$DIMTM
 40
0.0
  9
$DIMTXT
 40
3.2
  9
$DIMCEN
 40
0.09
  9
$DIMTSZ
 40
0.0
  9
$DIMTOL
 70
     0
  9
$DIMLIM
 70
     0
  9
$DIMTIH
 70
     0
  9
$DIMTOH
 70
     0
  9
$DIMSE1
 70
     0
  9
$DIMSE2
 70
     0
  9
$DIMTAD
 70
     1
  9
$DIMZIN
 70
     0
  9
$DIMBLK
  1

  9
$DIMASO
 70
     1
  9
$DIMSHO
 70
     0
  9
$DIMPOST
  1

  9
$DIMAPOST
  1

  9
$DIMALT
 70
     0
  9
$DIMALTD
 70
     2
  9
$DIMALTF
 40
25.4
  9
$DIMLFAC
 40
1.0
  9
$DIMTOFL
 70
     1
  9
$DIMTVP
 40
0.0
  9
$DIMTIX
 70
     1
  9
$DIMSOXD
 70
     0
  9
$DIMSAH
 70
     1
  9
$DIMBLK1
  1
OPEN
  9
$DIMBLK2
  1
OPEN
  9
$LUNITS
 70
     2
  9
$LUPREC
 70
     2
  9
$SKETCHINC
 40
0.1
  9
$FILLETRAD
 40
1.0
  9
$AUNITS
 70
     0
  9
$AUPREC
 70
     2
  9
$MENU
  1
dash
  9
$ELEVATION
 40
0.0
  9
$THICKNESS
 40
0.0
  9
$LIMCHECK
 70
     0
  9
$CHAMFERA
 40
0.0
  9
$CHAMFERB
 40
0.0
  9
$SKPOLY
 70
     0
  9
$TDCREATE
 40
2451025.359548611
  9
$TDUPDATE
 40
2459449.7504436
  9
$TDINDWG
 40
0.2047187847
  9
$TDUSRTIMER
 40
0.2047187847
  9
$USRTIMER
 70
     1
  9
$ANGBASE
 50
0.0
  9
$ANGDIR
 70
     0
  9
$PDMODE
 70
    35
  9
$PDSIZE
 40
1.0
  9
$PLINEWID
 40
0.0
  9
$COORDS
 70
     1
  9
$SPLFRAME
 70
     0
  9
$SPLINETYPE
 70
     6
  9
$SPLINESEGS
 70
     8
  9
$ATTDIA
 70
     0
  9
$ATTREQ
 70
     1
  9
$HANDLING
 70
     1
  9
$HANDSEED
  5
189E0ED
  9
$SURFTAB1
 70
     6
  9
$SURFTAB2
 70
     6
  9
$SURFTYPE
 70
     6
  9
$SURFU
 70
     6
  9
$SURFV
 70
     6
  9
$UCSNAME
  2

  9
$UCSORG
 10
0.0
 20
0.0
 30
0.0
  9
$UCSXDIR
 10
1.0
 20
0.0
 30
0.0
  9
$UCSYDIR
 10
0.0
 20
1.0
 30
0.0
  9
$USERI1
 70
     0
  9
$USERI2
 70
     0
  9
$USERI3
 70
     0
  9
$USERI4
 70
     0
  9
$USERI5
 70
     0
  9
$USERR1
 40
0.0
  9
$USERR2
 40
0.0
  9
$USERR3
 40
0.0
  9
$USERR4
 40
0.0
  9
$USERR5
 40
0.0
  9
$WORLDVIEW
 70
     1
  0
ENDSEC
  0
SECTION
  2
TABLES
  0
TABLE
  2
VPORT
 70
     1
  0
VPORT
  2
*ACTIVE
 70
     0
 10
0.0
 20
0.0
 11
1.0
 21
1.0
 12
292.227921320291
 22
187.9028428670628
 13
0.0
 23
0.0
 14
1.0
 24
1.0
 15
0.0
 25
0.0
 16
0.0
 26
0.0
 36
1.0
 17
0.0
 27
0.0
 37
0.0
 40
571.2469424162706
 41
1.825270347182698
 42
50.0
 43
0.0
 44
0.0
 50
0.0
 51
0.0
 71
     0
 72
   500
 73
     1
 74
     3
 75
     0
 76
     0
 77
     0
 78
     0
  0
ENDTAB
  0
TABLE
  2
LTYPE
 70
     3
  0
LTYPE
  2
CONTINUOUS
 70
     0
  3
Solid line
 72
    65
 73
     0
 40
0.0
  0
LTYPE
  2
DASHED
 70
     0
  3
__ __ __ __ __ __ __ __ __ __ __ __ __ __ __
 72
    65
 73
     2
 40
3.0
 49
2.0
 49
-1.0
  0
LTYPE
  2
CENTER
 70
     0
  3
____ _ ____ _ ____ _ ____ _ ____ _ ____ _ ____
 72
    65
 73
     4
 40
12.0
 49
9.0
 49
-1.0
 49
1.0
 49
-1.0
  0
ENDTAB
  0
TABLE
  2
LAYER
 70
    12
  0
LAYER
  2
0
 70
     0
 62
     7
  6
CONTINUOUS
  0
LAYER
  2
THN
 70
     0
 62
    -4
  6
CONTINUOUS
  0
LAYER
  2
CEN
 70
     0
 62
     4
  6
CENTER
  0
LAYER
  2
HID
 70
     0
 62
     3
  6
DASHED
  0
LAYER
  2
DIM
 70
     0
 62
     2
  6
CONTINUOUS
  0
LAYER
  2
WAKU
 70
     0
 62
    10
  6
CONTINUOUS
  0
LAYER
  2
HOJO
 70
     0
 62
     5
  6
CONTINUOUS
  0
LAYER
  2
HATCH
 70
     0
 62
     6
  6
CONTINUOUS
  0
LAYER
  2
DIMTEXT
 70
     0
 62
     1
  6
CONTINUOUS
  0
LAYER
  2
1
 70
     0
 62
     7
  6
CONTINUOUS
  0
LAYER
  2
2
 70
     0
 62
     7
  6
CONTINUOUS
  0
LAYER
  2
DEFPOINTS
 70
     0
 62
     7
  6
CONTINUOUS
  0
ENDTAB
  0
TABLE
  2
STYLE
 70
     3
  0
STYLE
  2
STANDARD
 70
     0
 40
0.0
 41
0.8
 50
0.0
 71
     0
 42
3.5
  3
TXT
  4
bigfont
  0
STYLE
  2
KANJI1
 70
     0
 40
0.0
 41
1.0
 50
0.0
 71
     0
 42
2.0
  3
ROMANS
  4
EXTFONT
  0
STYLE
  2
KANJI2
 70
     0
 40
0.0
 41
1.0
 50
0.0
 71
     0
 42
10.0
  3
ROMANS
  4
EXTFONT
  0
ENDTAB
  0
TABLE
  2
VIEW
 70
     0
  0
ENDTAB
  0
TABLE
  2
UCS
 70
     0
  0
ENDTAB
  0
ENDSEC
  0
SECTION
  2
BLOCKS
  0
BLOCK
  8
0
  2
WK_A3Y0
 70
     0
 10
0.0
 20
0.0
 30
0.0
  0
LINE
  5
189D03D
  8
WAKU
 10
390.0
 20
272.0
 30
0.0
 11
0.0000000000000568
 21
272.0
 31
0.0
  0
LINE
  5
189D03E
  8
WAKU
 10
389.9999999999999
 20
0.0
 30
0.0
 11
389.9999999999999
 21
272.0
 31
0.0
  0
TEXT
  5
189D03F
  8
WAKU
 62
     6
 10
327.3307147859031
 20
268.0703844795598
 30
0.0
 40
3.0
  1
図　面　来　歴
  7
KANJI1
 72
     1
 11
339.6307147859031
 21
269.5703844795598
 31
0.0
  0
TEXT
  5
189D040
  8
WAKU
 62
     6
 10
332.659572288814
 20
264.5803800559038
 30
0.0
 40
2.5
  1
CAREER
  7
KANJI2
 72
     1
 11
339.7429056221473
 21
265.8303800559038
 31
0.0
  0
LINE
  5
189D041
  8
WAKU
 10
390.0
 20
263.4999999999999
 30
0.0
 11
290.0
 21
263.4999999999999
 31
0.0
  0
LINE
  5
189D042
  8
WAKU
 10
390.0
 20
254.9999999999999
 30
0.0
 11
290.0
 21
254.9999999999999
 31
0.0
  0
LINE
  5
189D043
  8
WAKU
 10
390.0
 20
246.4999999999999
 30
0.0
 11
290.0
 21
246.4999999999999
 31
0.0
  0
LINE
  5
189D044
  8
WAKU
 10
390.0
 20
237.9999999999999
 30
0.0
 11
290.0
 21
237.9999999999999
 31
0.0
  0
LINE
  5
189D045
  8
WAKU
 10
305.0
 20
237.9999999999999
 30
0.0
 11
305.0
 21
263.5
 31
0.0
  0
LINE
  5
189D046
  8
WAKU
 10
322.0
 20
237.9999999999999
 30
0.0
 11
322.0
 21
263.5
 31
0.0
  0
LINE
  5
189D047
  8
WAKU
 10
290.0
 20
237.9999999999999
 30
0.0
 11
290.0
 21
272.0
 31
0.0
  0
TEXT
  5
189D048
  8
WAKU
 62
     6
 10
293.0708350650743
 20
255.750947451817
 30
0.0
 40
2.5
  1
MARK
  7
KANJI2
  0
TEXT
  5
189D049
  8
WAKU
 62
     6
 10
294.5486203294193
 20
259.3696918904864
 30
0.0
 40
3.0
  1
記号
  7
KANJI1
 72
     1
 11
297.7486203294193
 21
260.8696918904864
 31
0.0
  0
TEXT
  5
189D04A
  8
WAKU
 62
     6
 10
308.6915347592192
 20
259.5181394579755
 30
0.0
 40
3.0
  1
年月日
  7
KANJI1
 72
     1
 11
313.4915347592192
 21
261.0181394579755
 31
0.0
  0
TEXT
  5
189D04B
  8
WAKU
 62
     6
 10
308.974136542129
 20
255.5347361087015
 30
0.0
 40
2.5
  1
DATE
  7
KANJI2
 72
     1
 11
313.4979460659385
 21
256.7847361087015
 31
0.0
  0
TEXT
  5
189D04C
  8
WAKU
 62
     6
 10
342.4488221121451
 20
259.5181394579755
 30
0.0
 40
3.0
  1
記　　　　事
  7
KANJI1
 72
     1
 11
352.8488221121451
 21
261.0181394579755
 31
0.0
  0
TEXT
  5
189D04D
  8
WAKU
 62
     6
 10
340.9759790736705
 20
255.7931828195535
 30
0.0
 40
2.5
  1
EXPLANATION
  7
KANJI2
 72
     1
 11
353.0593124070038
 21
257.0431828195535
 31
0.0
  0
LINE
  5
189D04E
  8
WAKU
 10
389.9999999999999
 20
0.0
 30
0.0
 11
0.0
 21
0.0
 31
0.0
  0
LINE
  5
189D04F
  8
WAKU
 10
389.9999999999999
 20
25.96560095650418
 30
0.0
 11
269.4999999999999
 21
25.96560095650418
 31
0.0
  0
LINE
  5
189D050
  8
WAKU
 10
389.9999999999999
 20
16.96560095650415
 30
0.0
 11
269.5
 21
16.96560095650415
 31
0.0
  0
LINE
  5
189D051
  8
WAKU
 10
389.9999999999999
 20
25.96560095650418
 30
0.0
 11
269.4999999999999
 21
25.96560095650418
 31
0.0
  0
LINE
  5
189D052
  8
WAKU
 10
389.9999999999999
 20
40.96560095650418
 30
0.0
 11
269.4999999999999
 21
40.96560095650418
 31
0.0
  0
LINE
  5
189D053
  8
WAKU
 10
389.9999999999999
 20
50.46560095650418
 30
0.0
 11
269.4999999999999
 21
50.46560095650418
 31
0.0
  0
TEXT
  5
189D054
  8
WAKU
 62
     6
 10
330.5254792130129
 20
42.54507345808153
 30
0.0
 40
2.0
  1
NO.REQ'D
  7
KANJI2
 72
     1
 11
337.573098260632
 21
43.54507345808153
 31
0.0
  0
TEXT
  5
189D055
  8
WAKU
 10
290.3608414812278
 20
3.018918169471476
 30
0.0
 40
3.0
  1
OHJI RUBBER & CHEMICALS CO.,LTD.
  7
KANJI1
 72
     1
 11
330.7465557669421
 21
4.518918169471476
 31
0.0
  0
TEXT
  5
189D056
  8
WAKU
 10
290.6368794421599
 20
8.435898150440751
 30
0.0
 40
5.0
  1
王子ゴム化成株式会社
  7
KANJI1
  0
LINE
  5
189D057
  8
WAKU
 10
269.4999999999999
 20
0.2775261612657403
 30
0.0
 11
269.4999999999999
 21
50.46560095650418
 31
0.0
  0
TEXT
  5
189D058
  8
WAKU
 62
     6
 10
274.4302862977678
 20
34.49938230180913
 30
0.0
 40
3.0
  1
名称
  7
KANJI1
 72
     1
 11
277.6302862977678
 21
35.99938230180913
 31
0.0
  0
TEXT
  5
189D059
  8
WAKU
 62
     6
 10
274.3750642144256
 20
21.97352750024902
 30
0.0
 40
3.0
  1
日付
  7
KANJI1
 72
     1
 11
277.7750642144256
 21
23.47352750024902
 31
0.0
  0
TEXT
  5
189D05A
  8
WAKU
 62
     6
 10
273.1030160745985
 20
17.98745289994386
 30
0.0
 40
2.5
  1
DATE
  7
KANJI2
 72
     1
 11
277.6268255984081
 21
19.23745289994386
 31
0.0
  0
TEXT
  5
189D05B
  8
WAKU
 62
     6
 10
272.9814329339567
 20
29.08063670589539
 30
0.0
 40
2.5
  1
TITLE
  7
KANJI2
 72
     1
 11
277.4457186482424
 21
30.33063670589539
 31
0.0
  0
ARC
  5
189D05C
  8
WAKU
 10
280.5297613168935
 20
4.23879501804371
 30
0.0
 40
8.339568020092239
 50
50.42889192608803
 51
129.571108073912
  0
ARC
  5
189D05D
  8
WAKU
 10
280.5297613168935
 20
12.4220516779968
 30
0.0
 40
8.30220306308398
 50
230.0944008649057
 51
309.9055991350943
  0
INSERT
  5
189D05E
  8
WAKU
  2
*X1
 10
-4.569770156038373
 20
12.16099840676171
 30
0.0
  0
ARC
  5
189D05F
  8
WAKU
 10
277.1282676259526
 20
8.354718646062203
 30
0.0
 40
3.0
 50
129.571108073912
 51
230.0944008649059
  0
TEXT
  5
189D060
  8
WAKU
 10
277.0585403240342
 20
6.849167749767538
 30
0.0
 40
3.0
  1
OJI
  7
KANJI1
 72
     1
 11
280.2728260383199
 21
8.349167749767538
 31
0.0
  0
CIRCLE
  5
189D061
  8
WAKU
 10
280.4331570707386
 20
8.329794039836123
 30
0.0
 40
3.98009326329651
  0
ARC
  5
189D062
  8
WAKU
 10
283.9312550078345
 20
8.354718646062203
 30
0.0
 40
3.0
 50
309.9055991350942
 51
50.42889192608803
  0
LINE
  5
189D063
  8
WAKU
 10
347.75
 20
25.96560095650412
 30
0.0
 11
347.75
 21
16.96560095650415
 31
0.0
  0
LINE
  5
189D064
  8
WAKU
 10
329.75
 20
25.96560095650412
 30
0.0
 11
329.75
 21
16.96560095650415
 31
0.0
  0
TEXT
  5
189D065
  8
WAKU
 62
     6
 10
335.4690291190192
 20
22.29925509968402
 30
0.0
 40
3.0
  1
尺度
  7
KANJI1
 72
     1
 11
338.6690291190192
 21
23.79925509968402
 31
0.0
  0
TEXT
  5
189D066
  8
WAKU
 62
     6
 10
332.9470076486102
 20
18.34949264807071
 30
0.0
 40
2.5
  1
SCALE
  7
KANJI2
 72
     1
 11
338.6612933628959
 21
19.59949264807071
 31
0.0
  0
TEXT
  5
189D067
  8
WAKU
 62
     6
 10
270.4741355076006
 20
42.7260928787758
 30
0.0
 40
2.0
  1
PART NO.
  7
KANJI2
 72
     1
 11
277.2646116980767
 21
43.7260928787758
 31
0.0
  0
TEXT
  5
189D068
  8
WAKU
 62
     6
 10
274.306087205489
 20
46.03925385519743
 30
0.0
 40
3.0
  1
部番
  7
KANJI1
 72
     1
 11
277.5060872054889
 21
47.53925385519743
 31
0.0
  0
TEXT
  5
189D069
  8
WAKU
 62
     6
 10
298.8752169493111
 20
46.11187543236623
 30
0.0
 40
3.0
  1
名　　　称
  7
KANJI1
 72
     1
 11
307.4752169493111
 21
47.61187543236623
 31
0.0
  0
TEXT
  5
189D06A
  8
WAKU
 62
     6
 10
294.1667046023672
 20
42.29507345808153
 30
0.0
 40
2.5
  1
NAME OF PART
  7
KANJI2
 72
     1
 11
307.6905141261768
 21
43.54507345808153
 31
0.0
  0
LINE
  5
189D06B
  8
WAKU
 10
329.8
 20
50.46560095650418
 30
0.0
 11
329.8
 21
40.89921495727378
 31
0.0
  0
TEXT
  5
189D06C
  8
WAKU
 62
     6
 10
334.6786817215328
 20
46.40129360332428
 30
0.0
 40
3.0
  1
数量
  7
KANJI1
 72
     1
 11
337.8786817215328
 21
47.90129360332428
 31
0.0
  0
TEXT
  5
189D06D
  8
WAKU
 62
     6
 10
367.8800570676003
 20
42.4760928787758
 30
0.0
 40
2.5
  1
REMARKS
  7
KANJI2
 72
     1
 11
376.5110094485527
 21
43.7260928787758
 31
0.0
  0
TEXT
  5
189D06E
  8
WAKU
 62
     6
 10
369.4449600353063
 20
46.76333244471282
 30
0.0
 40
3.0
  1
備　　考
  7
KANJI1
 72
     1
 11
376.2449600353063
 21
48.26333244471282
 31
0.0
  0
TEXT
  5
189D06F
  8
WAKU
 62
     6
 10
351.3281983879257
 20
46.40129360332428
 30
0.0
 40
3.0
  1
材質
  7
KANJI1
 72
     1
 11
354.5281983879257
 21
47.90129360332428
 31
0.0
  0
TEXT
  5
189D070
  8
WAKU
 62
     6
 10
347.3777590227992
 20
42.7260928787758
 30
0.0
 40
2.0
  1
MATERIAL
  7
KANJI2
 72
     1
 11
354.234901879942
 21
43.7260928787758
 31
0.0
  0
LINE
  5
189D071
  8
WAKU
 10
345.8
 20
50.46560095650418
 30
0.0
 11
345.8
 21
40.96560095650418
 31
0.0
  0
LINE
  5
189D072
  8
WAKU
 10
362.8
 20
50.46560095650418
 30
0.0
 11
362.8
 21
40.96560095650418
 31
0.0
  0
LINE
  5
189D073
  8
WAKU
 10
0.0000000000000002
 20
272.0
 30
0.0
 11
0.0
 21
0.0
 31
0.0
  0
LINE
  5
189D088
  8
WAKU
 10
286.8772637348418
 20
50.46560095650418
 30
0.0
 11
286.8772637348418
 21
16.96560095650415
 31
0.0
  0
ENDBLK
  8
0
  0
BLOCK
  8
0
  2
*X1
 70
     1
 10
0.0
 20
0.0
 30
0.0
  0
LINE
  5
1493710
  8
0
 62
     0
 10
278.6985657303572
 20
-3.75
 30
0.0
 11
281.0236624409996
 21
-3.75
 31
0.0
  0
LINE
  5
1493711
  8
0
 62
     0
 10
288.9821920125545
 20
-3.75
 30
0.0
 11
291.5004972155068
 21
-3.75
 31
0.0
  0
LINE
  5
1493712
  8
0
 62
     0
 10
278.7443377717706
 20
-3.28125
 30
0.0
 11
281.0610123901988
 21
-3.28125
 31
0.0
  0
LINE
  5
1493713
  8
0
 62
     0
 10
288.9448420633553
 20
-3.28125
 30
0.0
 11
291.4547251740934
 21
-3.28125
 31
0.0
  0
LINE
  5
1493714
  8
0
 62
     0
 10
278.8674191592831
 20
-2.8125
 30
0.0
 11
281.1554106514596
 21
-2.8125
 31
0.0
  0
LINE
  5
1493715
  8
0
 62
     0
 10
288.8504438020945
 20
-2.8125
 30
0.0
 11
291.3316437865809
 21
-2.8125
 31
0.0
  0
LINE
  5
1493716
  8
0
 62
     0
 10
279.0786854385548
 20
-2.34375
 30
0.0
 11
281.3112308835156
 21
-2.34375
 31
0.0
  0
LINE
  5
1493717
  8
0
 62
     0
 10
288.6946235700385
 20
-2.34375
 30
0.0
 11
291.1203775073092
 21
-2.34375
 31
0.0
  0
LINE
  5
1493718
  8
0
 62
     0
 10
279.4023552068276
 20
-1.875
 30
0.0
 11
281.5367467843654
 21
-1.875
 31
0.0
  0
LINE
  5
1493719
  8
0
 62
     0
 10
288.4691076691887
 20
-1.875
 30
0.0
 11
290.7967077390364
 21
-1.875
 31
0.0
  0
LINE
  5
149371A
  8
0
 62
     0
 10
279.8946543180132
 20
-1.40625
 30
0.0
 11
281.8468634278553
 21
-1.40625
 31
0.0
  0
LINE
  5
149371B
  8
0
 62
     0
 10
288.1589910256988
 20
-1.40625
 30
0.0
 11
290.3044086278508
 21
-1.40625
 31
0.0
  0
LINE
  5
149371C
  8
0
 62
     0
 10
280.5429633198838
 20
-0.9375
 30
0.0
 11
282.2702330577615
 21
-0.9375
 31
0.0
  0
LINE
  5
149371D
  8
0
 62
     0
 10
287.7356213957926
 20
-0.9375
 30
0.0
 11
289.6560996259801
 21
-0.9375
 31
0.0
  0
LINE
  5
149371E
  8
0
 62
     0
 10
281.3586188377653
 20
-0.46875
 30
0.0
 11
282.8733631833919
 21
-0.46875
 31
0.0
  0
LINE
  5
149371F
  8
0
 62
     0
 10
287.1324912701622
 20
-0.46875
 30
0.0
 11
288.8404441080986
 21
-0.46875
 31
0.0
  0
LINE
  5
1493720
  8
0
 62
     0
 10
282.4943274061598
 20
0.0
 30
0.0
 11
283.9244952709328
 21
0.0
 31
0.0
  0
LINE
  5
1493721
  8
0
 62
     0
 10
286.0813591826213
 20
0.0
 30
0.0
 11
287.7047355397042
 21
0.0
 31
0.0
  0
LINE
  5
1493722
  8
0
 62
     0
 10
278.7265283504583
 20
-4.21875
 30
0.0
 11
281.0417467503507
 21
-4.21875
 31
0.0
  0
LINE
  5
1493723
  8
0
 62
     0
 10
288.9641077032034
 20
-4.21875
 30
0.0
 11
291.4725345954057
 21
-4.21875
 31
0.0
  0
LINE
  5
1493724
  8
0
 62
     0
 10
278.8303817897486
 20
-4.6875
 30
0.0
 11
281.1160389889557
 21
-4.6875
 31
0.0
  0
LINE
  5
1493725
  8
0
 62
     0
 10
288.8898154645984
 20
-4.6875
 30
0.0
 11
291.3686811561154
 21
-4.6875
 31
0.0
  0
LINE
  5
1493726
  8
0
 62
     0
 10
279.0189371207617
 20
-5.15625
 30
0.0
 11
281.2498756077866
 21
-5.15625
 31
0.0
  0
LINE
  5
1493727
  8
0
 62
     0
 10
288.7559788457675
 20
-5.15625
 30
0.0
 11
291.1801258251023
 21
-5.15625
 31
0.0
  0
LINE
  5
1493728
  8
0
 62
     0
 10
279.3121927134345
 20
-5.625
 30
0.0
 11
281.4499792098059
 21
-5.625
 31
0.0
  0
LINE
  5
1493729
  8
0
 62
     0
 10
288.5558752437482
 20
-5.625
 30
0.0
 11
290.8868702324295
 21
-5.625
 31
0.0
  0
LINE
  5
149372A
  8
0
 62
     0
 10
279.7570380642396
 20
-6.09375
 30
0.0
 11
281.7284761822824
 21
-6.09375
 31
0.0
  0
LINE
  5
149372B
  8
0
 62
     0
 10
288.2773782712717
 20
-6.09375
 30
0.0
 11
290.4420248816244
 21
-6.09375
 31
0.0
  0
LINE
  5
149372C
  8
0
 62
     0
 10
280.3702930083053
 20
-6.5625
 30
0.0
 11
282.1079027796808
 21
-6.5625
 31
0.0
  0
LINE
  5
149372D
  8
0
 62
     0
 10
287.8979516738733
 20
-6.5625
 30
0.0
 11
289.8287699375586
 21
-6.5625
 31
0.0
  0
LINE
  5
149372E
  8
0
 62
     0
 10
281.1310445193159
 20
-7.03125
 30
0.0
 11
282.6363156551883
 21
-7.03125
 31
0.0
  0
LINE
  5
149372F
  8
0
 62
     0
 10
287.3695387983658
 20
-7.03125
 30
0.0
 11
289.0680184265481
 21
-7.03125
 31
0.0
  0
LINE
  5
1493730
  8
0
 62
     0
 10
282.151205198291
 20
-7.5
 30
0.0
 11
283.4598520545089
 21
-7.5
 31
0.0
  0
LINE
  5
1493731
  8
0
 62
     0
 10
286.5460023990452
 20
-7.5
 30
0.0
 11
288.0478577475729
 21
-7.5
 31
0.0
  0
LINE
  5
1493732
  8
0
 62
     0
 10
284.0054959079454
 20
-7.96875
 30
0.0
 11
286.1935670379185
 21
-7.96875
 31
0.0
  0
LINE
  5
1493733
  8
0
 62
     0
 10
285.0
 20
-8.040553150812588
 30
0.0
 11
285.0
 21
-7.811296553782535
 31
0.0
  0
LINE
  5
1493734
  8
0
 62
     0
 10
285.0
 20
0.1488878199312955
 30
0.0
 11
285.0
 21
0.4167706637441677
 31
0.0
  0
LINE
  5
1493735
  8
0
 62
     0
 10
283.125
 20
-7.80292844768568
 30
0.0
 11
283.125
 21
-7.340411074354741
 31
0.0
  0
LINE
  5
1493736
  8
0
 62
     0
 10
283.125
 20
-0.3219976594964984
 30
0.0
 11
283.125
 21
0.1802419350186826
 31
0.0
  0
LINE
  5
1493737
  8
0
 62
     0
 10
281.25
 20
-7.094739217653751
 30
0.0
 11
281.25
 21
-5.156602275122101
 31
0.0
  0
LINE
  5
1493738
  8
0
 62
     0
 10
281.25
 20
-2.505806458729138
 30
0.0
 11
281.25
 21
-0.524264337830413
 31
0.0
  0
LINE
  5
1493739
  8
0
 62
     0
 10
279.375
 20
-5.704567268807491
 30
0.0
 11
279.375
 21
-1.907992252591516
 31
0.0
  0
LINE
  5
149373A
  8
0
 62
     0
 10
286.875
 20
-7.849081574134509
 30
0.0
 11
286.875
 21
-7.343537767429249
 31
0.0
  0
LINE
  5
149373B
  8
0
 62
     0
 10
286.875
 20
-0.3188709664219913
 30
0.0
 11
286.875
 21
0.2261772032237017
 31
0.0
  0
LINE
  5
149373C
  8
0
 62
     0
 10
288.75
 20
-7.195531418391459
 30
0.0
 11
288.75
 21
-5.173064276419643
 31
0.0
  0
LINE
  5
149373D
  8
0
 62
     0
 10
288.75
 20
-2.489344457431597
 30
0.0
 11
288.75
 21
-0.424038660290976
 31
0.0
  0
LINE
  5
149373E
  8
0
 62
     0
 10
290.625
 20
-5.924942285854444
 30
0.0
 11
290.625
 21
-1.687617235544558
 31
0.0
  0
ENDBLK
  8
0
  0
BLOCK
  8
0
  2
DIMSTAT
 70
     2
 10
0.0
 20
0.0
 30
0.0
  0
ATTDEF
  5
189C7F4
  8
0
 10
0.0
 20
1.0
 30
0.0
 40
1.0
  1

 41
0.7
 51
15.0
  3

  2
DIMEXT
 70
     1
  0
ATTDEF
  5
189C7F5
  8
0
 10
0.0
 20
0.0
 30
0.0
 40
1.0
  1

 41
0.7
 51
15.0
  3

  2
DIMBAL
 70
     1
  0
ATTDEF
  5
189C7F6
  8
0
 10
-0.4428095427696519
 20
-0.911649989012119
 30
0.0
 40
1.0
  1

 41
0.7
 51
15.0
 72
     1
 11
1.507190457230351
 21
-0.911649989012119
 31
0.0
  3

  2
SYMSCL
 70
     1
  0
ENDBLK
  8
0
  0
BLOCK
  8
0
  2
DIMSTAT2
 70
     2
 10
0.0
 20
0.0
 30
0.0
  0
ATTDEF
  5
189C7FF
  8
0
 10
0.0
 20
0.0
 30
0.0
 40
1.0
  1

 41
0.7
  3

  2
DIMSIZ
 70
     1
  0
ENDBLK
  8
0
  0
BLOCK
  8
0
  2
_OPEN
 70
     0
 10
0.0
 20
0.0
 30
0.0
  0
LINE
  5
189C983
  8
0
  6
BYBLOCK
 62
     0
 10
-1.0
 20
0.1666666666666667
 30
0.0
 11
0.0
 21
0.0
 31
0.0
  0
LINE
  5
189C984
  8
0
  6
BYBLOCK
 62
     0
 10
0.0
 20
0.0
 30
0.0
 11
-1.0
 21
-0.1666666666666667
 31
0.0
  0
LINE
  5
189C985
  8
0
  6
BYBLOCK
 62
     0
 10
0.0
 20
0.0
 30
0.0
 11
-1.0
 21
0.0
 31
0.0
  0
ENDBLK
  8
0
  0
BLOCK
  8
0
  2
*D5
 70
     1
 10
0.0
 20
0.0
 30
0.0
  0
LINE
  5
189D464
  8
0
  6
BYBLOCK
 62
     0
 10
21.6341979656695
 20
163.3357141474129
 30
0.0
 11
21.6341979656695
 21
151.607142672741
 31
0.0
  0
LINE
  5
189D465
  8
0
  6
BYBLOCK
 62
     0
 10
36.1341979656695
 20
163.3357141474129
 30
0.0
 11
36.1341979656695
 21
151.607142672741
 31
0.0
  0
LINE
  5
189D466
  8
0
  6
BYBLOCK
 62
     0
 10
24.6341979656695
 20
153.607142672741
 30
0.0
 11
33.1341979656695
 21
153.607142672741
 31
0.0
  0
INSERT
  5
189D467
  8
0
  6
BYBLOCK
 62
     0
  2
_OPEN
 10
21.6341979656695
 20
153.607142672741
 30
0.0
 41
3.0
 42
3.0
 43
3.0
 50
180.0
  0
INSERT
  5
189D468
  8
0
  6
BYBLOCK
 62
     0
  2
_OPEN
 10
36.1341979656695
 20
153.607142672741
 30
0.0
 41
3.0
 42
3.0
 43
3.0
  0
TEXT
  5
189D469
  8
0
  6
CONTINUOUS
 62
     0
 10
25.89753129900283
 20
153.697142672741
 30
0.0
 40
3.2
  1
145
 41
0.8
  0
POINT
  5
189D46A
  8
DEFPOINTS
  6
BYBLOCK
 62
     0
 10
21.6341979656695
 20
165.3357141474129
 30
0.0
  0
POINT
  5
189D46B
  8
DEFPOINTS
  6
BYBLOCK
 62
     0
 10
36.1341979656695
 20
165.3357141474129
 30
0.0
  0
POINT
  5
189D46C
  8
DEFPOINTS
  6
BYBLOCK
 62
     0
 10
36.1341979656695
 20
153.607142672741
 30
0.0
  0
ENDBLK
  8
0
  0
BLOCK
  8
0
  2
*D6
 70
     1
 10
0.0
 20
0.0
 30
0.0
  0
LINE
  5
189D470
  8
0
  6
BYBLOCK
 62
     0
 10
306.1341979656695
 20
163.3357141474129
 30
0.0
 11
306.1341979656695
 21
151.607142672741
 31
0.0
  0
LINE
  5
189D471
  8
0
  6
BYBLOCK
 62
     0
 10
39.1341979656695
 20
153.607142672741
 30
0.0
 11
303.1341979656695
 21
153.607142672741
 31
0.0
  0
INSERT
  5
189D472
  8
0
  6
BYBLOCK
 62
     0
  2
_OPEN
 10
36.1341979656695
 20
153.607142672741
 30
0.0
 41
3.0
 42
3.0
 43
3.0
 50
180.0
  0
INSERT
  5
189D473
  8
0
  6
BYBLOCK
 62
     0
  2
_OPEN
 10
306.1341979656695
 20
153.607142672741
 30
0.0
 41
3.0
 42
3.0
 43
3.0
  0
TEXT
  5
189D474
  8
0
  6
CONTINUOUS
 62
     0
 10
159.8275312990028
 20
153.697142672741
 30
0.0
 40
3.2
  1
6×450＝2700
 41
0.8
  0
POINT
  5
189D475
  8
DEFPOINTS
  6
BYBLOCK
 62
     0
 10
36.1341979656695
 20
165.3357141474129
 30
0.0
  0
POINT
  5
189D476
  8
DEFPOINTS
  6
BYBLOCK
 62
     0
 10
306.1341979656695
 20
165.3357141474129
 30
0.0
  0
POINT
  5
189D477
  8
DEFPOINTS
  6
BYBLOCK
 62
     0
 10
306.1341979656695
 20
153.607142672741
 30
0.0
  0
ENDBLK
  8
0
  0
BLOCK
  8
0
  2
*D7
 70
     1
 10
0.0
 20
0.0
 30
0.0
  0
LINE
  5
189D47B
  8
0
  6
BYBLOCK
 62
     0
 10
320.6341979656695
 20
163.3357141474129
 30
0.0
 11
320.6341979656695
 21
151.607142672741
 31
0.0
  0
LINE
  5
189D47C
  8
0
  6
BYBLOCK
 62
     0
 10
309.1341979656695
 20
153.607142672741
 30
0.0
 11
317.6341979656695
 21
153.607142672741
 31
0.0
  0
INSERT
  5
189D47D
  8
0
  6
BYBLOCK
 62
     0
  2
_OPEN
 10
306.1341979656695
 20
153.607142672741
 30
0.0
 41
3.0
 42
3.0
 43
3.0
 50
180.0
  0
INSERT
  5
189D47E
  8
0
  6
BYBLOCK
 62
     0
  2
_OPEN
 10
320.6341979656695
 20
153.607142672741
 30
0.0
 41
3.0
 42
3.0
 43
3.0
  0
TEXT
  5
189D47F
  8
0
  6
CONTINUOUS
 62
     0
 10
310.3975312990028
 20
153.697142672741
 30
0.0
 40
3.2
  1
145
 41
0.8
  0
POINT
  5
189D480
  8
DEFPOINTS
  6
BYBLOCK
 62
     0
 10
306.1341979656695
 20
165.3357141474129
 30
0.0
  0
POINT
  5
189D481
  8
DEFPOINTS
  6
BYBLOCK
 62
     0
 10
320.6341979656695
 20
165.3357141474129
 30
0.0
  0
POINT
  5
189D482
  8
DEFPOINTS
  6
BYBLOCK
 62
     0
 10
320.6341979656695
 20
153.607142672741
 30
0.0
  0
ENDBLK
  8
0
  0
BLOCK
  8
0
  2
*D8
 70
     1
 10
0.0
 20
0.0
 30
0.0
  0
LINE
  5
189D486
  8
0
  6
BYBLOCK
 62
     0
 10
21.6341979656695
 20
163.3357141474129
 30
0.0
 11
21.6341979656695
 21
142.1785711058682
 31
0.0
  0
LINE
  5
189D487
  8
0
  6
BYBLOCK
 62
     0
 10
320.6341979656695
 20
161.3357141474129
 30
0.0
 11
320.6341979656695
 21
142.1785711058682
 31
0.0
  0
LINE
  5
189D488
  8
0
  6
BYBLOCK
 62
     0
 10
24.6341979656695
 20
144.1785711058682
 30
0.0
 11
317.6341979656695
 21
144.1785711058682
 31
0.0
  0
INSERT
  5
189D489
  8
0
  6
BYBLOCK
 62
     0
  2
_OPEN
 10
21.6341979656695
 20
144.1785711058682
 30
0.0
 41
3.0
 42
3.0
 43
3.0
 50
180.0
  0
INSERT
  5
189D48A
  8
0
  6
BYBLOCK
 62
     0
  2
_OPEN
 10
320.6341979656695
 20
144.1785711058682
 30
0.0
 41
3.0
 42
3.0
 43
3.0
  0
TEXT
  5
189D48B
  8
0
  6
CONTINUOUS
 62
     0
 10
166.6541979656695
 20
144.2685711058682
 30
0.0
 40
3.2
  1
2990
 41
0.8
  0
POINT
  5
189D48C
  8
DEFPOINTS
  6
BYBLOCK
 62
     0
 10
21.6341979656695
 20
165.3357141474129
 30
0.0
  0
POINT
  5
189D48D
  8
DEFPOINTS
  6
BYBLOCK
 62
     0
 10
320.6341979656695
 20
163.3357141474129
 30
0.0
  0
POINT
  5
189D48E
  8
DEFPOINTS
  6
BYBLOCK
 62
     0
 10
320.6341979656695
 20
144.1785711058682
 30
0.0
  0
ENDBLK
  8
0
  0
BLOCK
  8
0
  2
A$CD8B4DF68
 70
     0
 10
0.0
 20
0.0
 30
0.0
  0
LINE
  5
189D491
  8
CEN
 10
0.0
 20
57.78571493112099
 30
0.0
 11
318.6127436673207
 21
57.78571493112099
 31
0.0
  0
CIRCLE
  5
189D492
  8
2
 10
20.5068864353741
 20
57.78571493112099
 30
0.0
 40
1.25
  0
CIRCLE
  5
189D493
  8
2
 10
65.5068864353741
 20
57.78571493112099
 30
0.0
 40
1.25
  0
CIRCLE
  5
189D494
  8
2
 10
110.5068864353741
 20
57.78571493112099
 30
0.0
 40
1.25
  0
CIRCLE
  5
189D495
  8
2
 10
155.5068864353741
 20
57.78571493112099
 30
0.0
 40
1.25
  0
CIRCLE
  5
189D496
  8
2
 10
200.5068864353741
 20
57.78571493112099
 30
0.0
 40
1.25
  0
CIRCLE
  5
189D497
  8
2
 10
245.5068864353741
 20
57.78571493112099
 30
0.0
 40
1.25
  0
CIRCLE
  5
189D498
  8
2
 10
290.5068864353741
 20
57.78571493112099
 30
0.0
 40
1.25
  0
POINT
  5
189D499
  8
DEFPOINTS
  6
BYBLOCK
 62
     0
 10
305.5068864353741
 20
60.28571493112099
 30
0.0
  0
POINT
  5
189D49A
  8
DEFPOINTS
  6
BYBLOCK
 62
     0
 10
20.5068864353741
 20
57.78571493112099
 30
0.0
  0
POINT
  5
189D49B
  8
DEFPOINTS
  6
BYBLOCK
 62
     0
 10
290.5068864353741
 20
57.78571493112099
 30
0.0
  0
POINT
  5
189D49C
  8
DEFPOINTS
  6
BYBLOCK
 62
     0
 10
20.5068864353741
 20
57.78571493112099
 30
0.0
  0
POINT
  5
189D49D
  8
DEFPOINTS
  6
BYBLOCK
 62
     0
 10
290.5068864353741
 20
57.78571493112099
 30
0.0
  0
POINT
  5
189D49E
  8
DEFPOINTS
  6
BYBLOCK
 62
     0
 10
305.5068864353741
 20
60.28571493112099
 30
0.0
  0
LINE
  5
189D49F
  8
DIM
 62
     2
 10
305.5068864353741
 20
62.28571493112099
 30
0.0
 11
305.5068864353741
 21
77.8571435947506
 31
0.0
  0
LINE
  5
189D4A0
  8
DIM
 62
     2
 10
293.5068864353741
 20
75.8571435947506
 30
0.0
 11
302.5068864353741
 21
75.8571435947506
 31
0.0
  0
INSERT
  5
189D4A1
  8
DIM
 62
     2
  2
_OPEN
 10
290.5068864353741
 20
75.8571435947506
 30
0.0
 41
3.0
 42
3.0
 43
3.0
 50
180.0
  0
INSERT
  5
189D4A2
  8
DIM
 62
     2
  2
_OPEN
 10
305.5068864353741
 20
75.8571435947506
 30
0.0
 41
3.0
 42
3.0
 43
3.0
  0
TEXT
  5
189D4A3
  8
DIM
  6
CONTINUOUS
 62
     2
 10
295.2335531020408
 20
76.52782831024201
 30
0.0
 40
3.2
  1
150
 41
0.8
  0
POINT
  5
189D4A4
  8
DEFPOINTS
  6
BYBLOCK
 62
     0
 10
290.5068864353741
 20
57.78571493112099
 30
0.0
  0
POINT
  5
189D4A5
  8
DEFPOINTS
  6
BYBLOCK
 62
     0
 10
305.5068864353741
 20
60.28571493112099
 30
0.0
  0
LINE
  5
189D4A6
  8
DIM
 62
     2
 10
290.5068864353741
 20
59.78571493112099
 30
0.0
 11
290.5068864353741
 21
77.8571435947506
 31
0.0
  0
LINE
  5
189D4A7
  8
DIM
 62
     2
 10
23.5068864353741
 20
75.8571435947506
 30
0.0
 11
287.5068864353741
 21
75.8571435947506
 31
0.0
  0
INSERT
  5
189D4A8
  8
DIM
 62
     2
  2
_OPEN
 10
20.5068864353741
 20
75.8571435947506
 30
0.0
 41
3.0
 42
3.0
 43
3.0
 50
180.0
  0
INSERT
  5
189D4A9
  8
DIM
 62
     2
  2
_OPEN
 10
290.5068864353741
 20
75.8571435947506
 30
0.0
 41
3.0
 42
3.0
 43
3.0
  0
POINT
  5
189D4AA
  8
DEFPOINTS
  6
BYBLOCK
 62
     0
 10
20.5068864353741
 20
57.78571493112099
 30
0.0
  0
POINT
  5
189D4AB
  8
DEFPOINTS
  6
BYBLOCK
 62
     0
 10
290.5068864353741
 20
57.78571493112099
 30
0.0
  0
LINE
  5
189D4AC
  8
DIM
 62
     2
 10
5.506886435374099
 20
62.28571493112099
 30
0.0
 11
5.506886435374099
 21
77.8571435947506
 31
0.0
  0
LINE
  5
189D4AD
  8
DIM
 62
     2
 10
20.5068864353741
 20
59.78571493112099
 30
0.0
 11
20.5068864353741
 21
77.8571435947506
 31
0.0
  0
LINE
  5
189D4AE
  8
DIM
 62
     2
 10
8.5068864353741
 20
75.8571435947506
 30
0.0
 11
17.5068864353741
 21
75.8571435947506
 31
0.0
  0
INSERT
  5
189D4AF
  8
DIM
 62
     2
  2
_OPEN
 10
5.506886435374099
 20
75.8571435947506
 30
0.0
 41
3.0
 42
3.0
 43
3.0
 50
180.0
  0
INSERT
  5
189D4B0
  8
DIM
 62
     2
  2
_OPEN
 10
20.5068864353741
 20
75.8571435947506
 30
0.0
 41
3.0
 42
3.0
 43
3.0
  0
TEXT
  5
189D4B1
  8
DIM
  6
CONTINUOUS
 62
     2
 10
10.23355310204077
 20
76.29555456234682
 30
0.0
 40
3.2
  1
150
 41
0.8
  0
POINT
  5
189D4B2
  8
DEFPOINTS
  6
BYBLOCK
 62
     0
 10
20.5068864353741
 20
57.78571493112099
 30
0.0
  0
LINE
  5
189D4B3
  8
DIM
 62
     2
 10
5.506886435374099
 20
62.28571493112099
 30
0.0
 11
5.506886435374099
 21
91.21428612919021
 31
0.0
  0
LINE
  5
189D4B4
  8
DIM
 62
     2
 10
305.5068864353741
 20
62.28571493112099
 30
0.0
 11
305.5068864353741
 21
91.21428612919021
 31
0.0
  0
LINE
  5
189D4B5
  8
DIM
 62
     2
 10
8.5068864353741
 20
89.21428612919021
 30
0.0
 11
302.5068864353741
 21
89.21428612919021
 31
0.0
  0
INSERT
  5
189D4B6
  8
DIM
 62
     2
  2
_OPEN
 10
5.506886435374099
 20
89.21428612919021
 30
0.0
 41
3.0
 42
3.0
 43
3.0
 50
180.0
  0
INSERT
  5
189D4B7
  8
DIM
 62
     2
  2
_OPEN
 10
305.5068864353741
 20
89.21428612919021
 30
0.0
 41
3.0
 42
3.0
 43
3.0
  0
POINT
  5
189D4B8
  8
DEFPOINTS
  6
BYBLOCK
 62
     0
 10
305.5068864353741
 20
60.28571493112099
 30
0.0
  0
TEXT
  5
189D4B9
  8
DIM
 62
     2
 10
143.2615531020408
 20
76.79450591501299
 30
0.0
 40
3.2
  1
6×450＝2700
 41
0.8
  0
TEXT
  5
189D4BA
  8
DIM
 62
     2
 10
151.4535531020408
 20
90.15880900456486
 30
0.0
 40
3.2
  1
3000
 41
0.8
  0
LINE
  5
189D4BB
  8
2
 10
5.506886435374099
 20
57.78571493112099
 30
0.0
 11
5.506886435374099
 21
61.28571493112099
 31
0.0
  0
LINE
  5
189D4BC
  8
2
 10
5.506886435374099
 20
61.28571493112099
 30
0.0
 11
305.5068864353741
 21
61.28571493112099
 31
0.0
  0
LINE
  5
189D4BD
  8
2
 10
5.506886435374099
 20
57.78571493112099
 30
0.0
 11
5.506886435374099
 21
54.28571493112099
 31
0.0
  0
LINE
  5
189D4BE
  8
2
 10
5.506886435374099
 20
54.28571493112099
 30
0.0
 11
305.5068864353741
 21
54.28571493112099
 31
0.0
  0
LINE
  5
189D4BF
  8
2
 10
305.5068864353741
 20
54.28571493112099
 30
0.0
 11
305.5068864353741
 21
61.28571493112099
 31
0.0
  0
LINE
  5
189D4C0
  8
2
 10
5.506886435374099
 20
26.35714304154476
 30
0.0
 11
5.506886435374099
 21
23.15714304154477
 31
0.0
  0
LINE
  5
189D4C1
  8
2
 10
5.506886435374099
 20
23.15714304154477
 30
0.0
 11
304.5068864353741
 21
23.15714304154477
 31
0.0
  0
LINE
  5
189D4C2
  8
2
 10
5.506886435374099
 20
26.35714304154476
 30
0.0
 11
304.5068864353741
 21
26.35714304154476
 31
0.0
  0
ARC
  5
189D4C3
  8
2
 10
19.5068864353741
 20
24.75714304154477
 30
0.0
 40
0.5
 50
90.0
 51
270.0
  0
LINE
  5
189D4C4
  8
2
 10
20.5068864353741
 20
25.25714304154477
 30
0.0
 11
19.5068864353741
 21
25.25714304154477
 31
0.0
  0
ARC
  5
189D4C5
  8
2
 10
20.5068864353741
 20
24.75714304154477
 30
0.0
 40
0.5
 50
270.0
 51
90.0
  0
LINE
  5
189D4C6
  8
2
 10
19.5068864353741
 20
24.25714304154477
 30
0.0
 11
20.5068864353741
 21
24.25714304154477
 31
0.0
  0
LINE
  5
189D4C7
  8
CEN
 10
20.0068864353741
 20
24.75714304154477
 30
0.0
 11
20.0068864353741
 21
27.78049751071308
 31
0.0
  0
LINE
  5
189D4C8
  8
CEN
 10
20.0068864353741
 20
24.75714304154477
 30
0.0
 11
20.0068864353741
 21
22.10482232096126
 31
0.0
  0
LINE
  5
189D4C9
  8
CEN
 10
20.0068864353741
 20
24.75714304154477
 30
0.0
 11
17.88258808965566
 21
24.75714304154477
 31
0.0
  0
LINE
  5
189D4CA
  8
CEN
 10
20.0068864353741
 20
24.75714304154477
 30
0.0
 11
22.13738864976563
 21
24.75714304154477
 31
0.0
  0
LINE
  5
189D4CB
  8
CEN
 10
65.0068864353741
 20
24.75714304154477
 30
0.0
 11
67.13738864976563
 21
24.75714304154477
 31
0.0
  0
LINE
  5
189D4CC
  8
CEN
 10
65.0068864353741
 20
24.75714304154477
 30
0.0
 11
62.88258808965566
 21
24.75714304154477
 31
0.0
  0
LINE
  5
189D4CD
  8
CEN
 10
65.0068864353741
 20
24.75714304154477
 30
0.0
 11
65.0068864353741
 21
22.10482232096126
 31
0.0
  0
LINE
  5
189D4CE
  8
CEN
 10
65.0068864353741
 20
24.75714304154477
 30
0.0
 11
65.0068864353741
 21
27.78049751071308
 31
0.0
  0
LINE
  5
189D4CF
  8
2
 10
64.5068864353741
 20
24.25714304154477
 30
0.0
 11
65.5068864353741
 21
24.25714304154477
 31
0.0
  0
ARC
  5
189D4D0
  8
2
 10
65.5068864353741
 20
24.75714304154477
 30
0.0
 40
0.5
 50
270.0
 51
90.0
  0
LINE
  5
189D4D1
  8
2
 10
65.5068864353741
 20
25.25714304154477
 30
0.0
 11
64.5068864353741
 21
25.25714304154477
 31
0.0
  0
ARC
  5
189D4D2
  8
2
 10
64.5068864353741
 20
24.75714304154477
 30
0.0
 40
0.5
 50
90.0
 51
270.0
  0
LINE
  5
189D4D3
  8
CEN
 10
110.0068864353741
 20
24.75714304154477
 30
0.0
 11
112.1373886497656
 21
24.75714304154477
 31
0.0
  0
LINE
  5
189D4D4
  8
CEN
 10
110.0068864353741
 20
24.75714304154477
 30
0.0
 11
107.8825880896557
 21
24.75714304154477
 31
0.0
  0
LINE
  5
189D4D5
  8
CEN
 10
110.0068864353741
 20
24.75714304154477
 30
0.0
 11
110.0068864353741
 21
22.10482232096126
 31
0.0
  0
LINE
  5
189D4D6
  8
CEN
 10
110.0068864353741
 20
24.75714304154477
 30
0.0
 11
110.0068864353741
 21
27.78049751071308
 31
0.0
  0
LINE
  5
189D4D7
  8
2
 10
109.5068864353741
 20
24.25714304154477
 30
0.0
 11
110.5068864353741
 21
24.25714304154477
 31
0.0
  0
ARC
  5
189D4D8
  8
2
 10
110.5068864353741
 20
24.75714304154477
 30
0.0
 40
0.5
 50
270.0
 51
90.0
  0
LINE
  5
189D4D9
  8
2
 10
110.5068864353741
 20
25.25714304154477
 30
0.0
 11
109.5068864353741
 21
25.25714304154477
 31
0.0
  0
ARC
  5
189D4DA
  8
2
 10
109.5068864353741
 20
24.75714304154477
 30
0.0
 40
0.5
 50
90.0
 51
270.0
  0
LINE
  5
189D4DB
  8
CEN
 10
155.0068864353741
 20
24.75714304154477
 30
0.0
 11
157.1373886497656
 21
24.75714304154477
 31
0.0
  0
LINE
  5
189D4DC
  8
CEN
 10
155.0068864353741
 20
24.75714304154477
 30
0.0
 11
152.8825880896557
 21
24.75714304154477
 31
0.0
  0
LINE
  5
189D4DD
  8
CEN
 10
155.0068864353741
 20
24.75714304154477
 30
0.0
 11
155.0068864353741
 21
22.10482232096126
 31
0.0
  0
LINE
  5
189D4DE
  8
CEN
 10
155.0068864353741
 20
24.75714304154477
 30
0.0
 11
155.0068864353741
 21
27.78049751071308
 31
0.0
  0
LINE
  5
189D4DF
  8
2
 10
154.5068864353741
 20
24.25714304154477
 30
0.0
 11
155.5068864353741
 21
24.25714304154477
 31
0.0
  0
ARC
  5
189D4E0
  8
2
 10
155.5068864353741
 20
24.75714304154477
 30
0.0
 40
0.5
 50
270.0
 51
90.0
  0
LINE
  5
189D4E1
  8
2
 10
155.5068864353741
 20
25.25714304154477
 30
0.0
 11
154.5068864353741
 21
25.25714304154477
 31
0.0
  0
ARC
  5
189D4E2
  8
2
 10
154.5068864353741
 20
24.75714304154477
 30
0.0
 40
0.5
 50
90.0
 51
270.0
  0
LINE
  5
189D4E3
  8
CEN
 10
200.0068864353741
 20
24.75714304154477
 30
0.0
 11
202.1373886497656
 21
24.75714304154477
 31
0.0
  0
LINE
  5
189D4E4
  8
CEN
 10
200.0068864353741
 20
24.75714304154477
 30
0.0
 11
197.8825880896557
 21
24.75714304154477
 31
0.0
  0
LINE
  5
189D4E5
  8
CEN
 10
200.0068864353741
 20
24.75714304154477
 30
0.0
 11
200.0068864353741
 21
22.10482232096126
 31
0.0
  0
LINE
  5
189D4E6
  8
CEN
 10
200.0068864353741
 20
24.75714304154477
 30
0.0
 11
200.0068864353741
 21
27.78049751071308
 31
0.0
  0
LINE
  5
189D4E7
  8
2
 10
199.5068864353741
 20
24.25714304154477
 30
0.0
 11
200.5068864353741
 21
24.25714304154477
 31
0.0
  0
ARC
  5
189D4E8
  8
2
 10
200.5068864353741
 20
24.75714304154477
 30
0.0
 40
0.5
 50
270.0
 51
90.0
  0
LINE
  5
189D4E9
  8
2
 10
200.5068864353741
 20
25.25714304154477
 30
0.0
 11
199.5068864353741
 21
25.25714304154477
 31
0.0
  0
ARC
  5
189D4EA
  8
2
 10
199.5068864353741
 20
24.75714304154477
 30
0.0
 40
0.5
 50
90.0
 51
270.0
  0
LINE
  5
189D4EB
  8
CEN
 10
245.0068864353741
 20
24.75714304154477
 30
0.0
 11
247.1373886497656
 21
24.75714304154477
 31
0.0
  0
LINE
  5
189D4EC
  8
CEN
 10
245.0068864353741
 20
24.75714304154477
 30
0.0
 11
242.8825880896557
 21
24.75714304154477
 31
0.0
  0
LINE
  5
189D4ED
  8
CEN
 10
245.0068864353741
 20
24.75714304154477
 30
0.0
 11
245.0068864353741
 21
22.10482232096126
 31
0.0
  0
LINE
  5
189D4EE
  8
CEN
 10
245.0068864353741
 20
24.75714304154477
 30
0.0
 11
245.0068864353741
 21
27.78049751071308
 31
0.0
  0
LINE
  5
189D4EF
  8
2
 10
244.5068864353741
 20
24.25714304154477
 30
0.0
 11
245.5068864353741
 21
24.25714304154477
 31
0.0
  0
ARC
  5
189D4F0
  8
2
 10
245.5068864353741
 20
24.75714304154477
 30
0.0
 40
0.5
 50
270.0
 51
90.0
  0
LINE
  5
189D4F1
  8
2
 10
245.5068864353741
 20
25.25714304154477
 30
0.0
 11
244.5068864353741
 21
25.25714304154477
 31
0.0
  0
ARC
  5
189D4F2
  8
2
 10
244.5068864353741
 20
24.75714304154477
 30
0.0
 40
0.5
 50
90.0
 51
270.0
  0
LINE
  5
189D4F3
  8
CEN
 10
290.0068864353741
 20
24.75714304154477
 30
0.0
 11
292.1373886497656
 21
24.75714304154477
 31
0.0
  0
LINE
  5
189D4F4
  8
CEN
 10
290.0068864353741
 20
24.75714304154477
 30
0.0
 11
287.8825880896557
 21
24.75714304154477
 31
0.0
  0
LINE
  5
189D4F5
  8
CEN
 10
290.0068864353741
 20
24.75714304154477
 30
0.0
 11
290.0068864353741
 21
22.10482232096126
 31
0.0
  0
LINE
  5
189D4F6
  8
CEN
 10
290.0068864353741
 20
24.75714304154477
 30
0.0
 11
290.0068864353741
 21
27.78049751071308
 31
0.0
  0
LINE
  5
189D4F7
  8
2
 10
289.5068864353741
 20
24.25714304154477
 30
0.0
 11
290.5068864353741
 21
24.25714304154477
 31
0.0
  0
ARC
  5
189D4F8
  8
2
 10
290.5068864353741
 20
24.75714304154477
 30
0.0
 40
0.5
 50
270.0
 51
90.0
  0
LINE
  5
189D4F9
  8
2
 10
290.5068864353741
 20
25.25714304154477
 30
0.0
 11
289.5068864353741
 21
25.25714304154477
 31
0.0
  0
ARC
  5
189D4FA
  8
2
 10
289.5068864353741
 20
24.75714304154477
 30
0.0
 40
0.5
 50
90.0
 51
270.0
  0
DIMENSION
  5
189D4FB
  8
DIM
  2
*D5
 10
20.0068864353741
 20
11.42857156687285
 30
0.0
 11
12.7568864353741
 21
13.11857156687284
 31
0.0
 12
-16.1273115302954
 22
-142.1785711058682
 32
0.0
 70
     0
  1
145
 13
5.506886435374099
 23
23.15714304154477
 33
0.0
 14
20.0068864353741
 24
23.15714304154477
 34
0.0
  0
DIMENSION
  5
189D4FC
  8
DIM
  2
*D6
 10
290.0068864353741
 20
11.42857156687285
 30
0.0
 11
155.0068864353741
 21
13.11857156687284
 31
0.0
 12
-16.1273115302954
 22
-142.1785711058682
 32
0.0
 70
     0
  1
6×450＝2700
 13
20.0068864353741
 23
23.15714304154477
 33
0.0
 14
290.0068864353741
 24
23.15714304154477
 34
0.0
  0
DIMENSION
  5
189D4FD
  8
DIM
  2
*D7
 10
304.5068864353741
 20
11.42857156687285
 30
0.0
 11
297.2568864353741
 21
13.11857156687284
 31
0.0
 12
-16.1273115302954
 22
-142.1785711058682
 32
0.0
 70
     0
  1
145
 13
290.0068864353741
 23
23.15714304154477
 33
0.0
 14
304.5068864353741
 24
23.15714304154477
 34
0.0
  0
DIMENSION
  5
189D4FE
  8
DIM
  2
*D8
 10
304.5068864353741
 20
2.0
 30
0.0
 11
155.0068864353741
 21
3.689999999999998
 31
0.0
 12
-16.1273115302954
 22
-142.1785711058682
 32
0.0
 70
     0
  1
2990
 13
5.506886435374099
 23
23.15714304154477
 33
0.0
 14
304.5068864353741
 24
21.15714304154477
 34
0.0
  0
LINE
  5
189D4FF
  8
2
 10
304.5068864353741
 20
26.35714304154476
 30
0.0
 11
304.5068864353741
 21
23.15714304154477
 31
0.0
  0
LINE
  5
189D500
  8
DIM
 10
308.7495271224934
 20
28.8872873579233
 30
0.0
 11
311.2359407164174
 21
31.37370095184735
 31
0.0
  0
LINE
  5
189D501
  8
DIM
 62
     2
 10
306.6282067789338
 20
26.7659670143637
 30
0.0
 11
308.7495271224934
 21
28.8872873579233
 31
0.0
  0
LINE
  5
189D502
  8
DIM
 62
     2
 10
306.981760169527
 20
26.41241362377042
 30
0.0
 11
304.5068864353741
 21
24.64464667080404
 31
0.0
  0
LINE
  5
189D503
  8
DIM
 62
     2
 10
304.5068864353741
 20
24.64464667080404
 30
0.0
 11
306.2746533883405
 21
27.11952040495686
 31
0.0
  0
LINE
  5
189D504
  8
DIM
 62
     2
 10
304.5068864353741
 20
24.64464667080404
 30
0.0
 11
306.6282067789338
 21
26.7659670143637
 31
0.0
  0
TEXT
  5
189D505
  8
DIM
 10
313.8832381404769
 20
32.96543806438933
 30
0.0
 40
3.5
  1
2
 50
0.0000000000000254
 41
0.8
  0
CIRCLE
  5
189D506
  8
DIM
 10
314.7714746223502
 20
34.90923485778006
 30
0.0
 40
5.0
  0
LINE
  5
189D507
  8
DIM
 62
     2
 10
305.5068864353741
 20
59.54764091460765
 30
0.0
 11
307.6282067789338
 21
61.66896125816731
 31
0.0
  0
LINE
  5
189D508
  8
DIM
 62
     2
 10
305.5068864353741
 20
59.54764091460765
 30
0.0
 11
307.2746533883405
 21
62.02251464876048
 31
0.0
  0
LINE
  5
189D509
  8
DIM
 62
     2
 10
307.981760169527
 20
61.31540786757404
 30
0.0
 11
305.5068864353741
 21
59.54764091460765
 31
0.0
  0
LINE
  5
189D50A
  8
DIM
 62
     2
 10
307.6282067789338
 20
61.66896125816731
 30
0.0
 11
309.7495271224934
 21
63.79028160172692
 31
0.0
  0
CIRCLE
  5
189D50B
  8
DIM
 10
315.7714746223502
 20
69.81222910158368
 30
0.0
 40
5.0
  0
LINE
  5
189D50C
  8
DIM
 10
309.7495271224934
 20
63.79028160172692
 30
0.0
 11
312.2359407164174
 21
66.27669519565097
 31
0.0
  0
TEXT
  5
189D50D
  8
DIM
 10
314.4799722766425
 20
68.04718871512216
 30
0.0
 40
3.5
  1
１
 41
0.8
  0
LINE
  5
189D50E
  8
CEN
 10
20.5068864353741
 20
57.78571493112099
 30
0.0
 11
20.5068864353741
 21
60.30938982619864
 31
0.0
  0
LINE
  5
189D50F
  8
CEN
 10
20.5068864353741
 20
57.78571493112099
 30
0.0
 11
20.5068864353741
 21
55.12984187447466
 31
0.0
  0
LINE
  5
189D510
  8
CEN
 10
65.5068864353741
 20
57.78571493112099
 30
0.0
 11
65.5068864353741
 21
55.12984187447466
 31
0.0
  0
LINE
  5
189D511
  8
CEN
 10
65.5068864353741
 20
57.78571493112099
 30
0.0
 11
65.5068864353741
 21
60.30938982619864
 31
0.0
  0
LINE
  5
189D512
  8
CEN
 10
110.5068864353741
 20
57.78571493112099
 30
0.0
 11
110.5068864353741
 21
55.12984187447466
 31
0.0
  0
LINE
  5
189D513
  8
CEN
 10
110.5068864353741
 20
57.78571493112099
 30
0.0
 11
110.5068864353741
 21
60.30938982619864
 31
0.0
  0
LINE
  5
189D514
  8
CEN
 10
155.5068864353741
 20
57.78571493112099
 30
0.0
 11
155.5068864353741
 21
55.12984187447466
 31
0.0
  0
LINE
  5
189D515
  8
CEN
 10
155.5068864353741
 20
57.78571493112099
 30
0.0
 11
155.5068864353741
 21
60.30938982619864
 31
0.0
  0
LINE
  5
189D516
  8
CEN
 10
200.5068864353741
 20
57.78571493112099
 30
0.0
 11
200.5068864353741
 21
55.12984187447466
 31
0.0
  0
LINE
  5
189D517
  8
CEN
 10
200.5068864353741
 20
57.78571493112099
 30
0.0
 11
200.5068864353741
 21
60.30938982619864
 31
0.0
  0
LINE
  5
189D518
  8
CEN
 10
245.5068864353741
 20
57.78571493112099
 30
0.0
 11
245.5068864353741
 21
55.12984187447466
 31
0.0
  0
LINE
  5
189D519
  8
CEN
 10
245.5068864353741
 20
57.78571493112099
 30
0.0
 11
245.5068864353741
 21
60.30938982619864
 31
0.0
  0
LINE
  5
189D51A
  8
CEN
 10
290.5068864353741
 20
57.78571493112099
 30
0.0
 11
290.5068864353741
 21
55.12984187447466
 31
0.0
  0
LINE
  5
189D51B
  8
CEN
 10
290.5068864353741
 20
57.78571493112099
 30
0.0
 11
290.5068864353741
 21
60.30938982619864
 31
0.0
  0
ENDBLK
  8
0
  0
BLOCK
  8
0
  2
A$C794173BC
 70
     0
 10
0.0
 20
0.0
 30
0.0
  0
TEXT
  5
189D78F
  8
DIM
 10
-0.0000006210366337
 20
-0.0000002423274736
 30
0.0
 40
3.5
  1
( )寸法は参考値を示す。保証値ではありません。
 41
0.8
  0
ENDBLK
  8
0
  0
BLOCK
  8
0
  2
_CLOSED
 70
     0
 10
0.0
 20
0.0
 30
0.0
  0
LINE
  5
189D793
  8
0
  6
BYBLOCK
 62
     0
 10
-1.0
 20
0.1666666666666667
 30
0.0
 11
0.0
 21
0.0
 31
0.0
  0
LINE
  5
189D794
  8
0
  6
BYBLOCK
 62
     0
 10
0.0
 20
0.0
 30
0.0
 11
-1.0
 21
-0.1666666666666667
 31
0.0
  0
LINE
  5
189D795
  8
0
  6
BYBLOCK
 62
     0
 10
-1.0
 20
0.1666666666666667
 30
0.0
 11
-1.0
 21
-0.1666666666666667
 31
0.0
  0
LINE
  5
189D796
  8
0
  6
BYBLOCK
 62
     0
 10
0.0
 20
0.0
 30
0.0
 11
-1.0
 21
0.0
 31
0.0
  0
ENDBLK
  8
0
  0
BLOCK
  8
0
  2
A$C3CC249BE
 70
     0
 10
0.0
 20
0.0
 30
0.0
  0
TEXT
  5
189DBAF
  8
DIM
 10
-0.0000006210366337
 20
-0.0000002423274736
 30
0.0
 40
3.5
  1
( )寸法は参考値を示す。保証値ではありません。
 41
0.8
  0
ENDBLK
  8
0
  0
BLOCK
  8
0
  2
*D13
 70
     1
 10
0.0
 20
0.0
 30
0.0
  0
LINE
  5
189E07A
  8
DIM
 62
     0
 10
137.7887440867738
 20
107.6162695481122
 30
0.0
 11
170.2617803032573
 21
131.7430595619769
 31
0.0
  0
TEXT
  5
189E07B
  8
DIM
  6
CONTINUOUS
 62
     0
 10
138.6722792786073
 20
110.7643181514912
 30
0.0
 40
4.0
  1
(Ｒ75)
 50
36.61158053554399
 41
0.8
  0
INSERT
  5
189E07C
  8
DIM
 62
     0
  2
_OPEN
 10
172.6698711554518
 20
133.5322209430649
 30
0.0
 41
3.0
 42
3.0
 43
3.0
 50
36.61158053554399
  0
POINT
  5
189E07D
  8
DEFPOINTS
 62
     0
 10
172.6698711554518
 20
133.5322209430649
 30
0.0
  0
POINT
  5
189E07E
  8
DEFPOINTS
 62
     0
 10
112.4675998505882
 20
88.8031864158634
 30
0.0
  0
ENDBLK
  8
0
  0
BLOCK
  8
0
  2
*D14
 70
     1
 10
0.0
 20
0.0
 30
0.0
  0
LINE
  5
189E07F
  8
DIM
 62
     0
 10
72.319178470347
 20
129.3137314711274
 30
0.0
 11
72.41201418218864
 21
129.412426754869
 31
0.0
  0
LINE
  5
189E080
  8
DIM
 62
     0
 10
59.20800110849109
 20
141.6464938618474
 30
0.0
 11
59.30083682033273
 21
141.745189145589
 31
0.0
  0
LINE
  5
189E081
  8
DIM
 62
     0
 10
68.85651102291042
 20
130.0110896686716
 30
0.0
 11
60.11572611500649
 21
138.232931262485
 31
0.0
  0
INSERT
  5
189E082
  8
DIM
 62
     0
  2
_OPEN
 10
71.0417072498864
 20
127.9556292702183
 30
0.0
 41
3.0
 42
3.0
 43
3.0
 50
316.7523224132421
  0
INSERT
  5
189E083
  8
DIM
 62
     0
  2
_OPEN
 10
57.93052988803051
 20
140.2883916609383
 30
0.0
 41
3.0
 42
3.0
 43
3.0
 50
136.752322413242
  0
TEXT
  5
189E084
  8
DIM
  6
CONTINUOUS
 62
     0
 10
62.74859086733929
 20
138.502129405807
 30
0.0
 40
4.0
  1
(18)
 50
316.7523224132421
 41
0.8
  0
POINT
  5
189E085
  8
DEFPOINTS
 62
     0
 10
70.94887153804478
 20
127.8569339864767
 30
0.0
  0
POINT
  5
189E086
  8
DEFPOINTS
 62
     0
 10
57.83769417618888
 20
140.1896963771967
 30
0.0
  0
POINT
  5
189E087
  8
DEFPOINTS
 62
     0
 10
57.93052988803051
 20
140.2883916609383
 30
0.0
  0
ENDBLK
  8
0
  0
BLOCK
  8
0
  2
*D15
 70
     1
 10
0.0
 20
0.0
 30
0.0
  0
LINE
  5
189E088
  8
DIM
 62
     0
 10
122.6110905492947
 20
163.8031864158635
 30
0.0
 11
205.7747033551012
 21
163.8031864158636
 31
0.0
  0
LINE
  5
189E089
  8
DIM
 62
     0
 10
189.4675998505884
 20
33.80318641586346
 30
0.0
 11
205.7747033551012
 21
33.80318641586346
 31
0.0
  0
LINE
  5
189E08A
  8
DIM
 62
     0
 10
203.7747033551012
 20
160.8031864158636
 30
0.0
 11
203.7747033551012
 21
36.80318641586346
 31
0.0
  0
INSERT
  5
189E08B
  8
DIM
 62
     0
  2
_OPEN
 10
203.7747033551012
 20
163.8031864158636
 30
0.0
 41
3.0
 42
3.0
 43
3.0
 50
90.0
  0
INSERT
  5
189E08C
  8
DIM
 62
     0
  2
_OPEN
 10
203.7747033551012
 20
33.80318641586346
 30
0.0
 41
3.0
 42
3.0
 43
3.0
 50
270.0
  0
TEXT
  5
189E08D
  8
DIM
  6
CONTINUOUS
 62
     0
 10
201.7747033551012
 20
95.33651974919677
 30
0.0
 40
4.0
  1
130
 50
90.0
 41
0.8
  0
POINT
  5
189E08E
  8
DEFPOINTS
 62
     0
 10
120.6110905492947
 20
163.8031864158635
 30
0.0
  0
POINT
  5
189E08F
  8
DEFPOINTS
 62
     0
 10
187.4675998505884
 20
33.80318641586346
 30
0.0
  0
POINT
  5
189E090
  8
DEFPOINTS
 62
     0
 10
203.7747033551012
 20
33.80318641586346
 30
0.0
  0
ENDBLK
  8
0
  0
BLOCK
  8
0
  2
*D16
 70
     1
 10
0.0
 20
0.0
 30
0.0
  0
LINE
  5
189DF74
  8
DIM
 62
     0
 10
308.855313977603
 20
169.1950182223113
 30
0.0
 11
287.8636509069586
 21
169.1950182223113
 31
0.0
  0
LINE
  5
189DF75
  8
DIM
 62
     0
 10
308.855313977603
 20
129.1950182223113
 30
0.0
 11
287.8636509069586
 21
129.1950182223113
 31
0.0
  0
LINE
  5
189DF76
  8
DIM
 62
     0
 10
289.8636509069586
 20
166.1950182223113
 30
0.0
 11
289.8636509069586
 21
132.1950182223113
 31
0.0
  0
INSERT
  5
189DF77
  8
DIM
 62
     0
  2
_OPEN
 10
289.8636509069586
 20
169.1950182223113
 30
0.0
 41
3.0
 42
3.0
 43
3.0
 50
90.0
  0
INSERT
  5
189DF78
  8
DIM
 62
     0
  2
_OPEN
 10
289.8636509069586
 20
129.1950182223113
 30
0.0
 41
3.0
 42
3.0
 43
3.0
 50
270.0
  0
TEXT
  5
189DF79
  8
DIM
  6
CONTINUOUS
 62
     0
 10
287.8636509069586
 20
146.7950182223112
 30
0.0
 40
4.0
  1
40
 50
90.0
 41
0.8
  0
POINT
  5
189DF7A
  8
DEFPOINTS
 62
     0
 10
310.855313977603
 20
169.1950182223113
 30
0.0
  0
POINT
  5
189DF7B
  8
DEFPOINTS
 62
     0
 10
310.855313977603
 20
129.1950182223113
 30
0.0
  0
POINT
  5
189DF7C
  8
DEFPOINTS
 62
     0
 10
289.8636509069586
 20
129.1950182223113
 30
0.0
  0
ENDBLK
  8
0
  0
BLOCK
  8
0
  2
*D17
 70
     1
 10
0.0
 20
0.0
 30
0.0
  0
LINE
  5
189E091
  8
DIM
 62
     0
 10
93.46759985058839
 20
140.543301786041
 30
0.0
 11
93.46759985058839
 21
130.3532657801099
 31
0.0
  0
LINE
  5
189E092
  8
DIM
 62
     0
 10
131.4675998505884
 20
140.543301786041
 30
0.0
 11
131.4675998505884
 21
130.3532657801099
 31
0.0
  0
LINE
  5
189E093
  8
DIM
 62
     0
 10
96.46759985058839
 20
132.3532657801099
 30
0.0
 11
128.4675998505884
 21
132.3532657801099
 31
0.0
  0
INSERT
  5
189E094
  8
DIM
 62
     0
  2
_OPEN
 10
93.46759985058839
 20
132.3532657801099
 30
0.0
 41
3.0
 42
3.0
 43
3.0
 50
180.0
  0
INSERT
  5
189E095
  8
DIM
 62
     0
  2
_OPEN
 10
131.4675998505884
 20
132.3532657801099
 30
0.0
 41
3.0
 42
3.0
 43
3.0
  0
TEXT
  5
189E096
  8
DIM
  6
CONTINUOUS
 62
     0
 10
116.8460336807054
 20
134.3532657801099
 30
0.0
 40
4.0
  1
φ38
 41
0.8
  0
POINT
  5
189E097
  8
DEFPOINTS
 62
     0
 10
93.46759985058839
 20
142.543301786041
 30
0.0
  0
POINT
  5
189E098
  8
DEFPOINTS
 62
     0
 10
131.4675998505884
 20
142.543301786041
 30
0.0
  0
POINT
  5
189E099
  8
DEFPOINTS
 62
     0
 10
131.4675998505884
 20
132.3532657801099
 30
0.0
  0
ENDBLK
  8
0
  0
BLOCK
  8
0
  2
*D18
 70
     1
 10
0.0
 20
0.0
 30
0.0
  0
LINE
  5
189E0CD
  8
DIM
 62
     0
 10
97.46759985058839
 20
53.81434486344762
 30
0.0
 11
97.46759985058839
 21
20.7960299828386
 31
0.0
  0
LINE
  5
189E0CE
  8
DIM
 62
     0
 10
127.4675998505884
 20
53.81434486344762
 30
0.0
 11
127.4675998505884
 21
20.7960299828386
 31
0.0
  0
LINE
  5
189E0CF
  8
DIM
 62
     0
 10
100.4675998505884
 20
22.7960299828386
 30
0.0
 11
124.4675998505884
 21
22.7960299828386
 31
0.0
  0
INSERT
  5
189E0D0
  8
DIM
 62
     0
  2
_OPEN
 10
97.46759985058839
 20
22.7960299828386
 30
0.0
 41
3.0
 42
3.0
 43
3.0
 50
180.0
  0
INSERT
  5
189E0D1
  8
DIM
 62
     0
  2
_OPEN
 10
127.4675998505884
 20
22.7960299828386
 30
0.0
 41
3.0
 42
3.0
 43
3.0
  0
TEXT
  5
189E0D2
  8
DIM
  6
CONTINUOUS
 62
     0
 10
108.7342665172551
 20
24.7960299828386
 30
0.0
 40
4.0
  1
φ30
 41
0.8
  0
POINT
  5
189E0D3
  8
DEFPOINTS
 62
     0
 10
97.46759985058839
 20
55.81434486344762
 30
0.0
  0
POINT
  5
189E0D4
  8
DEFPOINTS
 62
     0
 10
127.4675998505884
 20
55.81434486344762
 30
0.0
  0
POINT
  5
189E0D5
  8
DEFPOINTS
 62
     0
 10
127.4675998505884
 20
22.7960299828386
 30
0.0
  0
ENDBLK
  8
0
  0
BLOCK
  8
0
  2
*D19
 70
     1
 10
0.0
 20
0.0
 30
0.0
  0
LINE
  5
189E0AC
  8
DIM
 62
     0
 10
37.46759985058839
 20
31.80318641586345
 30
0.0
 11
37.46759985058839
 21
9.460094688415893
 31
0.0
  0
LINE
  5
189E0AD
  8
DIM
 62
     0
 10
187.4675998505884
 20
31.80318641586345
 30
0.0
 11
187.4675998505884
 21
9.460094688415893
 31
0.0
  0
LINE
  5
189E0AE
  8
DIM
 62
     0
 10
40.46759985058839
 20
11.46009468841589
 30
0.0
 11
184.4675998505884
 21
11.46009468841589
 31
0.0
  0
INSERT
  5
189E0AF
  8
DIM
 62
     0
  2
_OPEN
 10
37.46759985058839
 20
11.46009468841589
 30
0.0
 41
3.0
 42
3.0
 43
3.0
 50
180.0
  0
INSERT
  5
189E0B0
  8
DIM
 62
     0
  2
_OPEN
 10
187.4675998505884
 20
11.46009468841589
 30
0.0
 41
3.0
 42
3.0
 43
3.0
  0
TEXT
  5
189E0B1
  8
DIM
  6
CONTINUOUS
 62
     0
 10
109.0009331839217
 20
13.46009468841589
 30
0.0
 40
4.0
  1
150
 41
0.8
  0
POINT
  5
189E0B2
  8
DEFPOINTS
 62
     0
 10
37.46759985058839
 20
33.80318641586345
 30
0.0
  0
POINT
  5
189E0B3
  8
DEFPOINTS
 62
     0
 10
187.4675998505884
 20
33.80318641586345
 30
0.0
  0
POINT
  5
189E0B4
  8
DEFPOINTS
 62
     0
 10
187.4675998505884
 20
11.46009468841589
 30
0.0
  0
ENDBLK
  8
0
  0
BLOCK
  8
0
  2
*D20
 70
     1
 10
0.0
 20
0.0
 30
0.0
  0
LINE
  5
189DF50
  8
DIM
 62
     0
 10
285.8553139776029
 20
182.1083799541468
 30
0.0
 11
285.8553139776029
 21
191.9655224424864
 31
0.0
  0
LINE
  5
189DF51
  8
DIM
 62
     0
 10
335.8553139776029
 20
182.1083799541468
 30
0.0
 11
335.8553139776029
 21
191.9655224424864
 31
0.0
  0
LINE
  5
189DF52
  8
DIM
 62
     0
 10
288.8553139776029
 20
189.9655224424864
 30
0.0
 11
332.8553139776029
 21
189.9655224424864
 31
0.0
  0
INSERT
  5
189DF53
  8
DIM
 62
     0
  2
_OPEN
 10
285.8553139776029
 20
189.9655224424864
 30
0.0
 41
3.0
 42
3.0
 43
3.0
 50
180.0
  0
INSERT
  5
189DF54
  8
DIM
 62
     0
  2
_OPEN
 10
335.8553139776029
 20
189.9655224424864
 30
0.0
 41
3.0
 42
3.0
 43
3.0
  0
TEXT
  5
189DF55
  8
DIM
  6
CONTINUOUS
 62
     0
 10
308.4553139776029
 20
191.9655224424864
 30
0.0
 40
4.0
  1
50
 41
0.8
  0
POINT
  5
189DF56
  8
DEFPOINTS
 62
     0
 10
285.8553139776029
 20
180.1083799541468
 30
0.0
  0
POINT
  5
189DF57
  8
DEFPOINTS
 62
     0
 10
335.8553139776029
 20
180.1083799541468
 30
0.0
  0
POINT
  5
189DF58
  8
DEFPOINTS
 62
     0
 10
335.8553139776029
 20
189.9655224424864
 30
0.0
  0
ENDBLK
  8
0
  0
BLOCK
  8
0
  2
*D21
 70
     1
 10
0.0
 20
0.0
 30
0.0
  0
LINE
  5
189E060
  8
DIM
 62
     0
 10
300.8553139776029
 20
137.1950182223112
 30
0.0
 11
300.8553139776029
 21
118.0369511983165
 31
0.0
  0
LINE
  5
189E061
  8
DIM
 62
     0
 10
320.8553139776029
 20
137.1950182223112
 30
0.0
 11
320.8553139776029
 21
118.0369511983165
 31
0.0
  0
LINE
  5
189E062
  8
DIM
 62
     0
 10
303.8553139776029
 20
120.0369511983165
 30
0.0
 11
317.8553139776029
 21
120.0369511983165
 31
0.0
  0
INSERT
  5
189E063
  8
DIM
 62
     0
  2
_OPEN
 10
300.8553139776029
 20
120.0369511983165
 30
0.0
 41
3.0
 42
3.0
 43
3.0
 50
180.0
  0
INSERT
  5
189E064
  8
DIM
 62
     0
  2
_OPEN
 10
320.8553139776029
 20
120.0369511983165
 30
0.0
 41
3.0
 42
3.0
 43
3.0
  0
TEXT
  5
189E065
  8
DIM
  6
CONTINUOUS
 62
     0
 10
308.4553139776029
 20
122.0369511983165
 30
0.0
 40
4.0
  1
20
 41
0.8
  0
POINT
  5
189E066
  8
DEFPOINTS
 62
     0
 10
300.8553139776029
 20
139.1950182223112
 30
0.0
  0
POINT
  5
189E067
  8
DEFPOINTS
 62
     0
 10
320.8553139776029
 20
139.1950182223112
 30
0.0
  0
POINT
  5
189E068
  8
DEFPOINTS
 62
     0
 10
320.8553139776029
 20
120.0369511983165
 30
0.0
  0
ENDBLK
  8
0
  0
BLOCK
  8
0
  2
*D22
 70
     1
 10
0.0
 20
0.0
 30
0.0
  0
LINE
  5
189DF21
  8
DIM
 62
     0
 10
36.35642192603357
 20
194.0369509678143
 30
0.0
 11
36.35642192603357
 21
182.0986925863114
 31
0.0
  0
LINE
  5
189DF22
  8
DIM
 62
     0
 10
45.85642192603357
 20
194.0369509678143
 30
0.0
 11
45.85642192603357
 21
182.0986925863114
 31
0.0
  0
LINE
  5
189DF23
  8
DIM
 62
     0
 10
33.35642192603357
 20
184.0986925863114
 30
0.0
 11
30.35642192603357
 21
184.0986925863114
 31
0.0
  0
LINE
  5
189DF24
  8
DIM
 62
     0
 10
48.85642192603357
 20
184.0986925863114
 30
0.0
 11
51.85642192603357
 21
184.0986925863114
 31
0.0
  0
LINE
  5
189DF25
  8
DIM
 62
     0
 10
36.35642192603357
 20
184.0986925863114
 30
0.0
 11
45.85642192603357
 21
184.0986925863114
 31
0.0
  0
INSERT
  5
189DF26
  8
DIM
 62
     0
  2
_OPEN
 10
36.35642192603357
 20
184.0986925863114
 30
0.0
 41
3.0
 42
3.0
 43
3.0
  0
INSERT
  5
189DF27
  8
DIM
 62
     0
  2
_OPEN
 10
45.85642192603357
 20
184.0986925863114
 30
0.0
 41
3.0
 42
3.0
 43
3.0
 50
180.0
  0
TEXT
  5
189DF28
  8
DIM
  6
CONTINUOUS
 62
     0
 10
38.4397552593669
 20
186.0986925863114
 30
0.0
 40
4.0
  1
95
 41
0.8
  0
POINT
  5
189DF29
  8
DEFPOINTS
 62
     0
 10
36.35642192603357
 20
196.0369509678143
 30
0.0
  0
POINT
  5
189DF2A
  8
DEFPOINTS
 62
     0
 10
45.85642192603357
 20
196.0369509678143
 30
0.0
  0
POINT
  5
189DF2B
  8
DEFPOINTS
 62
     0
 10
45.85642192603357
 20
184.0986925863114
 30
0.0
  0
ENDBLK
  8
0
  0
BLOCK
  8
0
  2
*D23
 70
     1
 10
0.0
 20
0.0
 30
0.0
  0
LINE
  5
189DF2C
  8
DIM
 62
     0
 10
225.8564219260336
 20
194.0369509678143
 30
0.0
 11
225.8564219260336
 21
182.0986925863114
 31
0.0
  0
LINE
  5
189DF2D
  8
DIM
 62
     0
 10
48.85642192603357
 20
184.0986925863114
 30
0.0
 11
222.8564219260336
 21
184.0986925863114
 31
0.0
  0
INSERT
  5
189DF2E
  8
DIM
 62
     0
  2
_OPEN
 10
45.85642192603357
 20
184.0986925863114
 30
0.0
 41
3.0
 42
3.0
 43
3.0
 50
180.0
  0
INSERT
  5
189DF2F
  8
DIM
 62
     0
  2
_OPEN
 10
225.8564219260336
 20
184.0986925863114
 30
0.0
 41
3.0
 42
3.0
 43
3.0
  0
TEXT
  5
189DF30
  8
DIM
  6
CONTINUOUS
 62
     0
 10
122.2564219260336
 20
186.0986925863114
 30
0.0
 40
4.0
  1
4×450＝1800
 41
0.8
  0
POINT
  5
189DF31
  8
DEFPOINTS
 62
     0
 10
45.85642192603357
 20
198.5369509678143
 30
0.0
  0
POINT
  5
189DF32
  8
DEFPOINTS
 62
     0
 10
225.8564219260336
 20
196.0369509678143
 30
0.0
  0
POINT
  5
189DF33
  8
DEFPOINTS
 62
     0
 10
225.8564219260336
 20
184.0986925863114
 30
0.0
  0
ENDBLK
  8
0
  0
BLOCK
  8
0
  2
*D24
 70
     1
 10
0.0
 20
0.0
 30
0.0
  0
LINE
  5
189DF34
  8
DIM
 62
     0
 10
235.3564219260336
 20
194.0369509678143
 30
0.0
 11
235.3564219260336
 21
182.0986925863114
 31
0.0
  0
LINE
  5
189DF35
  8
DIM
 62
     0
 10
222.8564219260336
 20
184.0986925863114
 30
0.0
 11
219.8564219260336
 21
184.0986925863114
 31
0.0
  0
LINE
  5
189DF36
  8
DIM
 62
     0
 10
238.3564219260336
 20
184.0986925863114
 30
0.0
 11
241.3564219260336
 21
184.0986925863114
 31
0.0
  0
LINE
  5
189DF37
  8
DIM
 62
     0
 10
225.8564219260336
 20
184.0986925863114
 30
0.0
 11
235.3564219260336
 21
184.0986925863114
 31
0.0
  0
INSERT
  5
189DF38
  8
DIM
 62
     0
  2
_OPEN
 10
225.8564219260336
 20
184.0986925863114
 30
0.0
 41
3.0
 42
3.0
 43
3.0
  0
INSERT
  5
189DF39
  8
DIM
 62
     0
  2
_OPEN
 10
235.3564219260336
 20
184.0986925863114
 30
0.0
 41
3.0
 42
3.0
 43
3.0
 50
180.0
  0
TEXT
  5
189DF3A
  8
DIM
  6
CONTINUOUS
 62
     0
 10
227.9397552593669
 20
186.0986925863114
 30
0.0
 40
4.0
  1
95
 41
0.8
  0
POINT
  5
189DF3B
  8
DEFPOINTS
 62
     0
 10
225.8564219260336
 20
198.5369509678143
 30
0.0
  0
POINT
  5
189DF3C
  8
DEFPOINTS
 62
     0
 10
235.3564219260336
 20
196.0369509678143
 30
0.0
  0
POINT
  5
189DF3D
  8
DEFPOINTS
 62
     0
 10
235.3564219260336
 20
184.0986925863114
 30
0.0
  0
ENDBLK
  8
0
  0
BLOCK
  8
0
  2
*D25
 70
     1
 10
0.0
 20
0.0
 30
0.0
  0
LINE
  5
189DF3E
  8
DIM
 62
     0
 10
235.3564219260336
 20
194.0369509678143
 30
0.0
 11
235.3564219260336
 21
172.9694391382039
 31
0.0
  0
LINE
  5
189DF3F
  8
DIM
 62
     0
 10
36.35642192603357
 20
194.0369509678143
 30
0.0
 11
36.35642192603357
 21
172.9694391382039
 31
0.0
  0
LINE
  5
189DF40
  8
DIM
 62
     0
 10
232.3564219260336
 20
174.9694391382039
 30
0.0
 11
39.35642192603357
 21
174.9694391382039
 31
0.0
  0
INSERT
  5
189DF41
  8
DIM
 62
     0
  2
_OPEN
 10
235.3564219260336
 20
174.9694391382039
 30
0.0
 41
3.0
 42
3.0
 43
3.0
  0
INSERT
  5
189DF42
  8
DIM
 62
     0
  2
_OPEN
 10
36.35642192603357
 20
174.9694391382039
 30
0.0
 41
3.0
 42
3.0
 43
3.0
 50
180.0
  0
TEXT
  5
189DF43
  8
DIM
  6
CONTINUOUS
 62
     0
 10
130.7897552593669
 20
176.9694391382039
 30
0.0
 40
4.0
  1
1990
 41
0.8
  0
POINT
  5
189DF44
  8
DEFPOINTS
 62
     0
 10
235.3564219260336
 20
196.0369509678143
 30
0.0
  0
POINT
  5
189DF45
  8
DEFPOINTS
 62
     0
 10
36.35642192603357
 20
196.0369509678143
 30
0.0
  0
POINT
  5
189DF46
  8
DEFPOINTS
 62
     0
 10
36.35642192603357
 20
174.9694391382039
 30
0.0
  0
ENDBLK
  8
0
  0
BLOCK
  8
0
  2
*X26
 70
     1
 10
0.0
 20
0.0
 30
0.0
  0
INSERT
  5
189E0E4
  8
DIM
  2
_CLOSED
 10
99.08854512701373
 20
240.9367041259706
 30
0.0
 41
3.0
 42
3.0
 43
3.0
  0
LINE
  5
189E0E5
  8
DIM
 10
96.08854512701373
 20
240.9367041259706
 30
0.0
 11
91.35642192603359
 21
240.9367041259706
 31
0.0
  0
ENDBLK
  8
0
  0
BLOCK
  8
0
  2
*X27
 70
     1
 10
0.0
 20
0.0
 30
0.0
  0
INSERT
  5
189E0E7
  8
DIM
  2
_CLOSED
 10
99.08854512701373
 20
216.4936868555006
 30
0.0
 41
3.0
 42
3.0
 43
3.0
  0
LINE
  5
189E0E8
  8
DIM
 10
96.08854512701373
 20
216.4936868555006
 30
0.0
 11
91.35642192603359
 21
216.4936868555006
 31
0.0
  0
ENDBLK
  8
0
  0
ENDSEC
  0
SECTION
  2
ENTITIES
  0
INSERT
  5
189C7F1
  8
WAKU
  2
WK_A3Y0
 10
0.0
 20
0.0
 30
0.0
  0
INSERT
  5
189C7F9
  8
WAKU
 66
     1
  2
DIMSTAT
 10
0.0
 20
0.0
 30
0.0
  0
ATTRIB
  5
189C7FA
  8
0
 10
0.0
 20
1.0
 30
0.0
 40
1.0
  1
1.000
 41
0.7
 51
15.0
  2
DIMEXT
 70
     1
  0
ATTRIB
  5
189C7FB
  8
0
 10
0.0
 20
0.0
 30
0.0
 40
1.0
  1
10.000 
 41
0.7
 51
15.0
  2
DIMBAL
 70
     1
  0
ATTRIB
  5
189C7FC
  8
0
 10
-0.0444762094363156
 20
-0.911649989012119
 30
0.0
 40
1.0
  1
4.000 
 41
0.7
 51
15.0
 72
     1
 11
1.507190457230351
 21
-0.911649989012119
 31
0.0
  2
SYMSCL
 70
     1
  0
SEQEND
  5
189C7FD
  8
WAKU
  0
INSERT
  5
189C801
  8
WAKU
 66
     1
  2
DIMSTAT2
 10
0.0
 20
0.0
 30
0.0
  0
ATTRIB
  5
189C802
  8
0
 10
0.0
 20
0.0
 30
0.0
 40
1.0
  1
(1.280 1.920 0.000 0.000 0.000 0.000 0.000 3.200 12.000 0 )
 41
0.7
  2
DIMSIZ
 70
     1
  0
SEQEND
  5
189C803
  8
WAKU
  0
POINT
  5
189C901
  8
THN
 10
97.15721905596911
 20
40.46428525328065
 30
0.0
  0
LINE
  5
189CA0B
  8
THN
 10
72.15721905596911
 20
59.00340085453638
 30
0.0
 11
72.15721905596911
 21
10.42630284761617
 31
0.0
  0
LINE
  5
189CA0D
  8
THN
 10
122.1572190559691
 20
10.42630284761617
 30
0.0
 11
122.1572190559691
 21
54.26417206741291
 31
0.0
  0
LINE
  5
189CA0E
  8
THN
 10
97.15721905596911
 20
40.46428525328065
 30
0.0
 11
125.8016869030598
 21
40.46428525328065
 31
0.0
  0
LINE
  5
189CA0F
  8
THN
 10
97.15721905596911
 20
40.46428525328065
 30
0.0
 11
66.4656049077762
 21
40.46428525328065
 31
0.0
  0
LINE
  5
189CA1D
  8
THN
 10
97.15721905596911
 20
90.46428525328065
 30
0.0
 11
66.45555373412708
 21
90.46428525328065
 31
0.0
  0
TEXT
  5
189CAB8
  8
DIM
 10
291.617305808529
 20
30.79693782135507
 30
0.0
 40
5.0
  1
カーストッパー　CSD-0135 2000L
 41
0.8
  0
TEXT
  5
189CAB9
  8
DIM
 10
298.7874382443983
 20
19.56538702759497
 30
0.0
 40
3.2
  1
2021.8.20
 41
0.8
  0
LINE
  5
189CABB
  8
WAKU
 10
269.4999999999999
 20
50.46560095650418
 30
0.0
 11
269.4999999999999
 21
60.06560095650417
 31
0.0
  0
LINE
  5
189CABC
  8
WAKU
 10
269.4999999999999
 20
60.06560095650417
 30
0.0
 11
389.9999999999999
 21
60.06560095650417
 31
0.0
  0
LINE
  5
189CABD
  8
WAKU
 10
269.4999999999999
 20
60.06560095650417
 30
0.0
 11
269.4999999999999
 21
69.06560095650417
 31
0.0
  0
LINE
  5
189CABE
  8
WAKU
 10
269.4999999999999
 20
69.06560095650417
 30
0.0
 11
389.9999999999999
 21
69.06560095650417
 31
0.0
  0
LINE
  5
189CABF
  8
WAKU
 10
285.9999999999999
 20
50.46560095650418
 30
0.0
 11
285.9999999999999
 21
69.06560095650417
 31
0.0
  0
LINE
  5
189CAC0
  8
WAKU
 10
329.8
 20
50.46560095650418
 30
0.0
 11
329.8
 21
69.06560095650417
 31
0.0
  0
LINE
  5
189CAC2
  8
WAKU
 10
362.8
 20
50.46560095650418
 30
0.0
 11
362.8
 21
69.06560095650417
 31
0.0
  0
LINE
  5
189CAC3
  8
WAKU
 10
345.8
 20
50.46560095650418
 30
0.0
 11
345.8
 21
69.06560095650417
 31
0.0
  0
TEXT
  5
189CAC4
  8
DIM
 10
274.5222305841228
 20
52.62324542773231
 30
0.0
 40
5.0
  1
１
 41
0.8
  0
TEXT
  5
189CAC5
  8
DIM
 10
274.5222305841228
 20
62.22642044068894
 30
0.0
 40
5.0
  1
２
 41
0.8
  0
TEXT
  5
189CAC6
  8
DIM
 10
288.532950255882
 20
52.62324542773231
 30
0.0
 40
5.0
  1
ゴ　ム
 41
0.8
  0
TEXT
  5
189CAC7
  8
DIM
 10
288.532950255882
 20
62.22642044068894
 30
0.0
 40
5.0
  1
当　板
 41
0.8
  0
TEXT
  5
189CACA
  8
DIM
 10
365.1798273801699
 20
52.62324542773231
 30
0.0
 40
3.2
  1
Hs 75
 41
0.8
  0
TEXT
  5
189CACC
  8
DIM
 10
377.5974766843947
 20
54.2695044162862
 30
0.0
 40
2.5
  1
±5
 41
0.8
  0
TEXT
  5
189CACD
  8
DIM
 10
347.5977476120731
 20
52.62324542773231
 30
0.0
 40
3.2
  1
合成ゴム
 41
0.8
  0
TEXT
  5
189CACE
  8
DIM
 10
347.5977476120731
 20
61.67766744450424
 30
0.0
 40
3.2
  1
SS400
 41
0.8
  0
TEXT
  5
189CACF
  8
DIM
 10
365.1798273801699
 20
61.67766744450424
 30
0.0
 40
3.2
  1
全面黒塗装
 41
0.8
  0
LINE
  5
189CBA9
  8
THN
 10
35.53419796566945
 20
154.9581280517933
 30
0.0
 11
36.73419796566944
 21
154.9581280517933
 31
0.0
  0
POINT
  5
189CBAA
  8
THN
 10
36.13419796566944
 20
154.9581280517933
 30
0.0
  0
POINT
  5
189CBAB
  8
THN
 10
81.13419796566944
 20
154.9581280517933
 30
0.0
  0
LINE
  5
189CBAC
  8
THN
 10
80.53419796566945
 20
154.9581280517933
 30
0.0
 11
81.73419796566944
 21
154.9581280517933
 31
0.0
  0
POINT
  5
189CBB5
  8
THN
 10
126.1341979656694
 20
154.9581280517933
 30
0.0
  0
LINE
  5
189CBB6
  8
THN
 10
125.5341979656694
 20
154.9581280517933
 30
0.0
 11
126.7341979656694
 21
154.9581280517933
 31
0.0
  0
POINT
  5
189CBBF
  8
THN
 10
171.1341979656694
 20
154.9581280517933
 30
0.0
  0
LINE
  5
189CBC0
  8
THN
 10
170.5341979656694
 20
154.9581280517933
 30
0.0
 11
171.7341979656694
 21
154.9581280517933
 31
0.0
  0
POINT
  5
189CBC9
  8
THN
 10
216.1341979656694
 20
154.9581280517933
 30
0.0
  0
LINE
  5
189CBCA
  8
THN
 10
215.5341979656694
 20
154.9581280517933
 30
0.0
 11
216.7341979656694
 21
154.9581280517933
 31
0.0
  0
POINT
  5
189CBD3
  8
THN
 10
261.1341979656694
 20
154.9581280517933
 30
0.0
  0
LINE
  5
189CBD4
  8
THN
 10
260.5341979656694
 20
154.9581280517933
 30
0.0
 11
261.7341979656695
 21
154.9581280517933
 31
0.0
  0
POINT
  5
189CBDD
  8
THN
 10
306.1341979656694
 20
154.9581280517933
 30
0.0
  0
LINE
  5
189CBDE
  8
THN
 10
305.5341979656694
 20
154.9581280517933
 30
0.0
 11
306.7341979656695
 21
154.9581280517933
 31
0.0
  0
POINT
  5
189CC55
  8
THN
 10
178.8521686270337
 20
37.3111488125852
 30
0.0
  0
TEXT
  5
189CC9C
  8
DIM
 10
336.3040854897181
 20
61.92772122069962
 30
0.0
 40
3.5
  1
１
 41
0.8
  0
TEXT
  5
189CC9D
  8
DIM
 10
336.3040854897181
 20
53.41581618987541
 30
0.0
 40
3.5
  1
１
 41
0.8
  0
TEXT
  5
189CD21
  8
DIM
 10
363.2447005438396
 20
19.44686450729193
 30
0.0
 40
3.5
  1
N.T.S
 41
0.8
  0
LINE
  5
189DC6A
  8
CEN
 10
19.83575999695404
 20
229.2512371931568
 30
0.0
 11
244.8314263940439
 21
229.2512371931569
 31
0.0
  0
LINE
  5
189DC6B
  8
2
 10
36.3564219260336
 20
229.2512371931569
 30
0.0
 11
36.3564219260336
 21
236.7512371931568
 31
0.0
  0
LINE
  5
189DC6C
  8
2
 10
36.3564219260336
 20
236.7512371931568
 30
0.0
 11
236.3564219260336
 21
236.7512371931568
 31
0.0
  0
LINE
  5
189DC6D
  8
2
 10
236.3564219260336
 20
236.7512371931568
 30
0.0
 11
236.3564219260336
 21
221.7512371931568
 31
0.0
  0
LINE
  5
189DC6E
  8
2
 10
236.3564219260336
 20
221.7512371931568
 30
0.0
 11
36.35642192603357
 21
221.7512371931568
 31
0.0
  0
LINE
  5
189DC6F
  8
2
 10
36.35642192603357
 20
221.7512371931568
 30
0.0
 11
36.35642192603357
 21
229.2512371931569
 31
0.0
  0
CIRCLE
  5
189DC70
  8
2
 10
46.3564219260336
 20
229.2512371931568
 30
0.0
 40
1.9
  0
CIRCLE
  5
189DC71
  8
2
 10
91.35642192603359
 20
229.2512371931568
 30
0.0
 40
1.9
  0
CIRCLE
  5
189DC72
  8
2
 10
136.3564219260336
 20
229.2512371931568
 30
0.0
 40
1.9
  0
CIRCLE
  5
189DC73
  8
2
 10
181.3564219260336
 20
229.2512371931568
 30
0.0
 40
1.9
  0
CIRCLE
  5
189DC74
  8
2
 10
226.3564219260336
 20
229.2512371931568
 30
0.0
 40
1.9
  0
LINE
  5
189DC75
  8
CEN
 10
112.4675998505884
 20
47.76747203794864
 30
0.0
 11
112.4675998505884
 21
168.8905602826979
 31
0.0
  0
LINE
  5
189DC76
  8
CEN
 10
112.4675998505884
 20
47.76747203794864
 30
0.0
 11
112.4675998505884
 21
31.56936061095564
 31
0.0
  0
ARC
  5
189DC77
  8
2
 10
112.4675998505884
 20
88.80318641586345
 30
0.0
 40
75.0
 50
0.0
 51
180.0
  0
ARC
  5
189DC78
  8
2
 10
112.4675998505884
 20
88.80318641586345
 30
0.0
 40
57.0
 50
0.0
 51
180.0
  0
LINE
  5
189DC79
  8
2
 10
335.8553139776029
 20
175.6083799541468
 30
0.0
 11
335.8553139776029
 21
180.1083799541468
 31
0.0
  0
LINE
  5
189DC7A
  8
2
 10
335.8553139776029
 20
180.1083799541468
 30
0.0
 11
285.8553139776029
 21
180.1083799541468
 31
0.0
  0
LINE
  5
189DC7B
  8
2
 10
285.8553139776029
 20
180.1083799541468
 30
0.0
 11
285.8553139776029
 21
175.6083799541468
 31
0.0
  0
LINE
  5
189DC7C
  8
2
 10
285.8553139776029
 20
175.6083799541468
 30
0.0
 11
335.8553139776029
 21
175.6083799541468
 31
0.0
  0
LINE
  5
189DC7D
  8
2
 10
55.46759985058839
 20
88.80318641586345
 30
0.0
 11
55.46759985058841
 21
56.99903393993404
 31
0.0
  0
LINE
  5
189DC7E
  8
2
 10
58.05088900051995
 20
54.500421741632
 30
0.0
 11
112.4675998505884
 21
56.31435733029707
 31
0.0
  0
LINE
  5
189DC7F
  8
2
 10
166.8843107006568
 20
54.50042174163201
 30
0.0
 11
112.4675998505884
 21
56.31435733029707
 31
0.0
  0
LINE
  5
189DC80
  8
2
 10
169.4675998505884
 20
56.99903393993404
 30
0.0
 11
169.4675998505884
 21
88.80318641586345
 31
0.0
  0
LINE
  5
189DC81
  8
2
 10
187.4675998505884
 20
88.80318641586345
 30
0.0
 11
187.4675998505884
 21
36.38791039952832
 31
0.0
  0
LINE
  5
189DC82
  8
2
 10
184.8843107006569
 20
33.8892982012263
 30
0.0
 11
112.4675998505884
 21
36.30324875011071
 31
0.0
  0
LINE
  5
189DC83
  8
2
 10
112.4675998505884
 20
36.30324875011071
 30
0.0
 11
40.05088900051993
 21
33.8892982012263
 31
0.0
  0
LINE
  5
189DC84
  8
2
 10
37.46759985058839
 20
36.38791039952832
 30
0.0
 11
37.46759985058839
 21
88.80318641586345
 31
0.0
  0
LINE
  5
189DC85
  8
2
 10
93.46759985058839
 20
161.3566150047316
 30
0.0
 11
93.46759985058839
 21
142.543301786041
 31
0.0
  0
LINE
  5
189DC86
  8
2
 10
131.4675998505884
 20
142.543301786041
 30
0.0
 11
131.4675998505884
 21
161.3566150047316
 31
0.0
  0
LINE
  5
189DC87
  8
2
 10
97.46759985058839
 20
55.81434486344763
 30
0.0
 11
97.46759985058839
 21
35.80323628326127
 31
0.0
  0
LINE
  5
189DC88
  8
2
 10
127.4675998505884
 20
35.80323628326126
 30
0.0
 11
127.4675998505884
 21
55.81434486344762
 31
0.0
  0
ARC
  5
189DC89
  8
2
 10
57.96759985058841
 20
56.99903393993404
 30
0.0
 40
2.5
 50
180.0
 51
271.9091999999999
  0
ARC
  5
189DC8A
  8
2
 10
39.96759985058839
 20
36.38791039952832
 30
0.0
 40
2.5
 50
180.0
 51
271.9091999999999
  0
ARC
  5
189DC8B
  8
2
 10
184.9675998505884
 20
36.38791039952832
 30
0.0
 40
2.5
 50
268.0908000000001
 51
0.0
  0
ARC
  5
189DC8C
  8
2
 10
166.9675998505884
 20
56.99903393993404
 30
0.0
 40
2.5
 50
268.0908000000001
 51
0.0
  0
DIMENSION
  5
189DC8D
  8
DIM
  2
*D13
 10
112.4675998505882
 20
88.8031864158634
 30
0.0
 11
144.7882614971526
 21
112.8167652958082
 31
0.0
 70
   164
  1
(Ｒ75)
 15
172.6698711554518
 25
133.5322209430649
 35
0.0
 40
0.0
  0
DIMENSION
  5
189DC8E
  8
DIM
  2
*D14
 10
57.93052988803051
 20
140.2883916609383
 30
0.0
 11
67.22673243356289
 21
137.0356054348796
 31
0.0
 70
    33
  1
(18)
 13
70.94887153804478
 23
127.8569339864767
 33
0.0
 14
57.83769417618887
 24
140.1896963771967
 34
0.0
  0
LINE
  5
189DC8F
  8
0
  6
BYBLOCK
 62
     0
 10
76.03771768671757
 20
55.09999764711095
 30
0.0
 11
77.61033168492952
 21
55.15241942075416
 31
0.0
  0
LINE
  5
189DC90
  8
0
  6
BYBLOCK
 62
     0
 10
76.70403088616993
 20
35.11110006069475
 30
0.0
 11
78.27664488438188
 21
35.16352183433796
 31
0.0
  0
LINE
  5
189DC91
  8
DIM
 62
     2
 10
75.71138890620574
 20
52.08745346284648
 30
0.0
 11
76.17780814582238
 21
38.09522515235514
 31
0.0
  0
INSERT
  5
189DC92
  8
DIM
 62
     2
  2
_OPEN
 10
75.61144192628791
 20
55.08578810080893
 30
0.0
 41
3.0
 42
3.0
 43
3.0
 50
91.9092
  0
INSERT
  5
189DC93
  8
DIM
 62
     2
  2
_OPEN
 10
76.27775512574024
 20
35.09689051439271
 30
0.0
 41
3.0
 42
3.0
 43
3.0
 50
271.9091999999999
  0
TEXT
  5
189DC94
  8
DIM
  6
CONTINUOUS
 62
     2
 10
74.45610569794314
 20
39.81365821543535
 30
0.0
 40
4.0
  1
(20)
 50
91.90920000000001
 41
0.8
  0
POINT
  5
189DC95
  8
DEFPOINTS
  6
BYBLOCK
 62
     0
 10
74.03882792807596
 20
55.03336632716571
 30
0.0
  0
POINT
  5
189DC96
  8
DEFPOINTS
  6
BYBLOCK
 62
     0
 10
74.70514112752832
 20
35.04446874074952
 30
0.0
  0
POINT
  5
189DC97
  8
DEFPOINTS
  6
BYBLOCK
 62
     0
 10
76.27775512574024
 20
35.09689051439271
 30
0.0
  0
DIMENSION
  5
189DC98
  8
DIM
  2
*D15
 10
203.7747033551012
 20
33.80318641586346
 30
0.0
 11
199.7747033551012
 21
98.80318641586344
 31
0.0
 70
    32
  1
130
 13
120.6110905492947
 23
163.8031864158635
 33
0.0
 14
187.4675998505884
 24
33.80318641586345
 34
0.0
 50
90.0
  0
LINE
  5
189DC99
  8
CEN
 10
310.8553139776029
 20
175.6083799541468
 30
0.0
 11
310.8553139776029
 21
171.1950182223112
 31
0.0
  0
LINE
  5
189DC9A
  8
CEN
 10
310.8553139776029
 20
175.6083799541468
 30
0.0
 11
310.8553139776029
 21
185.228380623526
 31
0.0
  0
LINE
  5
189DC9B
  8
2
 10
300.8553139776029
 20
180.1083799541468
 30
0.0
 11
300.8553139776029
 21
175.6083799541468
 31
0.0
  0
LINE
  5
189DC9C
  8
2
 10
320.8553139776029
 20
180.1083799541468
 30
0.0
 11
320.8553139776029
 21
175.6083799541468
 31
0.0
  0
LINE
  5
189DC9D
  8
DIM
 62
     2
 10
337.8553139776029
 20
180.1083799541468
 30
0.0
 11
351.5002648304194
 21
180.1083799541468
 31
0.0
  0
LINE
  5
189DC9E
  8
DIM
 62
     2
 10
337.8553139776029
 20
175.6083799541468
 30
0.0
 11
351.5002648304194
 21
175.6083799541468
 31
0.0
  0
LINE
  5
189DC9F
  8
DIM
 62
     2
 10
349.5002648304194
 20
183.1083799541468
 30
0.0
 11
349.5002648304194
 21
186.1083799541468
 31
0.0
  0
LINE
  5
189DCA0
  8
DIM
 62
     2
 10
349.5002648304194
 20
172.6083799541468
 30
0.0
 11
349.5002648304194
 21
169.6083799541468
 31
0.0
  0
LINE
  5
189DCA1
  8
DIM
 62
     2
 10
349.5002648304194
 20
180.1083799541468
 30
0.0
 11
349.5002648304194
 21
175.6083799541468
 31
0.0
  0
INSERT
  5
189DCA2
  8
DIM
 62
     2
  2
_OPEN
 10
349.5002648304194
 20
180.1083799541468
 30
0.0
 41
3.0
 42
3.0
 43
3.0
 50
270.0
  0
INSERT
  5
189DCA3
  8
DIM
 62
     2
  2
_OPEN
 10
349.5002648304194
 20
175.6083799541468
 30
0.0
 41
3.0
 42
3.0
 43
3.0
 50
90.0
  0
TEXT
  5
189DCA4
  8
DIM
  6
CONTINUOUS
 62
     2
 10
347.8166000192912
 20
180.7820292911254
 30
0.0
 40
4.0
  1
4.5
 50
90.0
 41
0.8
  0
POINT
  5
189DCA5
  8
DEFPOINTS
  6
BYBLOCK
 62
     0
 10
335.8553139776029
 20
180.1083799541468
 30
0.0
  0
POINT
  5
189DCA6
  8
DEFPOINTS
  6
BYBLOCK
 62
     0
 10
335.8553139776029
 20
175.6083799541468
 30
0.0
  0
CIRCLE
  5
189DCA7
  8
DIM
 10
30.43896726168221
 20
131.9985507242815
 30
0.0
 40
5.0
  0
INSERT
  5
189DCA8
  8
DIM
 62
     2
  2
_OPEN
 10
46.09965683549405
 20
123.7359237827688
 30
0.0
 41
3.0
 42
3.0
 43
3.0
 50
332.1837361158083
  0
LINE
  5
189DCA9
  8
DIM
 62
     2
 10
43.44631117995311
 20
125.13583693444
 30
0.0
 11
40.79296552441213
 21
126.5357500861111
 31
0.0
  0
LINE
  5
189DCAA
  8
DIM
 10
40.79296552441213
 20
126.5357500861111
 30
0.0
 11
34.86121002091716
 21
129.6653621381629
 31
0.0
  0
TEXT
  5
189DCAB
  8
DIM
 10
29.11765689371669
 20
129.9621963442312
 30
0.0
 40
3.5
  1
１
 41
0.8
  0
LINE
  5
189DCAC
  8
DIM
 10
330.2049675251436
 20
170.6460642983069
 30
0.0
 11
333.9749835842708
 21
165.0992477461291
 31
0.0
  0
LINE
  5
189DCAD
  8
DIM
 62
     2
 10
328.5185939505902
 20
173.1272221262269
 30
0.0
 11
330.2049675251436
 21
170.6460642983069
 31
0.0
  0
INSERT
  5
189DCAE
  8
DIM
 62
     2
  2
_OPEN
 10
326.8322203760372
 20
175.6083799541466
 30
0.0
 41
3.0
 42
3.0
 43
3.0
 50
124.2028504952363
  0
CIRCLE
  5
189DCAF
  8
DIM
 10
336.7856062085265
 20
160.9639846995959
 30
0.0
 40
5.0
  0
TEXT
  5
189DCB0
  8
DIM
 10
335.50909143894
 20
159.0664319401691
 30
0.0
 40
3.5
  1
２
 41
0.8
  0
LINE
  5
189DCB1
  8
CEN
 10
310.8553139776029
 20
171.1950182223112
 30
0.0
 11
310.8553139776029
 21
127.1950182223112
 31
0.0
  0
LINE
  5
189DCB2
  8
CEN
 10
297.7993121757042
 20
149.1950182223112
 30
0.0
 11
324.8966927255221
 21
149.1950182223112
 31
0.0
  0
LINE
  5
189DCB3
  8
2
 10
320.8553139776029
 20
139.1950182223112
 30
0.0
 11
320.8553139776029
 21
159.1950182223112
 31
0.0
  0
LINE
  5
189DCB4
  8
2
 10
300.8553139776029
 20
159.1950182223112
 30
0.0
 11
300.8553139776029
 21
139.1950182223112
 31
0.0
  0
ARC
  5
189DCB5
  8
2
 10
310.8553139776029
 20
159.1950182223112
 30
0.0
 40
10.0
 50
0.0
 51
180.0
  0
ARC
  5
189DCB6
  8
2
 10
310.8553139776029
 20
139.1950182223112
 30
0.0
 40
10.0
 50
180.0
 51
0.0
  0
DIMENSION
  5
189DCB7
  8
DIM
  2
*D16
 10
289.8636509069586
 20
129.1950182223113
 30
0.0
 11
285.8636509069586
 21
149.1950182223112
 31
0.0
 70
    32
  1
40
 13
310.8553139776029
 23
169.1950182223112
 33
0.0
 14
310.8553139776029
 24
129.1950182223112
 34
0.0
 50
90.0
  0
LINE
  5
189DCB8
  8
DIM
 62
     2
 10
226.3564219260336
 20
239.2898079763218
 30
0.0
 11
226.3564219260336
 21
251.2898079763219
 31
0.0
  0
LINE
  5
189DCB9
  8
DIM
 62
     2
 10
49.3564219260336
 20
249.2898079763219
 30
0.0
 11
223.3564219260336
 21
249.2898079763219
 31
0.0
  0
INSERT
  5
189DCBA
  8
DIM
 62
     2
  2
_OPEN
 10
46.3564219260336
 20
249.2898079763219
 30
0.0
 41
3.0
 42
3.0
 43
3.0
 50
180.0
  0
INSERT
  5
189DCBB
  8
DIM
 62
     2
  2
_OPEN
 10
226.3564219260336
 20
249.2898079763219
 30
0.0
 41
3.0
 42
3.0
 43
3.0
  0
TEXT
  5
189DCBC
  8
DIM
  6
CONTINUOUS
 62
     2
 10
125.4764219260336
 20
250.9060510571922
 30
0.0
 40
3.2
  1
4×450＝1800
 41
0.8
  0
POINT
  5
189DCBD
  8
DEFPOINTS
  6
BYBLOCK
 62
     0
 10
46.3564219260336
 20
229.2512371931568
 30
0.0
  0
POINT
  5
189DCBE
  8
DEFPOINTS
  6
BYBLOCK
 62
     0
 10
226.3564219260336
 20
229.2512371931568
 30
0.0
  0
LINE
  5
189DCBF
  8
DIM
 62
     2
 10
36.3564219260336
 20
239.2898079763218
 30
0.0
 11
36.3564219260336
 21
246.1798079763219
 31
0.0
  0
LINE
  5
189DCC0
  8
DIM
 62
     2
 10
46.3564219260336
 20
239.2898079763218
 30
0.0
 11
46.3564219260336
 21
251.2898079763219
 31
0.0
  0
LINE
  5
189DCC1
  8
DIM
 62
     2
 10
33.3564219260336
 20
249.2898079763219
 30
0.0
 11
30.3564219260336
 21
249.2898079763219
 31
0.0
  0
LINE
  5
189DCC2
  8
DIM
 62
     2
 10
49.3564219260336
 20
249.2898079763219
 30
0.0
 11
52.3564219260336
 21
249.2898079763219
 31
0.0
  0
LINE
  5
189DCC3
  8
DIM
 62
     2
 10
36.3564219260336
 20
249.2898079763219
 30
0.0
 11
46.3564219260336
 21
249.2898079763219
 31
0.0
  0
INSERT
  5
189DCC4
  8
DIM
 62
     2
  2
_OPEN
 10
36.3564219260336
 20
249.2898079763219
 30
0.0
 41
3.0
 42
3.0
 43
3.0
  0
INSERT
  5
189DCC5
  8
DIM
 62
     2
  2
_OPEN
 10
46.3564219260336
 20
249.2898079763219
 30
0.0
 41
3.0
 42
3.0
 43
3.0
 50
180.0
  0
TEXT
  5
189DCC6
  8
DIM
  6
CONTINUOUS
 62
     2
 10
38.15642192603359
 20
250.5060510571922
 30
0.0
 40
4.0
  1
100
 41
0.8
  0
POINT
  5
189DCC7
  8
DEFPOINTS
  6
BYBLOCK
 62
     0
 10
36.3564219260336
 20
236.7512371931568
 30
0.0
  0
POINT
  5
189DCC8
  8
DEFPOINTS
  6
BYBLOCK
 62
     0
 10
46.3564219260336
 20
229.2512371931568
 30
0.0
  0
LINE
  5
189DCC9
  8
DIM
 62
     2
 10
36.3564219260336
 20
239.2898079763218
 30
0.0
 11
36.3564219260336
 21
260.3226649808776
 31
0.0
  0
LINE
  5
189DCCA
  8
DIM
 62
     2
 10
236.3564219260336
 20
239.2898079763218
 30
0.0
 11
236.3564219260336
 21
260.3226649808776
 31
0.0
  0
LINE
  5
189DCCB
  8
DIM
 62
     2
 10
39.3564219260336
 20
258.3226649808776
 30
0.0
 11
233.3564219260336
 21
258.3226649808776
 31
0.0
  0
INSERT
  5
189DCCC
  8
DIM
 62
     2
  2
_OPEN
 10
36.3564219260336
 20
258.3226649808776
 30
0.0
 41
3.0
 42
3.0
 43
3.0
 50
180.0
  0
INSERT
  5
189DCCD
  8
DIM
 62
     2
  2
_OPEN
 10
236.3564219260336
 20
258.3226649808776
 30
0.0
 41
3.0
 42
3.0
 43
3.0
  0
TEXT
  5
189DCCE
  8
DIM
  6
CONTINUOUS
 62
     2
 10
131.2897552593669
 20
259.8068553245962
 30
0.0
 40
4.0
  1
2000
 41
0.8
  0
POINT
  5
189DCCF
  8
DEFPOINTS
  6
BYBLOCK
 62
     0
 10
36.3564219260336
 20
236.7512371931568
 30
0.0
  0
POINT
  5
189DCD0
  8
DEFPOINTS
  6
BYBLOCK
 62
     0
 10
236.3564219260336
 20
236.7512371931568
 30
0.0
  0
LINE
  5
189DCD1
  8
DIM
 62
     2
 10
236.3564219260336
 20
239.2898079763218
 30
0.0
 11
236.3564219260336
 21
246.1798079763219
 31
0.0
  0
LINE
  5
189DCD2
  8
DIM
 62
     2
 10
223.3564219260336
 20
249.2898079763219
 30
0.0
 11
220.3564219260336
 21
249.2898079763219
 31
0.0
  0
LINE
  5
189DCD3
  8
DIM
 62
     2
 10
239.3564219260335
 20
249.2898079763219
 30
0.0
 11
242.3564219260335
 21
249.2898079763219
 31
0.0
  0
LINE
  5
189DCD4
  8
DIM
 62
     2
 10
226.3564219260336
 20
249.2898079763219
 30
0.0
 11
236.3564219260336
 21
249.2898079763219
 31
0.0
  0
INSERT
  5
189DCD5
  8
DIM
 62
     2
  2
_OPEN
 10
226.3564219260336
 20
249.2898079763219
 30
0.0
 41
3.0
 42
3.0
 43
3.0
  0
INSERT
  5
189DCD6
  8
DIM
 62
     2
  2
_OPEN
 10
236.3564219260336
 20
249.2898079763219
 30
0.0
 41
3.0
 42
3.0
 43
3.0
 50
180.0
  0
TEXT
  5
189DCD7
  8
DIM
  6
CONTINUOUS
 62
     2
 10
228.1564219260336
 20
250.5060510571922
 30
0.0
 40
4.0
  1
100
 41
0.8
  0
POINT
  5
189DCD8
  8
DEFPOINTS
  6
BYBLOCK
 62
     0
 10
226.3564219260336
 20
229.2512371931568
 30
0.0
  0
POINT
  5
189DCD9
  8
DEFPOINTS
  6
BYBLOCK
 62
     0
 10
236.3564219260336
 20
236.7512371931568
 30
0.0
  0
DIMENSION
  5
189DCDA
  8
DIM
  2
*D17
 10
131.4675998505884
 20
132.3532657801099
 30
0.0
 11
120.8460336807054
 21
132.3532657801099
 31
0.0
 70
   160
  1
φ38
 13
93.46759985058839
 23
142.543301786041
 33
0.0
 14
131.4675998505884
 24
142.543301786041
 34
0.0
  0
DIMENSION
  5
189DCDB
  8
DIM
  2
*D18
 10
127.4675998505884
 20
22.7960299828386
 30
0.0
 11
112.4675998505884
 21
22.7960299828386
 31
0.0
 70
   160
  1
φ30
 13
97.46759985058839
 23
55.81434486344762
 33
0.0
 14
127.4675998505884
 24
55.81434486344762
 34
0.0
  0
DIMENSION
  5
189DCDC
  8
DIM
  2
*D19
 10
187.4675998505884
 20
11.46009468841589
 30
0.0
 11
112.4675998505884
 21
15.46009468841589
 31
0.0
 70
    32
  1
150
 13
37.46759985058839
 23
33.80318641586345
 33
0.0
 14
187.4675998505884
 24
33.80318641586345
 34
0.0
  0
DIMENSION
  5
189DCDD
  8
DIM
  2
*D20
 10
335.8553139776029
 20
189.9655224424864
 30
0.0
 11
310.8553139776029
 21
193.9655224424864
 31
0.0
 70
    32
  1
50
 13
285.8553139776029
 23
180.1083799541468
 33
0.0
 14
335.8553139776029
 24
180.1083799541468
 34
0.0
  0
DIMENSION
  5
189DCDE
  8
DIM
  2
*D21
 10
320.8553139776029
 20
120.0369511983165
 30
0.0
 11
310.8553139776029
 21
124.0369511983165
 31
0.0
 70
    32
  1
20
 13
300.8553139776029
 23
139.1950182223112
 33
0.0
 14
320.8553139776029
 24
139.1950182223112
 34
0.0
  0
LINE
  5
189DCDF
  8
2
 10
36.35642192603357
 20
196.0369509678143
 30
0.0
 11
36.35642192603357
 21
201.0369509678143
 31
0.0
  0
LINE
  5
189DCE0
  8
2
 10
36.35642192603357
 20
201.0369509678143
 30
0.0
 11
235.3564219260336
 21
201.0369509678143
 31
0.0
  0
LINE
  5
189DCE1
  8
2
 10
36.35642192603357
 20
196.0369509678143
 30
0.0
 11
235.3564219260336
 21
196.0369509678143
 31
0.0
  0
LINE
  5
189DCE2
  8
2
 10
235.3564219260336
 20
201.0369509678143
 30
0.0
 11
235.3564219260336
 21
196.0369509678143
 31
0.0
  0
LINE
  5
189DCE3
  8
2
 10
46.85642192603357
 20
199.5369509678143
 30
0.0
 11
44.85642192603357
 21
199.5369509678143
 31
0.0
  0
ARC
  5
189DCE4
  8
2
 10
44.85642192603357
 20
198.5369509678143
 30
0.0
 40
1.0
 50
90.0
 51
270.0
  0
LINE
  5
189DCE5
  8
2
 10
44.85642192603357
 20
197.5369509678143
 30
0.0
 11
46.85642192603357
 21
197.5369509678143
 31
0.0
  0
ARC
  5
189DCE6
  8
2
 10
46.85642192603357
 20
198.5369509678143
 30
0.0
 40
1.0
 50
270.0
 51
90.0
  0
LINE
  5
189DCE7
  8
CEN
 10
43.65642192603357
 20
198.5369509678143
 30
0.0
 11
48.05642192603357
 21
198.5369509678143
 31
0.0
  0
LINE
  5
189DCE8
  8
CEN
 10
45.85642192603357
 20
198.5369509678143
 30
0.0
 11
45.85642192603357
 21
196.6383894683616
 31
0.0
  0
LINE
  5
189DCE9
  8
CEN
 10
45.85642192603357
 20
198.5369509678143
 30
0.0
 11
45.85642192603357
 21
200.2338988494842
 31
0.0
  0
LINE
  5
189DCEA
  8
CEN
 10
90.85642192603359
 20
198.5369509678143
 30
0.0
 11
90.85642192603359
 21
200.2338988494842
 31
0.0
  0
LINE
  5
189DCEB
  8
CEN
 10
90.85642192603359
 20
198.5369509678143
 30
0.0
 11
90.85642192603359
 21
196.6383894683616
 31
0.0
  0
LINE
  5
189DCEC
  8
CEN
 10
88.65642192603349
 20
198.5369509678143
 30
0.0
 11
93.05642192603358
 21
198.5369509678143
 31
0.0
  0
ARC
  5
189DCED
  8
2
 10
91.85642192603359
 20
198.5369509678143
 30
0.0
 40
1.0
 50
270.0
 51
90.0
  0
LINE
  5
189DCEE
  8
2
 10
89.85642192603359
 20
197.5369509678143
 30
0.0
 11
91.85642192603359
 21
197.5369509678143
 31
0.0
  0
ARC
  5
189DCEF
  8
2
 10
89.85642192603359
 20
198.5369509678143
 30
0.0
 40
1.0
 50
90.0
 51
270.0
  0
LINE
  5
189DCF0
  8
2
 10
91.85642192603359
 20
199.5369509678143
 30
0.0
 11
89.85642192603359
 21
199.5369509678143
 31
0.0
  0
LINE
  5
189DCF1
  8
CEN
 10
135.8564219260336
 20
198.5369509678143
 30
0.0
 11
135.8564219260336
 21
200.2338988494842
 31
0.0
  0
LINE
  5
189DCF2
  8
CEN
 10
135.8564219260336
 20
198.5369509678143
 30
0.0
 11
135.8564219260336
 21
196.6383894683616
 31
0.0
  0
LINE
  5
189DCF3
  8
CEN
 10
133.6564219260335
 20
198.5369509678143
 30
0.0
 11
138.0564219260336
 21
198.5369509678143
 31
0.0
  0
ARC
  5
189DCF4
  8
2
 10
136.8564219260335
 20
198.5369509678143
 30
0.0
 40
1.0
 50
270.0
 51
90.0
  0
LINE
  5
189DCF5
  8
2
 10
134.8564219260335
 20
197.5369509678143
 30
0.0
 11
136.8564219260335
 21
197.5369509678143
 31
0.0
  0
ARC
  5
189DCF6
  8
2
 10
134.8564219260335
 20
198.5369509678143
 30
0.0
 40
1.0
 50
90.0
 51
270.0
  0
LINE
  5
189DCF7
  8
2
 10
136.8564219260335
 20
199.5369509678143
 30
0.0
 11
134.8564219260335
 21
199.5369509678143
 31
0.0
  0
LINE
  5
189DCF8
  8
CEN
 10
180.8564219260335
 20
198.5369509678143
 30
0.0
 11
180.8564219260335
 21
200.2338988494842
 31
0.0
  0
LINE
  5
189DCF9
  8
CEN
 10
180.8564219260335
 20
198.5369509678143
 30
0.0
 11
180.8564219260335
 21
196.6383894683616
 31
0.0
  0
LINE
  5
189DCFA
  8
CEN
 10
178.6564219260335
 20
198.5369509678143
 30
0.0
 11
183.0564219260336
 21
198.5369509678143
 31
0.0
  0
ARC
  5
189DCFB
  8
2
 10
181.8564219260335
 20
198.5369509678143
 30
0.0
 40
1.0
 50
270.0
 51
90.0
  0
LINE
  5
189DCFC
  8
2
 10
179.8564219260336
 20
197.5369509678143
 30
0.0
 11
181.8564219260335
 21
197.5369509678143
 31
0.0
  0
ARC
  5
189DCFD
  8
2
 10
179.8564219260336
 20
198.5369509678143
 30
0.0
 40
1.0
 50
90.0
 51
270.0
  0
LINE
  5
189DCFE
  8
2
 10
181.8564219260335
 20
199.5369509678143
 30
0.0
 11
179.8564219260336
 21
199.5369509678143
 31
0.0
  0
LINE
  5
189DCFF
  8
CEN
 10
225.8564219260336
 20
198.5369509678143
 30
0.0
 11
225.8564219260336
 21
200.2338988494842
 31
0.0
  0
LINE
  5
189DD00
  8
CEN
 10
225.8564219260336
 20
198.5369509678143
 30
0.0
 11
225.8564219260336
 21
196.6383894683616
 31
0.0
  0
LINE
  5
189DD01
  8
CEN
 10
223.6564219260336
 20
198.5369509678143
 30
0.0
 11
228.0564219260336
 21
198.5369509678143
 31
0.0
  0
ARC
  5
189DD02
  8
2
 10
226.8564219260336
 20
198.5369509678143
 30
0.0
 40
1.0
 50
270.0
 51
90.0
  0
LINE
  5
189DD03
  8
2
 10
224.8564219260336
 20
197.5369509678143
 30
0.0
 11
226.8564219260336
 21
197.5369509678143
 31
0.0
  0
ARC
  5
189DD04
  8
2
 10
224.8564219260336
 20
198.5369509678143
 30
0.0
 40
1.0
 50
90.0
 51
270.0
  0
LINE
  5
189DD05
  8
2
 10
226.8564219260336
 20
199.5369509678143
 30
0.0
 11
224.8564219260336
 21
199.5369509678143
 31
0.0
  0
DIMENSION
  5
189DD06
  8
DIM
  2
*D22
 10
45.85642192603357
 20
184.0986925863114
 30
0.0
 11
41.10642192603357
 21
188.0986925863114
 31
0.0
 70
    32
  1
95
 13
36.35642192603357
 23
196.0369509678143
 33
0.0
 14
45.85642192603357
 24
196.0369509678143
 34
0.0
  0
DIMENSION
  5
189DD07
  8
DIM
  2
*D23
 10
225.8564219260336
 20
184.0986925863114
 30
0.0
 11
135.8564219260336
 21
188.0986925863114
 31
0.0
 70
    32
  1
4×450＝1800
 13
45.85642192603357
 23
198.5369509678143
 33
0.0
 14
225.8564219260336
 24
196.0369509678143
 34
0.0
  0
DIMENSION
  5
189DD08
  8
DIM
  2
*D24
 10
235.3564219260336
 20
184.0986925863114
 30
0.0
 11
230.6064219260336
 21
188.0986925863114
 31
0.0
 70
    32
  1
95
 13
225.8564219260336
 23
198.5369509678143
 33
0.0
 14
235.3564219260336
 24
196.0369509678143
 34
0.0
  0
DIMENSION
  5
189DD09
  8
DIM
  2
*D25
 10
36.35642192603357
 20
174.9694391382039
 30
0.0
 11
135.8564219260336
 21
178.9694391382039
 31
0.0
 70
    32
  1
1990
 13
235.3564219260336
 23
196.0369509678143
 33
0.0
 14
36.35642192603357
 24
196.0369509678143
 34
0.0
  0
CIRCLE
  5
189DD0A
  8
DIM
 10
249.0775961002924
 20
210.7817593153979
 30
0.0
 40
5.0
  0
INSERT
  5
189DD0B
  8
DIM
 62
     2
  2
_OPEN
 10
235.3564219260335
 20
199.5899059755099
 30
0.0
 41
3.0
 42
3.0
 43
3.0
 50
219.2028504952363
  0
LINE
  5
189DD0C
  8
DIM
 62
     2
 10
237.681161057896
 20
201.4861095428482
 30
0.0
 11
240.0059001897585
 21
203.3823131101867
 31
0.0
  0
LINE
  5
189DD0D
  8
DIM
 10
240.0059001897585
 20
203.3823131101867
 30
0.0
 11
245.2030308805216
 21
207.6214200365002
 31
0.0
  0
LINE
  5
189DD0E
  8
DIM
 10
241.0059001897585
 20
235.0165295041216
 30
0.0
 11
246.2030308805217
 21
239.255636430435
 31
0.0
  0
LINE
  5
189DD0F
  8
DIM
 62
     2
 10
238.681161057896
 20
233.120325936783
 30
0.0
 11
241.0059001897585
 21
235.0165295041216
 31
0.0
  0
INSERT
  5
189DD10
  8
DIM
 62
     2
  2
_OPEN
 10
236.3564219260336
 20
231.2241223694448
 30
0.0
 41
3.0
 42
3.0
 43
3.0
 50
219.2028504952363
  0
CIRCLE
  5
189DD11
  8
DIM
 10
250.0775961002924
 20
242.4159757093329
 30
0.0
 40
5.0
  0
TEXT
  5
189DD12
  8
DIM
 10
248.6694481666464
 20
240.6069645775946
 30
0.0
 40
3.5
  1
１
 41
0.8
  0
TEXT
  5
189DD13
  8
DIM
 10
247.6538166760682
 20
208.6545830412742
 30
0.0
 40
3.5
  1
２
 41
0.8
  0
LINE
  5
189DD14
  8
CEN
 10
46.3564219260336
 20
229.2512371931568
 30
0.0
 11
46.3564219260336
 21
232.4698860822365
 31
0.0
  0
LINE
  5
189DD15
  8
CEN
 10
46.3564219260336
 20
226.0837386088692
 30
0.0
 11
46.3564219260336
 21
229.2512371931568
 31
0.0
  0
LINE
  5
189DD16
  8
CEN
 10
91.35642192603359
 20
229.2512371931568
 30
0.0
 11
91.35642192603359
 21
232.4698860822365
 31
0.0
  0
LINE
  5
189DD17
  8
CEN
 10
91.35642192603359
 20
226.0837386088692
 30
0.0
 11
91.35642192603359
 21
229.2512371931568
 31
0.0
  0
LINE
  5
189DD18
  8
CEN
 10
136.3564219260336
 20
229.2512371931568
 30
0.0
 11
136.3564219260336
 21
232.4698860822365
 31
0.0
  0
LINE
  5
189DD19
  8
CEN
 10
136.3564219260336
 20
226.0837386088692
 30
0.0
 11
136.3564219260336
 21
229.2512371931568
 31
0.0
  0
LINE
  5
189DD1A
  8
CEN
 10
181.3564219260336
 20
229.2512371931568
 30
0.0
 11
181.3564219260336
 21
232.4698860822365
 31
0.0
  0
LINE
  5
189DD1B
  8
CEN
 10
181.3564219260336
 20
226.0837386088692
 30
0.0
 11
181.3564219260336
 21
229.2512371931568
 31
0.0
  0
LINE
  5
189DD1C
  8
CEN
 10
226.3564219260336
 20
229.2512371931568
 30
0.0
 11
226.3564219260336
 21
232.4698860822365
 31
0.0
  0
LINE
  5
189DD1D
  8
CEN
 10
226.3564219260336
 20
226.0837386088692
 30
0.0
 11
226.3564219260336
 21
229.2512371931568
 31
0.0
  0
INSERT
  5
189DD1E
  8
DIM
  2
A$C3CC249BE
 10
191.6308993128553
 20
4.098900342016691
 30
0.0
 41
0.9913186339765616
 42
0.990401377920534
 43
0.9913186339765616
  0
LINE
  5
189DE4A
  8
DIM
 10
91.35642192603359
 20
239.1328453222829
 30
0.0
 11
91.35642192603359
 21
240.9367041259706
 31
0.0
  0
INSERT
  5
189DE4B
  8
DIM
  2
*X26
 10
0.0
 20
0.0
 30
0.0
  0
LINE
  5
189DE4C
  8
DIM
 10
91.35642192603359
 20
218.2975456591882
 30
0.0
 11
91.35642192603359
 21
216.4936868555006
 31
0.0
  0
INSERT
  5
189DE4D
  8
DIM
  2
*X27
 10
0.0
 20
0.0
 30
0.0
  0
TEXT
  5
189DE52
  8
DIM
 10
100.2926701795231
 20
239.7547442550381
 30
0.0
 40
3.5
  1
"A"
 41
0.8
  0
TEXT
  5
189DE53
  8
DIM
 10
100.2926701795231
 20
214.871864383532
 30
0.0
 40
3.5
  1
"A"
 41
0.8
  0
TEXT
  5
189DE96
  8
DIM
 10
107.2562977875151
 20
5.221524141615873
 30
0.0
 40
3.5
  1
"A"-"A"断面
 41
0.8
  0
LINE
  5
189DE97
  8
DIM
 10
103.5876253363612
 20
3.962645418870125
 30
0.0
 11
131.0921997971614
 21
3.962645418870125
 31
0.0
  0
TEXT
  5
189DE98
  8
DIM
 10
305.1285705049436
 20
98.38393764394766
 30
0.0
 40
3.5
  1
"B"部詳細
 41
0.8
  0
LINE
  5
189DE99
  8
DIM
 10
301.4598980537897
 20
97.12505892120191
 30
0.0
 11
324.7175469646626
 21
97.12505892120191
 31
0.0
  0
CIRCLE
  5
189DEB1
  8
0
  6
DASHED
 10
90.85642192603353
 20
198.5369509678143
 30
0.0
 40
6.358433258820526
  0
TEXT
  5
189DEB9
  8
DIM
 10
88.04216247265595
 20
206.6210941671861
 30
0.0
 40
3.5
  1
"B"
 41
0.8
  0
ENDSEC
  0
EOF
