  0
SECTION
  2
HEADER
  9
$ACADVER
  1
AC1006
  9
$DWGCODEPAGE
  3
ansi_932
  9
$INSBASE
 10
0.0
 20
0.0
 30
0.0
  9
$EXTMIN
 10
11520.16319541192
 20
17265.71298753561
  9
$EXTMAX
 10
14147.77689270251
 20
18741.23873826194
  9
$LIMMIN
 10
0.0
 20
0.0
  9
$LIMMAX
 10
420.0
 20
297.0
  9
$ORTHOMODE
 70
     0
  9
$REGENMODE
 70
     1
  9
$FILLMODE
 70
     1
  9
$QTEXTMODE
 70
     0
  9
$MIRRTEXT
 70
     1
  9
$DRAGMODE
 70
     2
  9
$LTSCALE
 40
0.5
  9
$OSMODE
 70
    37
  9
$ATTMODE
 70
     1
  9
$TEXTSIZE
 40
2.0
  9
$TRACEWID
 40
1.0
  9
$TEXTSTYLE
  7
STANDARD
  9
$CLAYER
  8
0
  9
$CELTYPE
  6
BYLAYER
  9
$CECOLOR
 62
   256
  9
$DIMSCALE
 40
1.0
  9
$DIMASZ
 40
1.5
  9
$DIMEXO
 40
2.0
  9
$DIMDLI
 40
3.75
  9
$DIMRND
 40
0.0
  9
$DIMDLE
 40
0.0
  9
$DIMEXE
 40
1.0
  9
$DIMTP
 40
0.0
  9
$DIMTM
 40
0.0
  9
$DIMTXT
 40
5.0
  9
$DIMCEN
 40
1.0
  9
$DIMTSZ
 40
0.0
  9
$DIMTOL
 70
     0
  9
$DIMLIM
 70
     0
  9
$DIMTIH
 70
     0
  9
$DIMTOH
 70
     0
  9
$DIMSE1
 70
     0
  9
$DIMSE2
 70
     0
  9
$DIMTAD
 70
     1
  9
$DIMZIN
 70
     8
  9
$DIMBLK
  1
OPEN30
  9
$DIMASO
 70
     1
  9
$DIMSHO
 70
     1
  9
$DIMPOST
  1

  9
$DIMAPOST
  1

  9
$DIMALT
 70
     0
  9
$DIMALTD
 70
     3
  9
$DIMALTF
 40
0.03937007874016
  9
$DIMLFAC
 40
1.0
  9
$DIMTOFL
 70
     1
  9
$DIMTVP
 40
0.0
  9
$DIMTIX
 70
     0
  9
$DIMSOXD
 70
     0
  9
$DIMSAH
 70
     0
  9
$DIMBLK1
  1

  9
$DIMBLK2
  1

  9
$LUNITS
 70
     2
  9
$LUPREC
 70
     4
  9
$SKETCHINC
 40
1.0
  9
$FILLETRAD
 40
20.0
  9
$AUNITS
 70
     0
  9
$AUPREC
 70
     0
  9
$MENU
  1
.
  9
$ELEVATION
 40
0.0
  9
$THICKNESS
 40
0.0
  9
$LIMCHECK
 70
     0
  9
$CHAMFERA
 40
2.0
  9
$CHAMFERB
 40
2.0
  9
$SKPOLY
 70
     0
  9
$TDCREATE
 40
2452705.193565278
  9
$TDUPDATE
 40
2459449.748674363
  9
$TDINDWG
 40
4.9484345833
  9
$TDUSRTIMER
 40
4.9484326157
  9
$USRTIMER
 70
     1
  9
$ANGBASE
 50
0.0
  9
$ANGDIR
 70
     0
  9
$PDMODE
 70
     0
  9
$PDSIZE
 40
0.0
  9
$PLINEWID
 40
0.0
  9
$COORDS
 70
     1
  9
$SPLFRAME
 70
     0
  9
$SPLINETYPE
 70
     6
  9
$SPLINESEGS
 70
     8
  9
$ATTDIA
 70
     0
  9
$ATTREQ
 70
     1
  9
$HANDLING
 70
     1
  9
$HANDSEED
  5
18187
  9
$SURFTAB1
 70
     6
  9
$SURFTAB2
 70
     6
  9
$SURFTYPE
 70
     6
  9
$SURFU
 70
     6
  9
$SURFV
 70
     6
  9
$UCSNAME
  2

  9
$UCSORG
 10
0.0
 20
0.0
 30
0.0
  9
$UCSXDIR
 10
1.0
 20
0.0
 30
0.0
  9
$UCSYDIR
 10
0.0
 20
1.0
 30
0.0
  9
$USERI1
 70
     0
  9
$USERI2
 70
     0
  9
$USERI3
 70
     0
  9
$USERI4
 70
     0
  9
$USERI5
 70
     0
  9
$USERR1
 40
0.0
  9
$USERR2
 40
0.0
  9
$USERR3
 40
0.0
  9
$USERR4
 40
0.0
  9
$USERR5
 40
0.0
  9
$WORLDVIEW
 70
     1
  0
ENDSEC
  0
SECTION
  2
TABLES
  0
TABLE
  2
VPORT
 70
     1
  0
VPORT
  2
*ACTIVE
 70
     0
 10
0.0
 20
0.0
 11
1.0
 21
1.0
 12
12039.76343645792
 22
18678.1797045813
 13
0.0
 23
0.0
 14
10.0
 24
10.0
 15
10.0
 25
10.0
 16
0.0
 26
0.0
 36
1.0
 17
0.0
 27
0.0
 37
0.0
 40
721.5267707262375
 41
1.812121212121212
 42
50.0
 43
0.0
 44
0.0
 50
0.0
 51
0.0
 71
     0
 72
   100
 73
     1
 74
     3
 75
     0
 76
     1
 77
     0
 78
     0
  0
ENDTAB
  0
TABLE
  2
LTYPE
 70
     8
  0
LTYPE
  2
CONTINUOUS
 70
     0
  3
Solid line
 72
    65
 73
     0
 40
0.0
  0
LTYPE
  2
CENTER2
 70
     0
  3
Center (.5x) ___ _ ___ _ ___ _ ___ _ ___ _ ___
 72
    65
 73
     4
 40
28.575
 49
19.05
 49
-3.175
 49
3.175
 49
-3.175
  0
LTYPE
  2
DASHED2
 70
     0
  3
Dashed (.5x) _ _ _ _ _ _ _ _ _ _ _ _ _ _ _ _ _
 72
    65
 73
     2
 40
9.524999999999999
 49
6.35
 49
-3.175
  0
LTYPE
  2
HIDDEN2
 70
     0
  3
Hidden (.5x) _ _ _ _ _ _ _ _ _ _ _ _ _ _ _ _ _
 72
    65
 73
     2
 40
4.762499999999999
 49
3.175
 49
-1.5875
  0
LTYPE
  2
PHANTOM2
 70
     0
  3
Phantom (.5x) ___ _ _ ___ _ _ ___ _ _ ___ _ _
 72
    65
 73
     6
 40
31.75
 49
15.875
 49
-3.175
 49
3.175
 49
-3.175
 49
3.175
 49
-3.175
  0
LTYPE
  2
DASHDOT2
 70
     0
  3
Dash dot (.5x) _._._._._._._._._._._._._._._.
 72
    65
 73
     4
 40
12.7
 49
6.35
 49
-3.175
 49
0.0
 49
-3.175
  0
LTYPE
  2
DOT
 70
     0
  3
Dot . . . . . . . . . . . . . . . . . . . . . .
 72
    65
 73
     2
 40
0.25
 49
0.0
 49
-0.25
  0
LTYPE
  2
CENTER
 70
     0
  3
____ _ ____ _ ____ _ ____ _ ____ _ ____ _ ____
 72
    65
 73
     4
 40
12.0
 49
9.0
 49
-1.0
 49
1.0
 49
-1.0
  0
ENDTAB
  0
TABLE
  2
LAYER
 70
    16
  0
LAYER
  2
0
 70
     0
 62
     7
  6
CONTINUOUS
  0
LAYER
  2
センター線
 70
     0
 62
     4
  6
CENTER2
  0
LAYER
  2
補助線
 70
     0
 62
     2
  6
CONTINUOUS
  0
LAYER
  2
DEFPOINTS
 70
     0
 62
     7
  6
CONTINUOUS
  0
LAYER
  2
隠線
 70
     0
 62
     8
  6
HIDDEN2
  0
LAYER
  2
外径線
 70
     0
 62
     5
  6
CONTINUOUS
  0
LAYER
  2
画層5
 70
     0
 62
     6
  6
DASHED2
  0
LAYER
  2
枠
 70
     0
 62
     1
  6
CONTINUOUS
  0
LAYER
  2
寸法線
 70
     0
 62
     3
  6
CONTINUOUS
  0
LAYER
  2
枠線
 70
     0
 62
     7
  6
CONTINUOUS
  0
LAYER
  2
記述1
 70
     0
 62
     7
  6
CONTINUOUS
  0
LAYER
  2
細線
 70
     0
 62
     7
  6
CONTINUOUS
  0
LAYER
  2
中心線
 70
     0
 62
     7
  6
CENTER
  0
LAYER
  2
外形線
 70
     0
 62
     7
  6
CONTINUOUS
  0
LAYER
  2
2
 70
     0
 62
     7
  6
CONTINUOUS
  0
LAYER
  2
CEN
 70
     0
 62
     4
  6
CENTER
  0
ENDTAB
  0
TABLE
  2
STYLE
 70
     3
  0
STYLE
  2
STANDARD
 70
     0
 40
0.0
 41
1.0
 50
0.0
 71
     0
 42
2.0
  3
romans.shx
  4
bigfont.shx
  0
STYLE
  2

 70
     1
 40
0.0
 41
1.0
 50
0.0
 71
     0
 42
2.5
  3
ltypeshp.shx
  4

  0
STYLE
  2
STYLE1
 70
     0
 40
0.0
 41
0.8
 50
0.0
 71
     0
 42
3.2
  3
dutch.ttf
  4

  0
ENDTAB
  0
TABLE
  2
VIEW
 70
     0
  0
ENDTAB
  0
TABLE
  2
UCS
 70
     0
  0
ENDTAB
  0
ENDSEC
  0
SECTION
  2
BLOCKS
  0
BLOCK
  8
0
  2
_OPEN30
 70
     0
 10
0.0
 20
0.0
 30
0.0
  0
LINE
  5
9A1
  8
補助線
 62
     0
 10
-1.0
 20
0.26794919
 30
0.0
 11
0.0
 21
0.0
 31
0.0
  0
LINE
  5
9A2
  8
補助線
 62
     0
 10
0.0
 20
0.0
 30
0.0
 11
-1.0
 21
-0.26794919
 31
0.0
  0
LINE
  5
9A3
  8
補助線
 62
     0
 10
0.0
 20
0.0
 30
0.0
 11
-1.0
 21
0.0
 31
0.0
  0
ENDBLK
  8
0
  0
BLOCK
  8
0
  2
A$C27AF58EE
 70
     0
 10
0.0
 20
0.0
 30
0.0
  0
TEXT
  5
5516
  8
寸法線
  6
CONTINUOUS
 10
-0.4285717510906417
 20
14.92176606841309
 30
0.0
 40
3.0
  1
仕　様
  0
TEXT
  5
5517
  8
寸法線
  6
CONTINUOUS
 10
3.844093856596731
 20
0.00000024768309
 30
0.0
 40
3.0
  1
硬　　さ　：　ﾃﾞｭﾛﾒｰﾀAﾀｲﾌﾟ　７０±5
  0
TEXT
  5
5518
  8
寸法線
  6
CONTINUOUS
 10
3.844093856596731
 20
7.659072610947192
 30
0.0
 40
3.0
  1
ゴム材質　：　EPDM
  0
ENDBLK
  8
0
  0
BLOCK
  8
0
  2
A$C09A73ABD
 70
     0
 10
0.0
 20
0.0
 30
0.0
  0
TEXT
  5
5D47
  8
寸法線
  6
CONTINUOUS
 10
6.974862829712769
 20
41.59703390664651
 30
0.0
 40
2.0
  1
製品公差　３級
  0
TEXT
  5
5D48
  8
寸法線
  6
CONTINUOUS
 10
7.166770043033986
 20
36.49763584663531
 30
0.0
 40
1.5
  1
3未満
  0
TEXT
  5
5D49
  8
寸法線
  6
CONTINUOUS
 10
3.695205921218709
 20
31.57479022324087
 30
0.0
 40
1.5
  1
3以上～6未満
  0
LINE
  5
5D4A
  8
外径線
 10
0.0000000841159817
 20
45.00000001150772
 30
0.0
 11
0.0000000841159817
 21
0.0000000115077228
 31
0.0
  0
LINE
  5
5D4B
  8
外径線
 10
18.60000008411598
 20
40.00000001150772
 30
0.0
 11
18.60000008411598
 21
0.0000000115077228
 31
0.0
  0
LINE
  5
5D4C
  8
外径線
 10
30.00000008411598
 20
45.00000001150772
 30
0.0
 11
30.00000008411598
 21
0.0000000115077228
 31
0.0
  0
LINE
  5
5D4D
  8
外径線
 10
0.0000000841159817
 20
45.00000001150772
 30
0.0
 11
30.00000008411598
 21
45.00000001150772
 31
0.0
  0
LINE
  5
5D4E
  8
外径線
 10
0.0000000841159817
 20
40.00000001150772
 30
0.0
 11
30.00000008411598
 21
40.00000001150772
 31
0.0
  0
LINE
  5
5D4F
  8
外径線
 10
0.0000000841159817
 20
35.00000001150772
 30
0.0
 11
30.00000008411598
 21
35.00000001150772
 31
0.0
  0
LINE
  5
5D50
  8
外径線
 10
0.0000000841159817
 20
30.00000001150772
 30
0.0
 11
30.00000008411598
 21
30.00000001150772
 31
0.0
  0
LINE
  5
5D51
  8
外径線
 10
0.0000000841159817
 20
25.00000001150772
 30
0.0
 11
30.00000008411598
 21
25.00000001150772
 31
0.0
  0
LINE
  5
5D52
  8
外径線
 10
0.0000000841159817
 20
20.00000001150772
 30
0.0
 11
30.00000008411598
 21
20.00000001150772
 31
0.0
  0
LINE
  5
5D53
  8
外径線
 10
0.0000000841159817
 20
0.0000000115077228
 30
0.0
 11
30.00000008411598
 21
0.0000000115077228
 31
0.0
  0
LINE
  5
5D54
  8
外径線
 10
0.0000000841159817
 20
5.000000011507723
 30
0.0
 11
30.00000008411598
 21
5.000000011507723
 31
0.0
  0
LINE
  5
5D55
  8
外径線
 10
0.0000000841159817
 20
15.00000001150772
 30
0.0
 11
30.00000008411598
 21
15.00000001150772
 31
0.0
  0
LINE
  5
5D56
  8
外径線
 10
0.0000000841159817
 20
10.00000001150772
 30
0.0
 11
30.00000008411598
 21
10.00000001150772
 31
0.0
  0
TEXT
  5
5D57
  8
寸法線
  6
CONTINUOUS
 10
21.31136972492373
 20
36.7189986512717
 30
0.0
 40
1.5
  1
±0.4
  0
TEXT
  5
5D58
  8
寸法線
  6
CONTINUOUS
 10
21.31136972492373
 20
31.57479069058609
 30
0.0
 40
1.5
  1
±0.5
  0
TEXT
  5
5D59
  8
寸法線
  6
CONTINUOUS
 10
21.31136972492373
 20
26.78132437295209
 30
0.0
 40
1.5
  1
±0.6
  0
TEXT
  5
5D5A
  8
寸法線
  6
CONTINUOUS
 10
21.31136972492373
 20
21.5202025312493
 30
0.0
 40
1.5
  1
±0.8
  0
TEXT
  5
5D5B
  8
寸法線
  6
CONTINUOUS
 10
21.31136972492373
 20
16.49290845158088
 30
0.0
 40
1.5
  1
±1.0
  0
TEXT
  5
5D5C
  8
寸法線
  6
CONTINUOUS
 10
21.31136972492373
 20
11.58252825292965
 30
0.0
 40
1.5
  1
±1.5
  0
TEXT
  5
5D5D
  8
寸法線
  6
CONTINUOUS
 10
21.31136972492373
 20
6.789061935295649
 30
0.0
 40
1.5
  1
±2.0
  0
TEXT
  5
5D5E
  8
寸法線
  6
CONTINUOUS
 10
21.31136972492373
 20
1.761767388282067
 30
0.0
 40
1.5
  1
±2.5
  0
TEXT
  5
5D5F
  8
寸法線
  6
CONTINUOUS
 10
2.317457774442305
 20
21.83391360949081
 30
0.0
 40
1.5
  1
10以上～18未満
  0
TEXT
  5
5D60
  8
寸法線
  6
CONTINUOUS
 10
2.317457774442305
 20
16.72394522804001
 30
0.0
 40
1.5
  1
18以上～30未満
  0
TEXT
  5
5D61
  8
寸法線
  6
CONTINUOUS
 10
2.331743488728031
 20
11.77366403031817
 30
0.0
 40
1.5
  1
30以上～50未満
  0
TEXT
  5
5D62
  8
寸法線
  6
CONTINUOUS
 10
2.331743488728031
 20
6.743538773386717
 30
0.0
 40
1.5
  1
50以上～80未満
  0
TEXT
  5
5D63
  8
寸法線
  6
CONTINUOUS
 10
2.331743488728031
 20
1.952943824703539
 30
0.0
 40
1.5
  1
80以上～120未満
  0
TEXT
  5
5D64
  8
寸法線
  6
CONTINUOUS
 10
3.828470170713152
 20
26.46482230913528
 30
0.0
 40
1.5
  1
6以上～10未満
  0
ENDBLK
  8
0
  0
BLOCK
  8
0
  2
A$C46AB0111
 70
     0
 10
0.0
 20
0.0
 30
0.0
  0
TEXT
  5
101FD
  8
0
  6
CONTINUOUS
 10
-0.4285714285714285
 20
-0.0000002100611027
 30
0.0
 40
3.0
  1
ネオストッパーNS110D
  0
ENDBLK
  8
0
  0
BLOCK
  8
0
  2
*D5
 70
     1
 10
0.0
 20
0.0
 30
0.0
  0
LINE
  5
10F94
  8
0
 62
     0
 10
1072.43563017932
 20
3466.406508896064
 30
0.0
 11
1072.43563017932
 21
3338.991927161372
 31
0.0
  0
LINE
  5
10F95
  8
0
 62
     0
 10
2872.43563017932
 20
3466.406508896064
 30
0.0
 11
2872.43563017932
 21
3338.991927161372
 31
0.0
  0
LINE
  5
10F96
  8
0
 62
     0
 10
1097.43563017932
 20
3339.991927161372
 30
0.0
 11
2847.43563017932
 21
3339.991927161372
 31
0.0
  0
TEXT
  5
10F97
  8
0
  6
CONTINUOUS
 62
     0
 10
1923.030868274558
 20
3358.491927161372
 30
0.0
 40
25.0
  1
1800
  0
INSERT
  5
10F98
  8
0
 62
     0
  2
_OPEN30
 10
1072.43563017932
 20
3339.991927161372
 30
0.0
 41
25.0
 42
25.0
 43
25.0
 50
180.0
  0
INSERT
  5
10F99
  8
0
 62
     0
  2
_OPEN30
 10
2872.43563017932
 20
3339.991927161372
 30
0.0
 41
25.0
 42
25.0
 43
25.0
  0
POINT
  5
10F9A
  8
DEFPOINTS
 62
     0
 10
1072.43563017932
 20
3468.406508896064
 30
0.0
  0
POINT
  5
10F9B
  8
DEFPOINTS
 62
     0
 10
2872.43563017932
 20
3468.406508896064
 30
0.0
  0
POINT
  5
10F9C
  8
DEFPOINTS
 62
     0
 10
2872.43563017932
 20
3339.991927161372
 30
0.0
  0
ENDBLK
  8
0
  0
BLOCK
  8
0
  2
*D6
 70
     1
 10
0.0
 20
0.0
 30
0.0
  0
LINE
  5
10FA0
  8
0
 62
     0
 10
1072.43563017932
 20
3466.406508896064
 30
0.0
 11
1072.43563017932
 21
3338.84375790615
 31
0.0
  0
LINE
  5
10FA1
  8
0
 62
     0
 10
972.4356301793196
 20
3466.406508896064
 30
0.0
 11
972.4356301793196
 21
3338.84375790615
 31
0.0
  0
LINE
  5
10FA2
  8
0
 62
     0
 10
1047.43563017932
 20
3339.84375790615
 30
0.0
 11
997.4356301793196
 21
3339.84375790615
 31
0.0
  0
TEXT
  5
10FA3
  8
0
  6
CONTINUOUS
 62
     0
 10
984.9356301793196
 20
3358.34375790615
 30
0.0
 40
25.0
  1
100
  0
INSERT
  5
10FA4
  8
0
 62
     0
  2
_OPEN30
 10
1072.43563017932
 20
3339.84375790615
 30
0.0
 41
25.0
 42
25.0
 43
25.0
  0
INSERT
  5
10FA5
  8
0
 62
     0
  2
_OPEN30
 10
972.4356301793196
 20
3339.84375790615
 30
0.0
 41
25.0
 42
25.0
 43
25.0
 50
180.0
  0
POINT
  5
10FA6
  8
DEFPOINTS
 62
     0
 10
1072.43563017932
 20
3468.406508896064
 30
0.0
  0
POINT
  5
10FA7
  8
DEFPOINTS
 62
     0
 10
972.4356301793196
 20
3468.406508896064
 30
0.0
  0
POINT
  5
10FA8
  8
DEFPOINTS
 62
     0
 10
972.4356301793196
 20
3339.84375790615
 30
0.0
  0
ENDBLK
  8
0
 62
     3
  0
BLOCK
  8
0
  2
*D7
 70
     1
 10
0.0
 20
0.0
 30
0.0
  0
LINE
  5
10FAC
  8
0
 62
     0
 10
2872.43563017932
 20
3466.406508896064
 30
0.0
 11
2872.43563017932
 21
3339.137800414259
 31
0.0
  0
LINE
  5
10FAD
  8
0
 62
     0
 10
2972.43563017932
 20
3466.406508896064
 30
0.0
 11
2972.43563017932
 21
3339.137800414259
 31
0.0
  0
LINE
  5
10FAE
  8
0
 62
     0
 10
2897.43563017932
 20
3340.137800414259
 30
0.0
 11
2947.43563017932
 21
3340.137800414259
 31
0.0
  0
TEXT
  5
10FAF
  8
0
  6
CONTINUOUS
 62
     0
 10
2884.93563017932
 20
3358.637800414259
 30
0.0
 40
25.0
  1
100
  0
INSERT
  5
10FB0
  8
0
 62
     0
  2
_OPEN30
 10
2872.43563017932
 20
3340.137800414259
 30
0.0
 41
25.0
 42
25.0
 43
25.0
 50
180.0
  0
INSERT
  5
10FB1
  8
0
 62
     0
  2
_OPEN30
 10
2972.43563017932
 20
3340.137800414259
 30
0.0
 41
25.0
 42
25.0
 43
25.0
  0
POINT
  5
10FB2
  8
DEFPOINTS
 62
     0
 10
2872.43563017932
 20
3468.406508896064
 30
0.0
  0
POINT
  5
10FB3
  8
DEFPOINTS
 62
     0
 10
2972.43563017932
 20
3468.406508896064
 30
0.0
  0
POINT
  5
10FB4
  8
DEFPOINTS
 62
     0
 10
2972.43563017932
 20
3340.137800414259
 30
0.0
  0
ENDBLK
  8
0
 62
     3
  0
BLOCK
  8
0
  2
*D8
 70
     1
 10
0.0
 20
0.0
 30
0.0
  0
LINE
  5
10FB8
  8
0
 62
     0
 10
972.4356301793196
 20
3466.406508896064
 30
0.0
 11
972.4356301793196
 21
3254.828819692049
 31
0.0
  0
LINE
  5
10FB9
  8
0
 62
     0
 10
2972.43563017932
 20
3466.406508896064
 30
0.0
 11
2972.43563017932
 21
3254.828819692049
 31
0.0
  0
LINE
  5
10FBA
  8
0
 62
     0
 10
997.4356301793196
 20
3255.828819692049
 30
0.0
 11
2947.43563017932
 21
3255.828819692049
 31
0.0
  0
TEXT
  5
10FBB
  8
0
  6
CONTINUOUS
 62
     0
 10
1924.816582560272
 20
3274.328819692049
 30
0.0
 40
25.0
  1
2000
  0
INSERT
  5
10FBC
  8
0
 62
     0
  2
_OPEN30
 10
972.4356301793196
 20
3255.828819692049
 30
0.0
 41
25.0
 42
25.0
 43
25.0
 50
180.0
  0
INSERT
  5
10FBD
  8
0
 62
     0
  2
_OPEN30
 10
2972.43563017932
 20
3255.828819692049
 30
0.0
 41
25.0
 42
25.0
 43
25.0
  0
POINT
  5
10FBE
  8
DEFPOINTS
 62
     0
 10
972.4356301793196
 20
3468.406508896064
 30
0.0
  0
POINT
  5
10FBF
  8
DEFPOINTS
 62
     0
 10
2972.43563017932
 20
3468.406508896064
 30
0.0
  0
POINT
  5
10FC0
  8
DEFPOINTS
 62
     0
 10
2972.43563017932
 20
3255.828819692049
 30
0.0
  0
ENDBLK
  8
0
 62
     3
  0
BLOCK
  8
0
  2
A$C626C24AE
 70
     0
 10
0.0
 20
0.0
 30
0.0
  0
LINE
  5
10FC3
  8
0
 10
47.93646017748324
 20
144.2764166263482
 30
0.0
 11
2047.936460177483
 21
144.2764166263482
 31
0.0
  0
LINE
  5
10FC4
  8
0
 10
47.93646017748324
 20
294.2764166263482
 30
0.0
 11
2047.936460177483
 21
294.2764166263482
 31
0.0
  0
LINE
  5
10FC5
  8
0
 10
47.93646017748313
 20
294.2764166263482
 30
0.0
 11
47.93646017748335
 21
144.2764166263482
 31
0.0
  0
LINE
  5
10FC6
  8
0
 10
2047.936460177483
 20
294.2764166263482
 30
0.0
 11
2047.936460177483
 21
144.2764166263482
 31
0.0
  0
CIRCLE
  5
10FC7
  8
0
 10
147.9364601774832
 20
219.2764166263482
 30
0.0
 40
20.0
  0
CIRCLE
  5
10FC8
  8
0
 10
597.9364601774832
 20
219.2764166263482
 30
0.0
 40
20.0
  0
CIRCLE
  5
10FC9
  8
0
 10
1047.936460177483
 20
219.2764166263482
 30
0.0
 40
20.0
  0
CIRCLE
  5
10FCA
  8
0
 10
1497.936460177483
 20
219.2764166263482
 30
0.0
 40
20.0
  0
CIRCLE
  5
10FCB
  8
0
 10
1947.936460177483
 20
219.2764166263482
 30
0.0
 40
20.0
  0
LINE
  5
10FCC
  8
センター線
 10
1947.936460177483
 20
249.2764166263482
 30
0.0
 11
1947.936460177483
 21
189.2764166263482
 31
0.0
  0
LINE
  5
10FCD
  8
センター線
 10
1497.936460177483
 20
249.2764166263482
 30
0.0
 11
1497.936460177483
 21
189.2764166263482
 31
0.0
  0
LINE
  5
10FCE
  8
センター線
 10
1047.936460177483
 20
249.2764166263482
 30
0.0
 11
1047.936460177483
 21
189.2764166263482
 31
0.0
  0
LINE
  5
10FCF
  8
センター線
 10
597.9364601774832
 20
249.2764166263482
 30
0.0
 11
597.9364601774832
 21
189.2764166263482
 31
0.0
  0
LINE
  5
10FD0
  8
センター線
 10
147.9364601774832
 20
249.2764166263482
 30
0.0
 11
147.9364601774832
 21
189.2764166263482
 31
0.0
  0
DIMENSION
  5
10FD1
  8
0
 62
     3
  2
*D5
 10
1947.936460177483
 20
90.86183489165614
 30
0.0
 11
1047.936460177483
 21
106.3618348916561
 31
0.0
 12
-924.4991700018363
 22
-3249.130092269716
 32
0.0
 70
   128
 13
147.9364601774832
 23
219.2764166263482
 33
0.0
 14
1947.936460177483
 24
219.2764166263482
 34
0.0
  0
LINE
  5
10FD2
  8
センター線
 10
-0.0000025670433388
 20
219.2764187292214
 30
0.0
 11
2164.749609171516
 21
219.2764187292214
 31
0.0
  0
DIMENSION
  5
10FD3
  8
0
 62
     3
  2
*D6
 10
47.93646017748324
 20
90.7136656364346
 30
0.0
 11
97.93646017748324
 21
106.2136656364346
 31
0.0
 12
-924.4991700018363
 22
-3249.130092269716
 32
0.0
 70
   128
 13
147.9364601774832
 23
219.2764166263482
 33
0.0
 14
47.93646017748324
 24
219.2764166263482
 34
0.0
  0
DIMENSION
  5
10FD4
  8
0
 62
     3
  2
*D7
 10
2047.936460177483
 20
91.00770814454336
 30
0.0
 11
1997.936460177483
 21
106.5077081445434
 31
0.0
 12
-924.4991700018363
 22
-3249.130092269716
 32
0.0
 70
   128
 13
1947.936460177483
 23
219.2764166263482
 33
0.0
 14
2047.936460177483
 24
219.2764166263482
 34
0.0
  0
DIMENSION
  5
10FD5
  8
0
 62
     3
  2
*D8
 10
2047.936460177483
 20
6.698727422333832
 30
0.0
 11
1047.936460177483
 21
22.19872742233383
 31
0.0
 12
-924.4991700018363
 22
-3249.130092269716
 32
0.0
 70
   128
 13
47.93646017748324
 23
219.2764166263482
 33
0.0
 14
2047.936460177483
 24
219.2764166263482
 34
0.0
  0
TEXT
  5
10FD6
  8
0
  6
CONTINUOUS
 62
     3
 10
821.4429774666759
 20
106.5721220485348
 30
0.0
 40
25.0
  1
4×450P＝
  0
ENDBLK
  8
0
  0
BLOCK
  8
0
  2
*D25
 70
     1
 10
0.0
 20
0.0
 30
0.0
  0
LINE
  5
1806F
  8
0
 62
     0
 10
11755.46669671869
 20
18564.65979764698
 30
0.0
 11
11755.46669671869
 21
18567.5259545455
 31
0.0
  0
LINE
  5
18070
  8
0
 62
     0
 10
11767.46669671869
 20
18564.65979764698
 30
0.0
 11
11767.46669671869
 21
18567.5259545455
 31
0.0
  0
LINE
  5
18071
  8
0
 62
     0
 10
11756.96669671869
 20
18566.5259545455
 30
0.0
 11
11765.96669671869
 21
18566.5259545455
 31
0.0
  0
INSERT
  5
18072
  8
0
 62
     0
  2
_OPEN30
 10
11755.46669671869
 20
18566.5259545455
 30
0.0
 41
1.5
 42
1.5
 43
1.5
 50
180.0
  0
INSERT
  5
18073
  8
0
 62
     0
  2
_OPEN30
 10
11767.46669671869
 20
18566.5259545455
 30
0.0
 41
1.5
 42
1.5
 43
1.5
  0
TEXT
  5
18074
  8
0
  6
CONTINUOUS
 62
     0
 10
11758.39526814726
 20
18569.5259545455
 30
0.0
 40
3.0
  1
12
  0
POINT
  5
18075
  8
DEFPOINTS
 62
     0
 10
11755.46669671869
 20
18562.65979764698
 30
0.0
  0
POINT
  5
18076
  8
DEFPOINTS
 62
     0
 10
11767.46669671869
 20
18562.65979764698
 30
0.0
  0
POINT
  5
18077
  8
DEFPOINTS
 62
     0
 10
11767.46669671869
 20
18566.5259545455
 30
0.0
  0
ENDBLK
  8
0
  0
BLOCK
  8
0
  2
*D26
 70
     1
 10
0.0
 20
0.0
 30
0.0
  0
LINE
  5
18078
  8
0
 62
     0
 10
11753.4671240624
 20
18562.65937030327
 30
0.0
 11
11748.23342261696
 21
18562.65937030327
 31
0.0
  0
LINE
  5
18079
  8
0
 62
     0
 10
11753.45215164374
 20
18541.66023106016
 30
0.0
 11
11748.23342261696
 21
18541.66023106016
 31
0.0
  0
LINE
  5
1807A
  8
0
 62
     0
 10
11749.23342261696
 20
18561.15937030327
 30
0.0
 11
11749.23342261696
 21
18543.16023106016
 31
0.0
  0
INSERT
  5
1807B
  8
0
 62
     0
  2
_OPEN30
 10
11749.23342261696
 20
18562.65937030327
 30
0.0
 41
1.5
 42
1.5
 43
1.5
 50
90.0
  0
INSERT
  5
1807C
  8
0
 62
     0
  2
_OPEN30
 10
11749.23342261696
 20
18541.66023106016
 30
0.0
 41
1.5
 42
1.5
 43
1.5
 50
270.0
  0
TEXT
  5
1807D
  8
0
  6
CONTINUOUS
 62
     0
 10
11746.23342261696
 20
18549.73122925314
 30
0.0
 40
3.0
  1
21
 50
90.0
  0
POINT
  5
1807E
  8
DEFPOINTS
 62
     0
 10
11755.4671240624
 20
18562.65937030327
 30
0.0
  0
POINT
  5
1807F
  8
DEFPOINTS
 62
     0
 10
11755.45215164374
 20
18541.66023106016
 30
0.0
  0
POINT
  5
18080
  8
DEFPOINTS
 62
     0
 10
11749.23342261696
 20
18541.66023106016
 30
0.0
  0
ENDBLK
  8
0
  0
BLOCK
  8
0
  2
*D27
 70
     1
 10
0.0
 20
0.0
 30
0.0
  0
LINE
  5
18081
  8
0
 62
     0
 10
11778.37796612893
 20
18560.04558408461
 30
0.0
 11
11783.81948549125
 21
18554.60406472231
 31
0.0
  0
LINE
  5
18082
  8
0
 62
     0
 10
11781.91350003486
 20
18563.58111799055
 30
0.0
 11
11787.35501939717
 21
18558.13959862825
 31
0.0
  0
LINE
  5
18083
  8
0
 62
     0
 10
11782.05171853828
 20
18554.25051133172
 30
0.0
 11
11780.9910583665
 21
18553.18985115994
 31
0.0
  0
LINE
  5
18084
  8
0
 62
     0
 10
11787.70857278776
 20
18559.90736558122
 30
0.0
 11
11788.76923295954
 21
18560.968025753
 31
0.0
  0
LINE
  5
18085
  8
0
 62
     0
 10
11784.88014566302
 20
18557.07893845647
 30
0.0
 11
11794.07253381845
 21
18552.12919098817
 31
0.0
  0
LINE
  5
18086
  8
0
 62
     0
 10
11794.07253381845
 20
18552.12919098817
 30
0.0
 11
11799.72938806794
 21
18557.78604523767
 31
0.0
  0
TEXT
  5
18087
  8
0
  6
CONTINUOUS
 62
     0
 10
11793.76948805508
 20
18556.06878591193
 30
0.0
 40
3.0
  1
5
 50
45.0000000000737
  0
LINE
  5
18088
  8
0
 62
     0
 10
11783.11237871006
 20
18555.3111715035
 30
0.0
 11
11786.64791261599
 21
18558.84670540944
 31
0.0
  0
LINE
  5
18089
  8
0
 62
     0
 10
11783.11237871006
 20
18555.3111715035
 30
0.0
 11
11786.64791261599
 21
18558.84670540944
 31
0.0
  0
INSERT
  5
1808A
  8
0
 62
     0
  2
_OPEN30
 10
11783.11237871006
 20
18555.3111715035
 30
0.0
 41
1.5
 42
1.5
 43
1.5
 50
45.0000000000737
  0
INSERT
  5
1808B
  8
0
 62
     0
  2
_OPEN30
 10
11786.64791261599
 20
18558.84670540944
 30
0.0
 41
1.5
 42
1.5
 43
1.5
 50
225.0000000000737
  0
POINT
  5
1808C
  8
DEFPOINTS
 62
     0
 10
11776.96375256656
 20
18561.45979764698
 30
0.0
  0
POINT
  5
1808D
  8
DEFPOINTS
 62
     0
 10
11780.49928647249
 20
18564.99533155292
 30
0.0
  0
POINT
  5
1808E
  8
DEFPOINTS
 62
     0
 10
11786.64791261599
 20
18558.84670540944
 30
0.0
  0
ENDBLK
  8
0
  0
BLOCK
  8
0
  2
*D36
 70
     1
 10
0.0
 20
0.0
 30
0.0
  0
LINE
  5
1808F
  8
0
 62
     0
 10
11781.06497189744
 20
18567.25807325272
 30
0.0
 11
11782.57841337062
 21
18568.77151472591
 31
0.0
  0
LINE
  5
18090
  8
0
 62
     0
 10
11781.91350003486
 20
18566.40954511529
 30
0.0
 11
11783.42694150805
 21
18567.92298658848
 31
0.0
  0
LINE
  5
18091
  8
0
 62
     0
 10
11780.81064641765
 20
18569.1250681165
 30
0.0
 11
11779.74998624587
 21
18570.18572828828
 31
0.0
  0
LINE
  5
18092
  8
0
 62
     0
 10
11783.78049489864
 20
18566.15521963552
 30
0.0
 11
11784.84115507042
 21
18565.09455946374
 31
0.0
  0
LINE
  5
18093
  8
0
 62
     0
 10
11782.29557065815
 20
18567.64014387601
 30
0.0
 11
11788.73024236694
 21
18571.10496710383
 31
0.0
  0
LINE
  5
18094
  8
0
 62
     0
 10
11788.73024236694
 20
18571.10496710383
 30
0.0
 11
11797.11450848673
 21
18562.72070098405
 31
0.0
  0
TEXT
  5
18095
  8
0
  6
CONTINUOUS
 62
     0
 10
11792.36679152733
 20
18571.71105863056
 30
0.0
 40
3.0
  1
1.2
 50
315.0000000000614
  0
LINE
  5
18096
  8
0
 62
     0
 10
11781.87130658943
 20
18568.06440794472
 30
0.0
 11
11782.71983472686
 21
18567.2158798073
 31
0.0
  0
LINE
  5
18097
  8
0
 62
     0
 10
11781.87130658943
 20
18568.06440794472
 30
0.0
 11
11782.71983472686
 21
18567.2158798073
 31
0.0
  0
INSERT
  5
18098
  8
0
 62
     0
  2
_OPEN30
 10
11781.87130658943
 20
18568.06440794472
 30
0.0
 41
1.5
 42
1.5
 43
1.5
 50
315.0000000000614
  0
INSERT
  5
18099
  8
0
 62
     0
  2
_OPEN30
 10
11782.71983472686
 20
18567.2158798073
 30
0.0
 41
1.5
 42
1.5
 43
1.5
 50
135.0000000000614
  0
POINT
  5
1809A
  8
DEFPOINTS
 62
     0
 10
11779.65075833506
 20
18565.84385969034
 30
0.0
  0
POINT
  5
1809B
  8
DEFPOINTS
 62
     0
 10
11780.49928647249
 20
18564.99533155292
 30
0.0
  0
POINT
  5
1809C
  8
DEFPOINTS
 62
     0
 10
11782.71983472686
 20
18567.2158798073
 30
0.0
  0
ENDBLK
  8
0
  0
BLOCK
  8
0
  2
*D37
 70
     1
 10
0.0
 20
0.0
 30
0.0
  0
LINE
  5
18018
  8
0
 62
     0
 10
11619.17791725935
 20
18555.75044382592
 30
0.0
 11
11619.17791725935
 21
18573.90901764166
 31
0.0
  0
LINE
  5
18019
  8
0
 62
     0
 10
11654.17791725935
 20
18555.75044382592
 30
0.0
 11
11654.17791725935
 21
18573.90901764166
 31
0.0
  0
LINE
  5
1801A
  8
0
 62
     0
 10
11620.67791725935
 20
18572.90901764166
 30
0.0
 11
11652.67791725935
 21
18572.90901764166
 31
0.0
  0
INSERT
  5
1801B
  8
0
 62
     0
  2
_OPEN30
 10
11619.17791725935
 20
18572.90901764166
 30
0.0
 41
1.5
 42
1.5
 43
1.5
 50
180.0
  0
INSERT
  5
1801C
  8
0
 62
     0
  2
_OPEN30
 10
11654.17791725935
 20
18572.90901764166
 30
0.0
 41
1.5
 42
1.5
 43
1.5
  0
TEXT
  5
1801D
  8
0
  6
CONTINUOUS
 62
     0
 10
11633.82077440221
 20
18575.90901764166
 30
0.0
 40
3.0
  1
35
  0
POINT
  5
1801E
  8
DEFPOINTS
 62
     0
 10
11619.17791725935
 20
18553.75044382592
 30
0.0
  0
POINT
  5
1801F
  8
DEFPOINTS
 62
     0
 10
11654.17791725935
 20
18553.75044382592
 30
0.0
  0
POINT
  5
18020
  8
DEFPOINTS
 62
     0
 10
11654.17791725935
 20
18572.90901764166
 30
0.0
  0
ENDBLK
  8
0
  0
BLOCK
  8
0
  2
*D38
 70
     1
 10
0.0
 20
0.0
 30
0.0
  0
LINE
  5
18021
  8
0
 62
     0
 10
11619.17791725935
 20
18555.75044382592
 30
0.0
 11
11619.17791725935
 21
18562.55210268589
 31
0.0
  0
LINE
  5
18022
  8
0
 62
     0
 10
11626.97791725935
 20
18555.75044382592
 30
0.0
 11
11626.97791725935
 21
18562.55210268589
 31
0.0
  0
LINE
  5
18023
  8
0
 62
     0
 10
11617.67791725935
 20
18561.55210268589
 30
0.0
 11
11616.17791725935
 21
18561.55210268589
 31
0.0
  0
LINE
  5
18024
  8
0
 62
     0
 10
11628.47791725935
 20
18561.55210268589
 30
0.0
 11
11629.97791725935
 21
18561.55210268589
 31
0.0
  0
TEXT
  5
18025
  8
0
  6
CONTINUOUS
 62
     0
 10
11619.50648868792
 20
18564.55210268589
 30
0.0
 40
3.0
  1
7.8
  0
LINE
  5
18026
  8
0
 62
     0
 10
11619.17791725935
 20
18561.55210268589
 30
0.0
 11
11626.97791725935
 21
18561.55210268589
 31
0.0
  0
INSERT
  5
18027
  8
0
 62
     0
  2
_OPEN30
 10
11619.17791725935
 20
18561.55210268589
 30
0.0
 41
1.5
 42
1.5
 43
1.5
  0
INSERT
  5
18028
  8
0
 62
     0
  2
_OPEN30
 10
11626.97791725935
 20
18561.55210268589
 30
0.0
 41
1.5
 42
1.5
 43
1.5
 50
180.0
  0
POINT
  5
18029
  8
DEFPOINTS
 62
     0
 10
11619.17791725935
 20
18553.75044382592
 30
0.0
  0
POINT
  5
1802A
  8
DEFPOINTS
 62
     0
 10
11626.97791725935
 20
18553.75044382592
 30
0.0
  0
POINT
  5
1802B
  8
DEFPOINTS
 62
     0
 10
11626.97791725935
 20
18561.55210268589
 30
0.0
  0
ENDBLK
  8
0
  0
BLOCK
  8
0
  2
*D39
 70
     1
 10
0.0
 20
0.0
 30
0.0
  0
LINE
  5
1802C
  8
0
 62
     0
 10
11650.34949013461
 20
18556.83429987783
 30
0.0
 11
11662.38119328877
 21
18556.83429987783
 31
0.0
  0
LINE
  5
1802D
  8
0
 62
     0
 10
11650.34949013461
 20
18559.83429987782
 30
0.0
 11
11662.38119328877
 21
18559.83429987782
 31
0.0
  0
LINE
  5
1802E
  8
0
 62
     0
 10
11661.38119328877
 20
18555.33429987783
 30
0.0
 11
11661.38119328877
 21
18553.83429987783
 31
0.0
  0
LINE
  5
1802F
  8
0
 62
     0
 10
11661.38119328877
 20
18561.33429987782
 30
0.0
 11
11661.38119328877
 21
18562.83429987782
 31
0.0
  0
TEXT
  5
18030
  8
0
  6
CONTINUOUS
 62
     0
 10
11658.49091016127
 20
18556.90572844925
 30
0.0
 40
3.0
  1
3
 50
90.0
  0
LINE
  5
18031
  8
0
 62
     0
 10
11661.38119328877
 20
18556.83429987783
 30
0.0
 11
11661.38119328877
 21
18559.83429987782
 31
0.0
  0
INSERT
  5
18032
  8
0
 62
     0
  2
_OPEN30
 10
11661.38119328877
 20
18556.83429987783
 30
0.0
 41
1.5
 42
1.5
 43
1.5
 50
90.0
  0
INSERT
  5
18033
  8
0
 62
     0
  2
_OPEN30
 10
11661.38119328877
 20
18559.83429987782
 30
0.0
 41
1.5
 42
1.5
 43
1.5
 50
270.0
  0
POINT
  5
18034
  8
DEFPOINTS
 62
     0
 10
11648.34949013461
 20
18556.83429987783
 30
0.0
  0
POINT
  5
18035
  8
DEFPOINTS
 62
     0
 10
11648.34949013461
 20
18559.83429987782
 30
0.0
  0
POINT
  5
18036
  8
DEFPOINTS
 62
     0
 10
11661.38119328877
 20
18559.83429987782
 30
0.0
  0
ENDBLK
  8
0
  0
BLOCK
  8
0
  2
*D40
 70
     1
 10
0.0
 20
0.0
 30
0.0
  0
LINE
  5
18037
  8
0
 62
     0
 10
11654.65125740485
 20
18556.4248309315
 30
0.0
 11
11662.38119328877
 21
18556.4248309315
 31
0.0
  0
LINE
  5
18038
  8
0
 62
     0
 10
11654.65125740485
 20
18550.4248309315
 30
0.0
 11
11662.38119328877
 21
18550.4248309315
 31
0.0
  0
LINE
  5
18039
  8
0
 62
     0
 10
11661.38119328877
 20
18557.9248309315
 30
0.0
 11
11661.38119328877
 21
18559.4248309315
 31
0.0
  0
LINE
  5
1803A
  8
0
 62
     0
 10
11661.38119328877
 20
18548.9248309315
 30
0.0
 11
11661.38119328877
 21
18547.4248309315
 31
0.0
  0
TEXT
  5
1803B
  8
0
  6
CONTINUOUS
 62
     0
 10
11658.38119328877
 20
18551.9248309315
 30
0.0
 40
3.0
  1
6
 50
90.0
  0
LINE
  5
1803C
  8
0
 62
     0
 10
11661.38119328877
 20
18556.4248309315
 30
0.0
 11
11661.38119328877
 21
18550.4248309315
 31
0.0
  0
INSERT
  5
1803D
  8
0
 62
     0
  2
_OPEN30
 10
11661.38119328877
 20
18556.4248309315
 30
0.0
 41
1.5
 42
1.5
 43
1.5
 50
270.0
  0
INSERT
  5
1803E
  8
0
 62
     0
  2
_OPEN30
 10
11661.38119328877
 20
18550.4248309315
 30
0.0
 41
1.5
 42
1.5
 43
1.5
 50
90.0
  0
POINT
  5
1803F
  8
DEFPOINTS
 62
     0
 10
11652.65125740485
 20
18556.4248309315
 30
0.0
  0
POINT
  5
18040
  8
DEFPOINTS
 62
     0
 10
11652.65125740485
 20
18550.4248309315
 30
0.0
  0
POINT
  5
18041
  8
DEFPOINTS
 62
     0
 10
11661.38119328877
 20
18550.4248309315
 30
0.0
  0
ENDBLK
  8
0
  0
BLOCK
  8
0
  2
*D41
 70
     1
 10
0.0
 20
0.0
 30
0.0
  0
LINE
  5
18042
  8
0
 62
     0
 10
11654.17791725935
 20
18559.83429987783
 30
0.0
 11
11679.19165057864
 21
18559.83429987783
 31
0.0
  0
LINE
  5
18043
  8
0
 62
     0
 10
11654.17791725935
 20
18550.83429987783
 30
0.0
 11
11679.19165057864
 21
18550.83429987783
 31
0.0
  0
LINE
  5
18044
  8
0
 62
     0
 10
11678.19165057864
 20
18561.33429987783
 30
0.0
 11
11678.19165057864
 21
18562.83429987783
 31
0.0
  0
LINE
  5
18045
  8
0
 62
     0
 10
11678.19165057864
 20
18549.33429987783
 30
0.0
 11
11678.19165057864
 21
18547.83429987783
 31
0.0
  0
LINE
  5
18046
  8
0
 62
     0
 10
11678.19165057864
 20
18559.83429987783
 30
0.0
 11
11678.19165057864
 21
18550.83429987783
 31
0.0
  0
INSERT
  5
18047
  8
0
 62
     0
  2
_OPEN30
 10
11678.19165057864
 20
18559.83429987783
 30
0.0
 41
1.5
 42
1.5
 43
1.5
 50
270.0
  0
INSERT
  5
18048
  8
0
 62
     0
  2
_OPEN30
 10
11678.19165057864
 20
18550.83429987783
 30
0.0
 41
1.5
 42
1.5
 43
1.5
 50
90.0
  0
TEXT
  5
18049
  8
0
  6
CONTINUOUS
 62
     0
 10
11675.19165057864
 20
18553.97715702069
 30
0.0
 40
3.0
  1
9
 50
90.0
  0
POINT
  5
1804A
  8
DEFPOINTS
 62
     0
 10
11652.17791725935
 20
18559.83429987783
 30
0.0
  0
POINT
  5
1804B
  8
DEFPOINTS
 62
     0
 10
11652.17791725935
 20
18550.83429987783
 30
0.0
  0
POINT
  5
1804C
  8
DEFPOINTS
 62
     0
 10
11678.19165057864
 20
18550.83429987783
 30
0.0
  0
ENDBLK
  8
0
  0
BLOCK
  8
0
  2
*D42
 70
     1
 10
0.0
 20
0.0
 30
0.0
  0
LINE
  5
1804D
  8
0
 62
     0
 10
11647.17791725935
 20
18548.83429987783
 30
0.0
 11
11647.17791725935
 21
18542.66247900182
 31
0.0
  0
LINE
  5
1804E
  8
0
 62
     0
 10
11654.17791725935
 20
18548.83429987783
 30
0.0
 11
11654.17791725935
 21
18542.66247900182
 31
0.0
  0
LINE
  5
1804F
  8
0
 62
     0
 10
11645.67791725935
 20
18543.66247900182
 30
0.0
 11
11644.17791725935
 21
18543.66247900182
 31
0.0
  0
LINE
  5
18050
  8
0
 62
     0
 10
11655.67791725935
 20
18543.66247900182
 30
0.0
 11
11657.17791725935
 21
18543.66247900182
 31
0.0
  0
TEXT
  5
18051
  8
0
  6
CONTINUOUS
 62
     0
 10
11649.24934583078
 20
18546.66247900182
 30
0.0
 40
3.0
  1
7
  0
LINE
  5
18052
  8
0
 62
     0
 10
11647.17791725935
 20
18543.66247900182
 30
0.0
 11
11654.17791725935
 21
18543.66247900182
 31
0.0
  0
INSERT
  5
18053
  8
0
 62
     0
  2
_OPEN30
 10
11647.17791725935
 20
18543.66247900182
 30
0.0
 41
1.5
 42
1.5
 43
1.5
  0
INSERT
  5
18054
  8
0
 62
     0
  2
_OPEN30
 10
11654.17791725935
 20
18543.66247900182
 30
0.0
 41
1.5
 42
1.5
 43
1.5
 50
180.0
  0
POINT
  5
18055
  8
DEFPOINTS
 62
     0
 10
11647.17791725935
 20
18550.83429987783
 30
0.0
  0
POINT
  5
18056
  8
DEFPOINTS
 62
     0
 10
11654.17791725935
 20
18550.83429987783
 30
0.0
  0
POINT
  5
18057
  8
DEFPOINTS
 62
     0
 10
11654.17791725935
 20
18543.66247900182
 30
0.0
  0
ENDBLK
  8
0
  0
BLOCK
  8
0
  2
*D43
 70
     1
 10
0.0
 20
0.0
 30
0.0
  0
LINE
  5
18058
  8
0
 62
     0
 10
11606.55282952587
 20
18519.94436109943
 30
0.0
 11
11621.18747289133
 21
18528.84414445513
 31
0.0
  0
TEXT
  5
18059
  8
0
  6
CONTINUOUS
 62
     0
 10
11607.06904669973
 20
18523.7694727335
 30
0.0
 40
3.0
  1
R2
 50
31.30508972816063
  0
LINE
  5
1805A
  8
0
 62
     0
 10
11624.17791725933
 20
18530.66272700258
 30
0.0
 11
11622.46909190619
 21
18529.62353697546
 31
0.0
  0
INSERT
  5
1805B
  8
0
 62
     0
  2
_OPEN30
 10
11622.46909190619
 20
18529.62353697546
 30
0.0
 41
1.5
 42
1.5
 43
1.5
 50
31.30508972816063
  0
POINT
  5
1805C
  8
DEFPOINTS
 62
     0
 10
11622.46909190619
 20
18529.62353697546
 30
0.0
  0
POINT
  5
1805D
  8
DEFPOINTS
 62
     0
 10
11624.17791725933
 20
18530.66272700258
 30
0.0
  0
ENDBLK
  8
0
  0
BLOCK
  8
0
  2
*D44
 70
     1
 10
0.0
 20
0.0
 30
0.0
  0
LINE
  5
1805E
  8
0
 62
     0
 10
11608.17346803467
 20
18574.62927244938
 30
0.0
 11
11620.50010951493
 21
18559.62882814945
 31
0.0
  0
TEXT
  5
1805F
  8
0
  6
CONTINUOUS
 62
     0
 10
11612.03315142976
 20
18574.65761452757
 30
0.0
 40
3.0
  1
R6
 50
309.4117156692408
  0
LINE
  5
18060
  8
0
 62
     0
 10
11625.26177331126
 20
18553.83429987782
 30
0.0
 11
11621.4524422742
 21
18558.46992249513
 31
0.0
  0
INSERT
  5
18061
  8
0
 62
     0
  2
_OPEN30
 10
11621.4524422742
 20
18558.46992249513
 30
0.0
 41
1.5
 42
1.5
 43
1.5
 50
309.4117156692408
  0
POINT
  5
18062
  8
DEFPOINTS
 62
     0
 10
11621.4524422742
 20
18558.46992249513
 30
0.0
  0
POINT
  5
18063
  8
DEFPOINTS
 62
     0
 10
11625.26177331126
 20
18553.83429987782
 30
0.0
  0
ENDBLK
  8
0
  0
BLOCK
  8
0
  2
*D45
 70
     1
 10
0.0
 20
0.0
 30
0.0
  0
LINE
  5
18064
  8
0
 62
     0
 10
11671.95811800106
 20
18577.60729045544
 30
0.0
 11
11654.65324209791
 21
18560.30872242532
 31
0.0
  0
TEXT
  5
18065
  8
0
  6
CONTINUOUS
 62
     0
 10
11663.87619804299
 20
18573.77018397818
 30
0.0
 40
3.0
  1
R2
 50
44.98955553384977
  0
LINE
  5
18066
  8
0
 62
     0
 10
11652.17791725934
 20
18557.83429987782
 30
0.0
 11
11653.59238859567
 21
18559.24825561926
 31
0.0
  0
INSERT
  5
18067
  8
0
 62
     0
  2
_OPEN30
 10
11653.59238859567
 20
18559.24825561926
 30
0.0
 41
1.5
 42
1.5
 43
1.5
 50
224.9895555338498
  0
POINT
  5
18068
  8
DEFPOINTS
 62
     0
 10
11653.59238859567
 20
18559.24825561926
 30
0.0
  0
POINT
  5
18069
  8
DEFPOINTS
 62
     0
 10
11652.17791725934
 20
18557.83429987782
 30
0.0
  0
ENDBLK
  8
0
  0
BLOCK
  8
0
  2
*D46
 70
     1
 10
0.0
 20
0.0
 30
0.0
  0
LINE
  5
1806A
  8
0
 62
     0
 10
11637.25232500482
 20
18530.09941671872
 30
0.0
 11
11627.19000609701
 21
18551.58151038487
 31
0.0
  0
TEXT
  5
1806B
  8
0
  6
CONTINUOUS
 62
     0
 10
11636.75743099221
 20
18538.22847635244
 30
0.0
 40
3.0
  1
R1
 50
295.0986240383425
  0
INSERT
  5
1806C
  8
0
 62
     0
  2
_OPEN30
 10
11626.55373958401
 20
18552.93987886375
 30
0.0
 41
1.5
 42
1.5
 43
1.5
 50
115.0986240383425
  0
POINT
  5
1806D
  8
DEFPOINTS
 62
     0
 10
11626.55373958401
 20
18552.93987886375
 30
0.0
  0
POINT
  5
1806E
  8
DEFPOINTS
 62
     0
 10
11626.97791725935
 20
18552.03429987782
 30
0.0
  0
ENDBLK
  8
0
  0
BLOCK
  8
0
  2
*D53
 70
     1
 10
0.0
 20
0.0
 30
0.0
  0
LINE
  5
17F1C
  8
0
 62
     0
 10
11862.97360699318
 20
18492.06871615977
 30
0.0
 11
11862.97360699318
 21
18502.43527329965
 31
0.0
  0
LINE
  5
17F1D
  8
0
 62
     0
 10
11882.47360699318
 20
18492.06871615977
 30
0.0
 11
11882.47360699318
 21
18502.43527329965
 31
0.0
  0
LINE
  5
17F1E
  8
0
 62
     0
 10
11864.47360699318
 20
18501.43527329965
 30
0.0
 11
11880.97360699318
 21
18501.43527329965
 31
0.0
  0
TEXT
  5
17F1F
  8
0
  6
CONTINUOUS
 62
     0
 10
11868.22360699318
 20
18504.43527329965
 30
0.0
 40
3.0
  1
195
  0
INSERT
  5
17F20
  8
0
 62
     0
  2
_OPEN30
 10
11862.97360699318
 20
18501.43527329965
 30
0.0
 41
1.5
 42
1.5
 43
1.5
 50
180.0
  0
INSERT
  5
17F21
  8
0
 62
     0
  2
_OPEN30
 10
11882.47360699318
 20
18501.43527329965
 30
0.0
 41
1.5
 42
1.5
 43
1.5
  0
POINT
  5
17F22
  8
DEFPOINTS
 62
     0
 10
11862.97360699318
 20
18490.06871615977
 30
0.0
  0
POINT
  5
17F23
  8
DEFPOINTS
 62
     0
 10
11882.47360699318
 20
18490.06871615977
 30
0.0
  0
POINT
  5
17F24
  8
DEFPOINTS
 62
     0
 10
11882.47360699318
 20
18501.43527329965
 30
0.0
  0
ENDBLK
  8
0
  0
BLOCK
  8
0
  2
*D54
 70
     1
 10
0.0
 20
0.0
 30
0.0
  0
LINE
  5
17EC2
  8
0
 62
     0
 10
11882.47360699318
 20
18493.11871615977
 30
0.0
 11
11882.47360699318
 21
18502.43527329965
 31
0.0
  0
LINE
  5
17EC3
  8
0
 62
     0
 10
11917.47360699318
 20
18493.11871615977
 30
0.0
 11
11917.47360699318
 21
18502.43527329965
 31
0.0
  0
LINE
  5
17EC4
  8
0
 62
     0
 10
11883.97360699318
 20
18501.43527329965
 30
0.0
 11
11915.97360699318
 21
18501.43527329965
 31
0.0
  0
INSERT
  5
17EC5
  8
0
 62
     0
  2
_OPEN30
 10
11882.47360699318
 20
18501.43527329965
 30
0.0
 41
1.5
 42
1.5
 43
1.5
 50
180.0
  0
INSERT
  5
17EC6
  8
0
 62
     0
  2
_OPEN30
 10
11917.47360699318
 20
18501.43527329965
 30
0.0
 41
1.5
 42
1.5
 43
1.5
  0
TEXT
  5
17EC7
  8
0
  6
CONTINUOUS
 62
     0
 10
11895.68789270746
 20
18504.43527329965
 30
0.0
 40
3.0
  1
350
  0
POINT
  5
17EC8
  8
DEFPOINTS
 62
     0
 10
11882.47360699318
 20
18491.11871615977
 30
0.0
  0
POINT
  5
17EC9
  8
DEFPOINTS
 62
     0
 10
11917.47360699318
 20
18491.11871615977
 30
0.0
  0
POINT
  5
17ECA
  8
DEFPOINTS
 62
     0
 10
11917.47360699318
 20
18501.43527329965
 30
0.0
  0
ENDBLK
  8
0
  0
BLOCK
  8
0
  2
*D55
 70
     1
 10
0.0
 20
0.0
 30
0.0
  0
LINE
  5
17F49
  8
0
 62
     0
 10
11917.47360699318
 20
18493.11871615977
 30
0.0
 11
11917.47360699318
 21
18502.43527329965
 31
0.0
  0
LINE
  5
17F4A
  8
0
 62
     0
 10
11952.47360699318
 20
18493.11871615977
 30
0.0
 11
11952.47360699318
 21
18502.43527329965
 31
0.0
  0
LINE
  5
17F4B
  8
0
 62
     0
 10
11918.97360699318
 20
18501.43527329965
 30
0.0
 11
11950.97360699318
 21
18501.43527329965
 31
0.0
  0
INSERT
  5
17F4C
  8
0
 62
     0
  2
_OPEN30
 10
11917.47360699318
 20
18501.43527329965
 30
0.0
 41
1.5
 42
1.5
 43
1.5
 50
180.0
  0
INSERT
  5
17F4D
  8
0
 62
     0
  2
_OPEN30
 10
11952.47360699318
 20
18501.43527329965
 30
0.0
 41
1.5
 42
1.5
 43
1.5
  0
TEXT
  5
17F4E
  8
0
  6
CONTINUOUS
 62
     0
 10
11930.68789270746
 20
18504.43527329965
 30
0.0
 40
3.0
  1
350
  0
POINT
  5
17F4F
  8
DEFPOINTS
 62
     0
 10
11917.47360699318
 20
18491.11871615977
 30
0.0
  0
POINT
  5
17F50
  8
DEFPOINTS
 62
     0
 10
11952.47360699318
 20
18491.11871615977
 30
0.0
  0
POINT
  5
17F51
  8
DEFPOINTS
 62
     0
 10
11952.47360699318
 20
18501.43527329965
 30
0.0
  0
ENDBLK
  8
0
  0
BLOCK
  8
0
  2
*D56
 70
     1
 10
0.0
 20
0.0
 30
0.0
  0
LINE
  5
17EB9
  8
0
 62
     0
 10
11862.97360699318
 20
18485.64471615977
 30
0.0
 11
11862.97360699318
 21
18513.53133910971
 31
0.0
  0
LINE
  5
17EBA
  8
0
 62
     0
 10
11961.97360699318
 20
18485.64471615977
 30
0.0
 11
11961.97360699318
 21
18513.53133910971
 31
0.0
  0
LINE
  5
17EBB
  8
0
 62
     0
 10
11864.47360699318
 20
18512.53133910971
 30
0.0
 11
11960.47360699318
 21
18512.53133910971
 31
0.0
  0
INSERT
  5
17EBC
  8
0
 62
     0
  2
_OPEN30
 10
11862.97360699318
 20
18512.53133910971
 30
0.0
 41
1.5
 42
1.5
 43
1.5
 50
180.0
  0
INSERT
  5
17EBD
  8
0
 62
     0
  2
_OPEN30
 10
11961.97360699318
 20
18512.53133910971
 30
0.0
 41
1.5
 42
1.5
 43
1.5
  0
TEXT
  5
17EBE
  8
0
  6
CONTINUOUS
 62
     0
 10
11908.18789270746
 20
18515.53133910971
 30
0.0
 40
3.0
  1
990
  0
POINT
  5
17EBF
  8
DEFPOINTS
 62
     0
 10
11862.97360699318
 20
18483.64471615977
 30
0.0
  0
POINT
  5
17EC0
  8
DEFPOINTS
 62
     0
 10
11961.97360699318
 20
18483.64471615977
 30
0.0
  0
POINT
  5
17EC1
  8
DEFPOINTS
 62
     0
 10
11961.97360699318
 20
18512.53133910971
 30
0.0
  0
ENDBLK
  8
0
  0
BLOCK
  8
0
  2
*D57
 70
     1
 10
0.0
 20
0.0
 30
0.0
  0
LINE
  5
14063
  8
0
 62
     0
 10
12183.33816015173
 20
18133.74719476947
 30
0.0
 11
12183.33816015173
 21
18185.89260895675
 31
0.0
  0
LINE
  5
14064
  8
0
 62
     0
 10
12378.33816015173
 20
18133.74719476948
 30
0.0
 11
12378.33816015173
 21
18185.89260895675
 31
0.0
  0
LINE
  5
14065
  8
0
 62
     0
 10
12184.83816015173
 20
18184.89260895675
 30
0.0
 11
12376.83816015173
 21
18184.89260895675
 31
0.0
  0
INSERT
  5
14066
  8
0
 62
     0
  2
_OPEN30
 10
12183.33816015173
 20
18184.89260895675
 30
0.0
 41
1.5
 42
1.5
 43
1.5
 50
180.0
  0
INSERT
  5
14067
  8
0
 62
     0
  2
_OPEN30
 10
12378.33816015173
 20
18184.89260895675
 30
0.0
 41
1.5
 42
1.5
 43
1.5
  0
TEXT
  5
14068
  8
0
  6
CONTINUOUS
 62
     0
 10
12273.33816015173
 20
18187.89260895675
 30
0.0
 40
5.0
  1
195
  0
POINT
  5
14069
  8
DEFPOINTS
 62
     0
 10
12183.33816015173
 20
18131.74719476947
 30
0.0
  0
POINT
  5
1406A
  8
DEFPOINTS
 62
     0
 10
12378.33816015173
 20
18131.74719476948
 30
0.0
  0
POINT
  5
1406B
  8
DEFPOINTS
 62
     0
 10
12378.33816015173
 20
18184.89260895675
 30
0.0
  0
ENDBLK
  8
0
  0
BLOCK
  8
0
  2
*D58
 70
     1
 10
0.0
 20
0.0
 30
0.0
  0
LINE
  5
1406C
  8
0
 62
     0
 10
12378.33816015173
 20
18144.2471947695
 30
0.0
 11
12378.33816015173
 21
18201.00471475641
 31
0.0
  0
LINE
  5
1406D
  8
0
 62
     0
 10
12728.33816015173
 20
18144.24719476949
 30
0.0
 11
12728.33816015173
 21
18201.00471475641
 31
0.0
  0
LINE
  5
1406E
  8
0
 62
     0
 10
12379.83816015173
 20
18200.00471475641
 30
0.0
 11
12726.83816015173
 21
18200.00471475641
 31
0.0
  0
INSERT
  5
1406F
  8
0
 62
     0
  2
_OPEN30
 10
12378.33816015173
 20
18200.00471475641
 30
0.0
 41
1.5
 42
1.5
 43
1.5
 50
180.0
  0
INSERT
  5
14070
  8
0
 62
     0
  2
_OPEN30
 10
12728.33816015173
 20
18200.00471475641
 30
0.0
 41
1.5
 42
1.5
 43
1.5
  0
TEXT
  5
14071
  8
0
  6
CONTINUOUS
 62
     0
 10
12546.19530300888
 20
18203.00471475641
 30
0.0
 40
5.0
  1
350
  0
POINT
  5
14072
  8
DEFPOINTS
 62
     0
 10
12378.33816015173
 20
18142.2471947695
 30
0.0
  0
POINT
  5
14073
  8
DEFPOINTS
 62
     0
 10
12728.33816015173
 20
18142.24719476949
 30
0.0
  0
POINT
  5
14074
  8
DEFPOINTS
 62
     0
 10
12728.33816015173
 20
18200.00471475641
 30
0.0
  0
ENDBLK
  8
0
  0
BLOCK
  8
0
  2
*D59
 70
     1
 10
0.0
 20
0.0
 30
0.0
  0
LINE
  5
14075
  8
0
 62
     0
 10
12728.33816015173
 20
18144.24719476951
 30
0.0
 11
12728.33816015173
 21
18188.78781731812
 31
0.0
  0
LINE
  5
14076
  8
0
 62
     0
 10
13078.33816015173
 20
18144.24719476949
 30
0.0
 11
13078.33816015173
 21
18188.78781731812
 31
0.0
  0
LINE
  5
14077
  8
0
 62
     0
 10
12729.83816015173
 20
18187.78781731812
 30
0.0
 11
13076.83816015173
 21
18187.78781731812
 31
0.0
  0
INSERT
  5
14078
  8
0
 62
     0
  2
_OPEN30
 10
12728.33816015173
 20
18187.78781731812
 30
0.0
 41
1.5
 42
1.5
 43
1.5
 50
180.0
  0
INSERT
  5
14079
  8
0
 62
     0
  2
_OPEN30
 10
13078.33816015173
 20
18187.78781731812
 30
0.0
 41
1.5
 42
1.5
 43
1.5
  0
TEXT
  5
1407A
  8
0
  6
CONTINUOUS
 62
     0
 10
12896.19530300888
 20
18190.78781731812
 30
0.0
 40
5.0
  1
350
  0
POINT
  5
1407B
  8
DEFPOINTS
 62
     0
 10
12728.33816015173
 20
18142.24719476951
 30
0.0
  0
POINT
  5
1407C
  8
DEFPOINTS
 62
     0
 10
13078.33816015173
 20
18142.24719476949
 30
0.0
  0
POINT
  5
1407D
  8
DEFPOINTS
 62
     0
 10
13078.33816015173
 20
18187.78781731812
 30
0.0
  0
ENDBLK
  8
0
  0
BLOCK
  8
0
  2
*D60
 70
     1
 10
0.0
 20
0.0
 30
0.0
  0
LINE
  5
1407E
  8
0
 62
     0
 10
12183.33816015174
 20
18069.50719476949
 30
0.0
 11
12183.33816015174
 21
18247.78169297897
 31
0.0
  0
LINE
  5
1407F
  8
0
 62
     0
 10
13173.33816015174
 20
18069.5071947695
 30
0.0
 11
13173.33816015174
 21
18247.78169297897
 31
0.0
  0
LINE
  5
14080
  8
0
 62
     0
 10
12184.83816015174
 20
18246.78169297897
 30
0.0
 11
13171.83816015174
 21
18246.78169297897
 31
0.0
  0
INSERT
  5
14081
  8
0
 62
     0
  2
_OPEN30
 10
12183.33816015174
 20
18246.78169297897
 30
0.0
 41
1.5
 42
1.5
 43
1.5
 50
180.0
  0
INSERT
  5
14082
  8
0
 62
     0
  2
_OPEN30
 10
13173.33816015174
 20
18246.78169297897
 30
0.0
 41
1.5
 42
1.5
 43
1.5
  0
TEXT
  5
14083
  8
0
  6
CONTINUOUS
 62
     0
 10
12671.19530300888
 20
18249.78169297897
 30
0.0
 40
5.0
  1
990
  0
POINT
  5
14084
  8
DEFPOINTS
 62
     0
 10
12183.33816015174
 20
18067.50719476949
 30
0.0
  0
POINT
  5
14085
  8
DEFPOINTS
 62
     0
 10
13173.33816015174
 20
18067.5071947695
 30
0.0
  0
POINT
  5
14086
  8
DEFPOINTS
 62
     0
 10
13173.33816015174
 20
18246.78169297897
 30
0.0
  0
ENDBLK
  8
0
  0
BLOCK
  8
0
  2
*D61
 70
     1
 10
0.0
 20
0.0
 30
0.0
  0
LINE
  5
14212
  8
0
 62
     0
 10
12193.26062010922
 20
17752.03598447795
 30
0.0
 11
12193.26062010922
 21
17831.64775039004
 31
0.0
  0
LINE
  5
14213
  8
0
 62
     0
 10
12288.26062010922
 20
17752.03598447796
 30
0.0
 11
12288.26062010922
 21
17831.64775039004
 31
0.0
  0
LINE
  5
14214
  8
0
 62
     0
 10
12194.76062010922
 20
17830.64775039004
 30
0.0
 11
12286.76062010922
 21
17830.64775039004
 31
0.0
  0
INSERT
  5
14215
  8
0
 62
     0
  2
_OPEN30
 10
12193.26062010922
 20
17830.64775039004
 30
0.0
 41
1.5
 42
1.5
 43
1.5
 50
180.0
  0
INSERT
  5
14216
  8
0
 62
     0
  2
_OPEN30
 10
12288.26062010922
 20
17830.64775039004
 30
0.0
 41
1.5
 42
1.5
 43
1.5
  0
TEXT
  5
14217
  8
0
  6
CONTINUOUS
 62
     0
 10
12235.99871534732
 20
17833.64775039004
 30
0.0
 40
5.0
  1
95
  0
POINT
  5
14218
  8
DEFPOINTS
 62
     0
 10
12193.26062010922
 20
17750.03598447795
 30
0.0
  0
POINT
  5
14219
  8
DEFPOINTS
 62
     0
 10
12288.26062010922
 20
17750.03598447796
 30
0.0
  0
POINT
  5
1421A
  8
DEFPOINTS
 62
     0
 10
12288.26062010922
 20
17830.64775039004
 30
0.0
  0
ENDBLK
  8
0
  0
BLOCK
  8
0
  2
*D62
 70
     1
 10
0.0
 20
0.0
 30
0.0
  0
LINE
  5
1422C
  8
0
 62
     0
 10
12288.26062010922
 20
17778.90598447795
 30
0.0
 11
12288.26062010922
 21
17831.64775039004
 31
0.0
  0
LINE
  5
1422D
  8
0
 62
     0
 10
12388.26062010922
 20
17778.90598447796
 30
0.0
 11
12388.26062010922
 21
17831.64775039004
 31
0.0
  0
LINE
  5
1422E
  8
0
 62
     0
 10
12289.76062010922
 20
17830.64775039004
 30
0.0
 11
12386.76062010922
 21
17830.64775039004
 31
0.0
  0
INSERT
  5
1422F
  8
0
 62
     0
  2
_OPEN30
 10
12288.26062010922
 20
17830.64775039004
 30
0.0
 41
1.5
 42
1.5
 43
1.5
 50
180.0
  0
INSERT
  5
14230
  8
0
 62
     0
  2
_OPEN30
 10
12388.26062010922
 20
17830.64775039004
 30
0.0
 41
1.5
 42
1.5
 43
1.5
  0
TEXT
  5
14231
  8
0
  6
CONTINUOUS
 62
     0
 10
12330.76062010922
 20
17833.64775039004
 30
0.0
 40
5.0
  1
100
  0
POINT
  5
14232
  8
DEFPOINTS
 62
     0
 10
12288.26062010922
 20
17776.90598447795
 30
0.0
  0
POINT
  5
14233
  8
DEFPOINTS
 62
     0
 10
12388.26062010922
 20
17776.90598447796
 30
0.0
  0
POINT
  5
14234
  8
DEFPOINTS
 62
     0
 10
12388.26062010922
 20
17830.64775039004
 30
0.0
  0
ENDBLK
  8
0
  0
BLOCK
  8
0
  2
*D63
 70
     1
 10
0.0
 20
0.0
 30
0.0
  0
LINE
  5
14239
  8
0
 62
     0
 10
12193.26062010922
 20
17805.77598447795
 30
0.0
 11
12193.26062010922
 21
17845.6144293338
 31
0.0
  0
LINE
  5
1423A
  8
0
 62
     0
 10
12388.26062010922
 20
17805.77598447795
 30
0.0
 11
12388.26062010922
 21
17845.6144293338
 31
0.0
  0
LINE
  5
1423B
  8
0
 62
     0
 10
12194.76062010922
 20
17844.6144293338
 30
0.0
 11
12386.76062010922
 21
17844.6144293338
 31
0.0
  0
INSERT
  5
1423C
  8
0
 62
     0
  2
_OPEN30
 10
12193.26062010922
 20
17844.6144293338
 30
0.0
 41
1.5
 42
1.5
 43
1.5
 50
180.0
  0
INSERT
  5
1423D
  8
0
 62
     0
  2
_OPEN30
 10
12388.26062010922
 20
17844.6144293338
 30
0.0
 41
1.5
 42
1.5
 43
1.5
  0
TEXT
  5
1423E
  8
0
  6
CONTINUOUS
 62
     0
 10
12283.26062010922
 20
17847.6144293338
 30
0.0
 40
5.0
  1
195
  0
POINT
  5
1423F
  8
DEFPOINTS
 62
     0
 10
12193.26062010922
 20
17803.77598447795
 30
0.0
  0
POINT
  5
14240
  8
DEFPOINTS
 62
     0
 10
12388.26062010922
 20
17803.77598447795
 30
0.0
  0
POINT
  5
14241
  8
DEFPOINTS
 62
     0
 10
12388.26062010922
 20
17844.6144293338
 30
0.0
  0
ENDBLK
  8
0
  0
BLOCK
  8
0
  2
*D64
 70
     1
 10
0.0
 20
0.0
 30
0.0
  0
LINE
  5
14246
  8
0
 62
     0
 10
12388.26062010922
 20
17816.27598447795
 30
0.0
 11
12388.26062010922
 21
17831.64775039004
 31
0.0
  0
LINE
  5
14247
  8
0
 62
     0
 10
12988.26062010922
 20
17816.27598447795
 30
0.0
 11
12988.26062010922
 21
17831.64775039004
 31
0.0
  0
LINE
  5
14248
  8
0
 62
     0
 10
12389.76062010922
 20
17830.64775039004
 30
0.0
 11
12986.76062010922
 21
17830.64775039004
 31
0.0
  0
INSERT
  5
14249
  8
0
 62
     0
  2
_OPEN30
 10
12388.26062010922
 20
17830.64775039004
 30
0.0
 41
1.5
 42
1.5
 43
1.5
 50
180.0
  0
INSERT
  5
1424A
  8
0
 62
     0
  2
_OPEN30
 10
12988.26062010922
 20
17830.64775039004
 30
0.0
 41
1.5
 42
1.5
 43
1.5
  0
TEXT
  5
1424B
  8
0
  6
CONTINUOUS
 62
     0
 10
12680.99871534731
 20
17833.64775039004
 30
0.0
 40
5.0
  1
600
  0
POINT
  5
1424C
  8
DEFPOINTS
 62
     0
 10
12388.26062010922
 20
17814.27598447795
 30
0.0
  0
POINT
  5
1424D
  8
DEFPOINTS
 62
     0
 10
12988.26062010922
 20
17814.27598447795
 30
0.0
  0
POINT
  5
1424E
  8
DEFPOINTS
 62
     0
 10
12988.26062010922
 20
17830.64775039004
 30
0.0
  0
ENDBLK
  8
0
  0
BLOCK
  8
0
  2
*D65
 70
     1
 10
0.0
 20
0.0
 30
0.0
  0
LINE
  5
14253
  8
0
 62
     0
 10
12988.26062010922
 20
17816.27598447797
 30
0.0
 11
12988.26062010922
 21
17831.64775039004
 31
0.0
  0
LINE
  5
14254
  8
0
 62
     0
 10
13588.26062010922
 20
17816.27598447795
 30
0.0
 11
13588.26062010922
 21
17831.64775039004
 31
0.0
  0
LINE
  5
14255
  8
0
 62
     0
 10
12989.76062010922
 20
17830.64775039004
 30
0.0
 11
13586.76062010922
 21
17830.64775039004
 31
0.0
  0
INSERT
  5
14256
  8
0
 62
     0
  2
_OPEN30
 10
12988.26062010922
 20
17830.64775039004
 30
0.0
 41
1.5
 42
1.5
 43
1.5
 50
180.0
  0
INSERT
  5
14257
  8
0
 62
     0
  2
_OPEN30
 10
13588.26062010922
 20
17830.64775039004
 30
0.0
 41
1.5
 42
1.5
 43
1.5
  0
TEXT
  5
14258
  8
0
  6
CONTINUOUS
 62
     0
 10
13280.99871534731
 20
17833.64775039004
 30
0.0
 40
5.0
  1
600
  0
POINT
  5
14259
  8
DEFPOINTS
 62
     0
 10
12988.26062010922
 20
17814.27598447797
 30
0.0
  0
POINT
  5
1425A
  8
DEFPOINTS
 62
     0
 10
13588.26062010922
 20
17814.27598447795
 30
0.0
  0
POINT
  5
1425B
  8
DEFPOINTS
 62
     0
 10
13588.26062010922
 20
17830.64775039004
 30
0.0
  0
ENDBLK
  8
0
  0
BLOCK
  8
0
  2
*D66
 70
     1
 10
0.0
 20
0.0
 30
0.0
  0
LINE
  5
14260
  8
0
 62
     0
 10
13588.26062010922
 20
17816.27598447795
 30
0.0
 11
13588.26062010922
 21
17831.64775039004
 31
0.0
  0
LINE
  5
14261
  8
0
 62
     0
 10
13683.26062010922
 20
17816.27598447799
 30
0.0
 11
13683.26062010922
 21
17831.64775039004
 31
0.0
  0
LINE
  5
14262
  8
0
 62
     0
 10
13589.76062010922
 20
17830.64775039004
 30
0.0
 11
13681.76062010922
 21
17830.64775039004
 31
0.0
  0
INSERT
  5
14263
  8
0
 62
     0
  2
_OPEN30
 10
13588.26062010922
 20
17830.64775039004
 30
0.0
 41
1.5
 42
1.5
 43
1.5
 50
180.0
  0
INSERT
  5
14264
  8
0
 62
     0
  2
_OPEN30
 10
13683.26062010922
 20
17830.64775039004
 30
0.0
 41
1.5
 42
1.5
 43
1.5
  0
TEXT
  5
14265
  8
0
  6
CONTINUOUS
 62
     0
 10
13630.99871534731
 20
17833.64775039004
 30
0.0
 40
5.0
  1
95
  0
POINT
  5
14266
  8
DEFPOINTS
 62
     0
 10
13588.26062010922
 20
17814.27598447795
 30
0.0
  0
POINT
  5
14267
  8
DEFPOINTS
 62
     0
 10
13683.26062010922
 20
17814.27598447799
 30
0.0
  0
POINT
  5
14268
  8
DEFPOINTS
 62
     0
 10
13683.26062010922
 20
17830.64775039004
 30
0.0
  0
ENDBLK
  8
0
  0
BLOCK
  8
0
  2
*D67
 70
     1
 10
0.0
 20
0.0
 30
0.0
  0
LINE
  5
17F13
  8
0
 62
     0
 10
11811.43844489212
 20
18441.7223557865
 30
0.0
 11
11811.43844489212
 21
18448.78353237771
 31
0.0
  0
LINE
  5
17F14
  8
0
 62
     0
 10
11820.93844489212
 20
18441.7223557865
 30
0.0
 11
11820.93844489212
 21
18448.78353237771
 31
0.0
  0
LINE
  5
17F15
  8
0
 62
     0
 10
11812.93844489212
 20
18447.78353237771
 30
0.0
 11
11819.43844489212
 21
18447.78353237771
 31
0.0
  0
TEXT
  5
17F16
  8
0
  6
CONTINUOUS
 62
     0
 10
11813.33130203497
 20
18449.1463557865
 30
0.0
 40
3.0
  1
95
  0
INSERT
  5
17F17
  8
0
 62
     0
  2
_OPEN30
 10
11811.43844489212
 20
18447.78353237771
 30
0.0
 41
1.5
 42
1.5
 43
1.5
 50
180.0
  0
INSERT
  5
17F18
  8
0
 62
     0
  2
_OPEN30
 10
11820.93844489212
 20
18447.78353237771
 30
0.0
 41
1.5
 42
1.5
 43
1.5
  0
POINT
  5
17F19
  8
DEFPOINTS
 62
     0
 10
11811.43844489212
 20
18439.7223557865
 30
0.0
  0
POINT
  5
17F1A
  8
DEFPOINTS
 62
     0
 10
11820.93844489212
 20
18439.7223557865
 30
0.0
  0
POINT
  5
17F1B
  8
DEFPOINTS
 62
     0
 10
11820.93844489212
 20
18447.78353237771
 30
0.0
  0
ENDBLK
  8
0
  0
BLOCK
  8
0
  2
*D68
 70
     1
 10
0.0
 20
0.0
 30
0.0
  0
LINE
  5
17F0A
  8
0
 62
     0
 10
11820.93844489212
 20
18444.4093557865
 30
0.0
 11
11820.93844489212
 21
18448.78353237771
 31
0.0
  0
LINE
  5
17F0B
  8
0
 62
     0
 10
11830.93844489212
 20
18444.4093557865
 30
0.0
 11
11830.93844489212
 21
18448.78353237771
 31
0.0
  0
LINE
  5
17F0C
  8
0
 62
     0
 10
11822.43844489212
 20
18447.78353237771
 30
0.0
 11
11829.43844489212
 21
18447.78353237771
 31
0.0
  0
TEXT
  5
17F0D
  8
0
  6
CONTINUOUS
 62
     0
 10
11821.43844489212
 20
18449.1463557865
 30
0.0
 40
3.0
  1
100
  0
INSERT
  5
17F0E
  8
0
 62
     0
  2
_OPEN30
 10
11820.93844489212
 20
18447.78353237771
 30
0.0
 41
1.5
 42
1.5
 43
1.5
 50
180.0
  0
INSERT
  5
17F0F
  8
0
 62
     0
  2
_OPEN30
 10
11830.93844489212
 20
18447.78353237771
 30
0.0
 41
1.5
 42
1.5
 43
1.5
  0
POINT
  5
17F10
  8
DEFPOINTS
 62
     0
 10
11820.93844489212
 20
18442.4093557865
 30
0.0
  0
POINT
  5
17F11
  8
DEFPOINTS
 62
     0
 10
11830.93844489212
 20
18442.4093557865
 30
0.0
  0
POINT
  5
17F12
  8
DEFPOINTS
 62
     0
 10
11830.93844489212
 20
18447.78353237771
 30
0.0
  0
ENDBLK
  8
0
  0
BLOCK
  8
0
  2
*D69
 70
     1
 10
0.0
 20
0.0
 30
0.0
  0
LINE
  5
17F01
  8
0
 62
     0
 10
11811.43844489212
 20
18447.0963557865
 30
0.0
 11
11811.43844489212
 21
18455.88924896131
 31
0.0
  0
LINE
  5
17F02
  8
0
 62
     0
 10
11830.93844489212
 20
18447.0963557865
 30
0.0
 11
11830.93844489212
 21
18455.88924896131
 31
0.0
  0
LINE
  5
17F03
  8
0
 62
     0
 10
11812.93844489212
 20
18454.88924896131
 30
0.0
 11
11829.43844489212
 21
18454.88924896131
 31
0.0
  0
TEXT
  5
17F04
  8
0
  6
CONTINUOUS
 62
     0
 10
11816.85872926471
 20
18455.93833212477
 30
0.0
 40
3.0
  1
195
  0
INSERT
  5
17F05
  8
0
 62
     0
  2
_OPEN30
 10
11811.43844489212
 20
18454.88924896131
 30
0.0
 41
1.5
 42
1.5
 43
1.5
 50
180.0
  0
INSERT
  5
17F06
  8
0
 62
     0
  2
_OPEN30
 10
11830.93844489212
 20
18454.88924896131
 30
0.0
 41
1.5
 42
1.5
 43
1.5
  0
POINT
  5
17F07
  8
DEFPOINTS
 62
     0
 10
11811.43844489212
 20
18445.0963557865
 30
0.0
  0
POINT
  5
17F08
  8
DEFPOINTS
 62
     0
 10
11830.93844489212
 20
18445.0963557865
 30
0.0
  0
POINT
  5
17F09
  8
DEFPOINTS
 62
     0
 10
11830.93844489212
 20
18454.88924896131
 30
0.0
  0
ENDBLK
  8
0
  0
BLOCK
  8
0
  2
*D70
 70
     1
 10
0.0
 20
0.0
 30
0.0
  0
LINE
  5
17EF8
  8
0
 62
     0
 10
11830.93844489212
 20
18448.1463557865
 30
0.0
 11
11830.93844489212
 21
18455.88924896131
 31
0.0
  0
LINE
  5
17EF9
  8
0
 62
     0
 10
11890.93844489212
 20
18448.1463557865
 30
0.0
 11
11890.93844489212
 21
18455.88924896131
 31
0.0
  0
LINE
  5
17EFA
  8
0
 62
     0
 10
11832.43844489212
 20
18454.88924896131
 30
0.0
 11
11889.43844489212
 21
18454.88924896131
 31
0.0
  0
TEXT
  5
17EFB
  8
0
  6
CONTINUOUS
 62
     0
 10
11856.58130203497
 20
18456.05764508772
 30
0.0
 40
3.0
  1
600
  0
INSERT
  5
17EFC
  8
0
 62
     0
  2
_OPEN30
 10
11830.93844489212
 20
18454.88924896131
 30
0.0
 41
1.5
 42
1.5
 43
1.5
 50
180.0
  0
INSERT
  5
17EFD
  8
0
 62
     0
  2
_OPEN30
 10
11890.93844489212
 20
18454.88924896131
 30
0.0
 41
1.5
 42
1.5
 43
1.5
  0
POINT
  5
17EFE
  8
DEFPOINTS
 62
     0
 10
11830.93844489212
 20
18446.1463557865
 30
0.0
  0
POINT
  5
17EFF
  8
DEFPOINTS
 62
     0
 10
11890.93844489212
 20
18446.1463557865
 30
0.0
  0
POINT
  5
17F00
  8
DEFPOINTS
 62
     0
 10
11890.93844489212
 20
18454.88924896131
 30
0.0
  0
ENDBLK
  8
0
  0
BLOCK
  8
0
  2
*D71
 70
     1
 10
0.0
 20
0.0
 30
0.0
  0
LINE
  5
17EB0
  8
0
 62
     0
 10
11890.93844489212
 20
18448.1463557865
 30
0.0
 11
11890.93844489212
 21
18455.88924896131
 31
0.0
  0
LINE
  5
17EB1
  8
0
 62
     0
 10
11950.93844489212
 20
18448.1463557865
 30
0.0
 11
11950.93844489212
 21
18455.88924896131
 31
0.0
  0
LINE
  5
17EB2
  8
0
 62
     0
 10
11892.43844489212
 20
18454.88924896131
 30
0.0
 11
11949.43844489212
 21
18454.88924896131
 31
0.0
  0
TEXT
  5
17EB3
  8
0
  6
CONTINUOUS
 62
     0
 10
11916.91885866721
 20
18455.93606808465
 30
0.0
 40
3.0
  1
600
  0
INSERT
  5
17EB4
  8
0
 62
     0
  2
_OPEN30
 10
11890.93844489212
 20
18454.88924896131
 30
0.0
 41
1.5
 42
1.5
 43
1.5
 50
180.0
  0
INSERT
  5
17EB5
  8
0
 62
     0
  2
_OPEN30
 10
11950.93844489212
 20
18454.88924896131
 30
0.0
 41
1.5
 42
1.5
 43
1.5
  0
POINT
  5
17EB6
  8
DEFPOINTS
 62
     0
 10
11890.93844489212
 20
18446.1463557865
 30
0.0
  0
POINT
  5
17EB7
  8
DEFPOINTS
 62
     0
 10
11950.93844489212
 20
18446.1463557865
 30
0.0
  0
POINT
  5
17EB8
  8
DEFPOINTS
 62
     0
 10
11950.93844489212
 20
18454.88924896131
 30
0.0
  0
ENDBLK
  8
0
  0
BLOCK
  8
0
  2
*D72
 70
     1
 10
0.0
 20
0.0
 30
0.0
  0
LINE
  5
17F40
  8
0
 62
     0
 10
11950.93844489212
 20
18448.1463557865
 30
0.0
 11
11950.93844489212
 21
18455.89159969636
 31
0.0
  0
LINE
  5
17F41
  8
0
 62
     0
 10
11960.43844489212
 20
18448.1463557865
 30
0.0
 11
11960.43844489212
 21
18455.89159969636
 31
0.0
  0
LINE
  5
17F42
  8
0
 62
     0
 10
11952.43844489212
 20
18454.89159969636
 30
0.0
 11
11958.93844489212
 21
18454.89159969636
 31
0.0
  0
TEXT
  5
17F43
  8
0
  6
CONTINUOUS
 62
     0
 10
11952.70528136366
 20
18455.70190401552
 30
0.0
 40
3.0
  1
95
  0
INSERT
  5
17F44
  8
0
 62
     0
  2
_OPEN30
 10
11950.93844489212
 20
18454.89159969636
 30
0.0
 41
1.5
 42
1.5
 43
1.5
 50
180.0
  0
INSERT
  5
17F45
  8
0
 62
     0
  2
_OPEN30
 10
11960.43844489212
 20
18454.89159969636
 30
0.0
 41
1.5
 42
1.5
 43
1.5
  0
POINT
  5
17F46
  8
DEFPOINTS
 62
     0
 10
11950.93844489212
 20
18446.1463557865
 30
0.0
  0
POINT
  5
17F47
  8
DEFPOINTS
 62
     0
 10
11960.43844489212
 20
18446.1463557865
 30
0.0
  0
POINT
  5
17F48
  8
DEFPOINTS
 62
     0
 10
11960.43844489212
 20
18454.89159969636
 30
0.0
  0
ENDBLK
  8
0
  0
BLOCK
  8
0
  2
*D73
 70
     1
 10
0.0
 20
0.0
 30
0.0
  0
LINE
  5
14660
  8
0
 62
     0
 10
12167.7768927025
 20
17342.45298753561
 30
0.0
 11
12167.7768927025
 21
17361.41183000722
 31
0.0
  0
LINE
  5
14661
  8
0
 62
     0
 10
12257.7768927025
 20
17342.45298753561
 30
0.0
 11
12257.7768927025
 21
17361.41183000722
 31
0.0
  0
LINE
  5
14662
  8
0
 62
     0
 10
12169.2768927025
 20
17360.41183000722
 30
0.0
 11
12256.2768927025
 21
17360.41183000722
 31
0.0
  0
INSERT
  5
14663
  8
0
 62
     0
  2
_OPEN30
 10
12167.7768927025
 20
17360.41183000722
 30
0.0
 41
1.5
 42
1.5
 43
1.5
 50
180.0
  0
INSERT
  5
14664
  8
0
 62
     0
  2
_OPEN30
 10
12257.7768927025
 20
17360.41183000722
 30
0.0
 41
1.5
 42
1.5
 43
1.5
  0
TEXT
  5
14665
  8
0
  6
CONTINUOUS
 62
     0
 10
12208.0149879406
 20
17363.41183000722
 30
0.0
 40
5.0
  1
90
  0
POINT
  5
14666
  8
DEFPOINTS
 62
     0
 10
12167.7768927025
 20
17340.45298753561
 30
0.0
  0
POINT
  5
14667
  8
DEFPOINTS
 62
     0
 10
12257.7768927025
 20
17340.45298753561
 30
0.0
  0
POINT
  5
14668
  8
DEFPOINTS
 62
     0
 10
12257.7768927025
 20
17360.41183000722
 30
0.0
  0
ENDBLK
  8
0
  0
BLOCK
  8
0
  2
*D74
 70
     1
 10
0.0
 20
0.0
 30
0.0
  0
LINE
  5
1467E
  8
0
 62
     0
 10
12257.7768927025
 20
17342.45298753561
 30
0.0
 11
12257.7768927025
 21
17361.41183000722
 31
0.0
  0
LINE
  5
1467F
  8
0
 62
     0
 10
12357.7768927025
 20
17342.45298753561
 30
0.0
 11
12357.7768927025
 21
17361.41183000722
 31
0.0
  0
LINE
  5
14680
  8
0
 62
     0
 10
12259.2768927025
 20
17360.41183000722
 30
0.0
 11
12356.2768927025
 21
17360.41183000722
 31
0.0
  0
INSERT
  5
14681
  8
0
 62
     0
  2
_OPEN30
 10
12257.7768927025
 20
17360.41183000722
 30
0.0
 41
1.5
 42
1.5
 43
1.5
 50
180.0
  0
INSERT
  5
14682
  8
0
 62
     0
  2
_OPEN30
 10
12357.7768927025
 20
17360.41183000722
 30
0.0
 41
1.5
 42
1.5
 43
1.5
  0
TEXT
  5
14683
  8
0
  6
CONTINUOUS
 62
     0
 10
12300.2768927025
 20
17363.41183000722
 30
0.0
 40
5.0
  1
100
  0
POINT
  5
14684
  8
DEFPOINTS
 62
     0
 10
12257.7768927025
 20
17340.45298753561
 30
0.0
  0
POINT
  5
14685
  8
DEFPOINTS
 62
     0
 10
12357.7768927025
 20
17340.45298753561
 30
0.0
  0
POINT
  5
14686
  8
DEFPOINTS
 62
     0
 10
12357.7768927025
 20
17360.41183000722
 30
0.0
  0
ENDBLK
  8
0
  0
BLOCK
  8
0
  2
*D75
 70
     1
 10
0.0
 20
0.0
 30
0.0
  0
LINE
  5
146C1
  8
0
 62
     0
 10
12357.7768927025
 20
17331.95298753561
 30
0.0
 11
12357.7768927025
 21
17361.41183000722
 31
0.0
  0
LINE
  5
146C2
  8
0
 62
     0
 10
12782.7768927025
 20
17331.95298753561
 30
0.0
 11
12782.7768927025
 21
17361.41183000722
 31
0.0
  0
LINE
  5
146C3
  8
0
 62
     0
 10
12359.2768927025
 20
17360.41183000722
 30
0.0
 11
12781.2768927025
 21
17360.41183000722
 31
0.0
  0
INSERT
  5
146C4
  8
0
 62
     0
  2
_OPEN30
 10
12357.7768927025
 20
17360.41183000722
 30
0.0
 41
1.5
 42
1.5
 43
1.5
 50
180.0
  0
INSERT
  5
146C5
  8
0
 62
     0
  2
_OPEN30
 10
12782.7768927025
 20
17360.41183000722
 30
0.0
 41
1.5
 42
1.5
 43
1.5
  0
TEXT
  5
146C6
  8
0
  6
CONTINUOUS
 62
     0
 10
12563.13403555965
 20
17363.41183000722
 30
0.0
 40
5.0
  1
425
  0
POINT
  5
146C7
  8
DEFPOINTS
 62
     0
 10
12357.7768927025
 20
17329.95298753561
 30
0.0
  0
POINT
  5
146C8
  8
DEFPOINTS
 62
     0
 10
12782.7768927025
 20
17329.95298753561
 30
0.0
  0
POINT
  5
146C9
  8
DEFPOINTS
 62
     0
 10
12782.7768927025
 20
17360.41183000722
 30
0.0
  0
ENDBLK
  8
0
  0
BLOCK
  8
0
  2
*D76
 70
     1
 10
0.0
 20
0.0
 30
0.0
  0
LINE
  5
146CE
  8
0
 62
     0
 10
12782.7768927025
 20
17342.45298753561
 30
0.0
 11
12782.7768927025
 21
17361.41183000722
 31
0.0
  0
LINE
  5
146CF
  8
0
 62
     0
 10
13207.7768927025
 20
17342.45298753561
 30
0.0
 11
13207.7768927025
 21
17361.41183000722
 31
0.0
  0
LINE
  5
146D0
  8
0
 62
     0
 10
12784.2768927025
 20
17360.41183000722
 30
0.0
 11
13206.2768927025
 21
17360.41183000722
 31
0.0
  0
INSERT
  5
146D1
  8
0
 62
     0
  2
_OPEN30
 10
12782.7768927025
 20
17360.41183000722
 30
0.0
 41
1.5
 42
1.5
 43
1.5
 50
180.0
  0
INSERT
  5
146D2
  8
0
 62
     0
  2
_OPEN30
 10
13207.7768927025
 20
17360.41183000722
 30
0.0
 41
1.5
 42
1.5
 43
1.5
  0
TEXT
  5
146D3
  8
0
  6
CONTINUOUS
 62
     0
 10
12988.13403555965
 20
17363.41183000722
 30
0.0
 40
5.0
  1
425
  0
POINT
  5
146D4
  8
DEFPOINTS
 62
     0
 10
12782.7768927025
 20
17340.45298753561
 30
0.0
  0
POINT
  5
146D5
  8
DEFPOINTS
 62
     0
 10
13207.7768927025
 20
17340.45298753561
 30
0.0
  0
POINT
  5
146D6
  8
DEFPOINTS
 62
     0
 10
13207.7768927025
 20
17360.41183000722
 30
0.0
  0
ENDBLK
  8
0
  0
BLOCK
  8
0
  2
*D77
 70
     1
 10
0.0
 20
0.0
 30
0.0
  0
LINE
  5
146DB
  8
0
 62
     0
 10
13207.7768927025
 20
17342.45298753561
 30
0.0
 11
13207.7768927025
 21
17361.41183000722
 31
0.0
  0
LINE
  5
146DC
  8
0
 62
     0
 10
13632.7768927025
 20
17342.45298753565
 30
0.0
 11
13632.7768927025
 21
17361.41183000722
 31
0.0
  0
LINE
  5
146DD
  8
0
 62
     0
 10
13209.2768927025
 20
17360.41183000722
 30
0.0
 11
13631.2768927025
 21
17360.41183000722
 31
0.0
  0
INSERT
  5
146DE
  8
0
 62
     0
  2
_OPEN30
 10
13207.7768927025
 20
17360.41183000722
 30
0.0
 41
1.5
 42
1.5
 43
1.5
 50
180.0
  0
INSERT
  5
146DF
  8
0
 62
     0
  2
_OPEN30
 10
13632.7768927025
 20
17360.41183000722
 30
0.0
 41
1.5
 42
1.5
 43
1.5
  0
TEXT
  5
146E0
  8
0
  6
CONTINUOUS
 62
     0
 10
13413.13403555965
 20
17363.41183000722
 30
0.0
 40
5.0
  1
425
  0
POINT
  5
146E1
  8
DEFPOINTS
 62
     0
 10
13207.7768927025
 20
17340.45298753561
 30
0.0
  0
POINT
  5
146E2
  8
DEFPOINTS
 62
     0
 10
13632.7768927025
 20
17340.45298753565
 30
0.0
  0
POINT
  5
146E3
  8
DEFPOINTS
 62
     0
 10
13632.7768927025
 20
17360.41183000722
 30
0.0
  0
ENDBLK
  8
0
  0
BLOCK
  8
0
  2
*D78
 70
     1
 10
0.0
 20
0.0
 30
0.0
  0
LINE
  5
146E8
  8
0
 62
     0
 10
13632.7768927025
 20
17342.45298753565
 30
0.0
 11
13632.7768927025
 21
17361.41183000722
 31
0.0
  0
LINE
  5
146E9
  8
0
 62
     0
 10
14057.7768927025
 20
17342.45298753561
 30
0.0
 11
14057.7768927025
 21
17361.41183000722
 31
0.0
  0
LINE
  5
146EA
  8
0
 62
     0
 10
13634.2768927025
 20
17360.41183000722
 30
0.0
 11
14056.2768927025
 21
17360.41183000722
 31
0.0
  0
INSERT
  5
146EB
  8
0
 62
     0
  2
_OPEN30
 10
13632.7768927025
 20
17360.41183000722
 30
0.0
 41
1.5
 42
1.5
 43
1.5
 50
180.0
  0
INSERT
  5
146EC
  8
0
 62
     0
  2
_OPEN30
 10
14057.7768927025
 20
17360.41183000722
 30
0.0
 41
1.5
 42
1.5
 43
1.5
  0
TEXT
  5
146ED
  8
0
  6
CONTINUOUS
 62
     0
 10
13838.13403555965
 20
17363.41183000722
 30
0.0
 40
5.0
  1
425
  0
POINT
  5
146EE
  8
DEFPOINTS
 62
     0
 10
13632.7768927025
 20
17340.45298753565
 30
0.0
  0
POINT
  5
146EF
  8
DEFPOINTS
 62
     0
 10
14057.7768927025
 20
17340.45298753561
 30
0.0
  0
POINT
  5
146F0
  8
DEFPOINTS
 62
     0
 10
14057.7768927025
 20
17360.41183000722
 30
0.0
  0
ENDBLK
  8
0
  0
BLOCK
  8
0
  2
*D79
 70
     1
 10
0.0
 20
0.0
 30
0.0
  0
LINE
  5
146F5
  8
0
 62
     0
 10
14057.7768927025
 20
17342.45298753561
 30
0.0
 11
14057.7768927025
 21
17361.41183000722
 31
0.0
  0
LINE
  5
146F6
  8
0
 62
     0
 10
14147.7768927025
 20
17342.45298753561
 30
0.0
 11
14147.7768927025
 21
17361.41183000722
 31
0.0
  0
LINE
  5
146F7
  8
0
 62
     0
 10
14059.2768927025
 20
17360.41183000722
 30
0.0
 11
14146.2768927025
 21
17360.41183000722
 31
0.0
  0
INSERT
  5
146F8
  8
0
 62
     0
  2
_OPEN30
 10
14057.7768927025
 20
17360.41183000722
 30
0.0
 41
1.5
 42
1.5
 43
1.5
 50
180.0
  0
INSERT
  5
146F9
  8
0
 62
     0
  2
_OPEN30
 10
14147.7768927025
 20
17360.41183000722
 30
0.0
 41
1.5
 42
1.5
 43
1.5
  0
TEXT
  5
146FA
  8
0
  6
CONTINUOUS
 62
     0
 10
14098.0149879406
 20
17363.41183000722
 30
0.0
 40
5.0
  1
90
  0
POINT
  5
146FB
  8
DEFPOINTS
 62
     0
 10
14057.7768927025
 20
17340.45298753561
 30
0.0
  0
POINT
  5
146FC
  8
DEFPOINTS
 62
     0
 10
14147.7768927025
 20
17340.45298753561
 30
0.0
  0
POINT
  5
146FD
  8
DEFPOINTS
 62
     0
 10
14147.7768927025
 20
17360.41183000722
 30
0.0
  0
ENDBLK
  8
0
  0
BLOCK
  8
0
  2
*D80
 70
     1
 10
0.0
 20
0.0
 30
0.0
  0
LINE
  5
17D30
  8
0
 62
     0
 10
11764.50970781585
 20
18389.4852825462
 30
0.0
 11
11764.50970781585
 21
18390.48116679336
 31
0.0
  0
LINE
  5
17D31
  8
0
 62
     0
 10
11773.50970781585
 20
18389.4852825462
 30
0.0
 11
11773.50970781585
 21
18390.48116679336
 31
0.0
  0
LINE
  5
17D32
  8
0
 62
     0
 10
11766.00970781585
 20
18389.48116679336
 30
0.0
 11
11772.00970781585
 21
18389.48116679336
 31
0.0
  0
TEXT
  5
17D33
  8
0
  6
CONTINUOUS
 62
     0
 10
11766.15256495871
 20
18390.4852825462
 30
0.0
 40
3.0
  1
90
  0
INSERT
  5
17D34
  8
0
 62
     0
  2
_OPEN30
 10
11764.50970781585
 20
18389.48116679336
 30
0.0
 41
1.5
 42
1.5
 43
1.5
 50
180.0
  0
INSERT
  5
17D35
  8
0
 62
     0
  2
_OPEN30
 10
11773.50970781585
 20
18389.48116679336
 30
0.0
 41
1.5
 42
1.5
 43
1.5
  0
POINT
  5
17D36
  8
DEFPOINTS
 62
     0
 10
11764.50970781585
 20
18387.4852825462
 30
0.0
  0
POINT
  5
17D37
  8
DEFPOINTS
 62
     0
 10
11773.50970781585
 20
18387.4852825462
 30
0.0
  0
POINT
  5
17D38
  8
DEFPOINTS
 62
     0
 10
11773.50970781585
 20
18389.48116679336
 30
0.0
  0
ENDBLK
  8
0
  0
BLOCK
  8
0
  2
*D81
 70
     1
 10
0.0
 20
0.0
 30
0.0
  0
LINE
  5
17EEF
  8
0
 62
     0
 10
11773.50970781585
 20
18389.4852825462
 30
0.0
 11
11773.50970781585
 21
18390.48116679336
 31
0.0
  0
LINE
  5
17EF0
  8
0
 62
     0
 10
11783.50970781585
 20
18389.4852825462
 30
0.0
 11
11783.50970781585
 21
18390.48116679336
 31
0.0
  0
LINE
  5
17EF1
  8
0
 62
     0
 10
11775.00970781585
 20
18389.48116679336
 30
0.0
 11
11782.00970781585
 21
18389.48116679336
 31
0.0
  0
TEXT
  5
17EF2
  8
0
  6
CONTINUOUS
 62
     0
 10
11774.00970781585
 20
18390.4852825462
 30
0.0
 40
3.0
  1
100
  0
INSERT
  5
17EF3
  8
0
 62
     0
  2
_OPEN30
 10
11773.50970781585
 20
18389.48116679336
 30
0.0
 41
1.5
 42
1.5
 43
1.5
 50
180.0
  0
INSERT
  5
17EF4
  8
0
 62
     0
  2
_OPEN30
 10
11783.50970781585
 20
18389.48116679336
 30
0.0
 41
1.5
 42
1.5
 43
1.5
  0
POINT
  5
17EF5
  8
DEFPOINTS
 62
     0
 10
11773.50970781585
 20
18387.4852825462
 30
0.0
  0
POINT
  5
17EF6
  8
DEFPOINTS
 62
     0
 10
11783.50970781585
 20
18387.4852825462
 30
0.0
  0
POINT
  5
17EF7
  8
DEFPOINTS
 62
     0
 10
11783.50970781585
 20
18389.48116679336
 30
0.0
  0
ENDBLK
  8
0
  0
BLOCK
  8
0
  2
*D82
 70
     1
 10
0.0
 20
0.0
 30
0.0
  0
LINE
  5
17EE6
  8
0
 62
     0
 10
11783.50970781585
 20
18388.4352825462
 30
0.0
 11
11783.50970781585
 21
18396.87064181611
 31
0.0
  0
LINE
  5
17EE7
  8
0
 62
     0
 10
11826.00970781585
 20
18388.4352825462
 30
0.0
 11
11826.00970781585
 21
18396.87064181611
 31
0.0
  0
LINE
  5
17EE8
  8
0
 62
     0
 10
11785.00970781585
 20
18395.87064181611
 30
0.0
 11
11824.50970781585
 21
18395.87064181611
 31
0.0
  0
INSERT
  5
17EE9
  8
0
 62
     0
  2
_OPEN30
 10
11783.50970781585
 20
18395.87064181611
 30
0.0
 41
1.5
 42
1.5
 43
1.5
 50
180.0
  0
INSERT
  5
17EEA
  8
0
 62
     0
  2
_OPEN30
 10
11826.00970781585
 20
18395.87064181611
 30
0.0
 41
1.5
 42
1.5
 43
1.5
  0
TEXT
  5
17EEB
  8
0
  6
CONTINUOUS
 62
     0
 10
11800.47399353014
 20
18398.87064181611
 30
0.0
 40
3.0
  1
425
  0
POINT
  5
17EEC
  8
DEFPOINTS
 62
     0
 10
11783.50970781585
 20
18386.4352825462
 30
0.0
  0
POINT
  5
17EED
  8
DEFPOINTS
 62
     0
 10
11826.00970781585
 20
18386.4352825462
 30
0.0
  0
POINT
  5
17EEE
  8
DEFPOINTS
 62
     0
 10
11826.00970781585
 20
18395.87064181611
 30
0.0
  0
ENDBLK
  8
0
  0
BLOCK
  8
0
  2
*D83
 70
     1
 10
0.0
 20
0.0
 30
0.0
  0
LINE
  5
17EDD
  8
0
 62
     0
 10
11826.00970781585
 20
18389.4852825462
 30
0.0
 11
11826.00970781585
 21
18396.87064181611
 31
0.0
  0
LINE
  5
17EDE
  8
0
 62
     0
 10
11868.50970781585
 20
18389.4852825462
 30
0.0
 11
11868.50970781585
 21
18396.87064181611
 31
0.0
  0
LINE
  5
17EDF
  8
0
 62
     0
 10
11827.50970781585
 20
18395.87064181611
 30
0.0
 11
11867.00970781585
 21
18395.87064181611
 31
0.0
  0
INSERT
  5
17EE0
  8
0
 62
     0
  2
_OPEN30
 10
11826.00970781585
 20
18395.87064181611
 30
0.0
 41
1.5
 42
1.5
 43
1.5
 50
180.0
  0
INSERT
  5
17EE1
  8
0
 62
     0
  2
_OPEN30
 10
11868.50970781585
 20
18395.87064181611
 30
0.0
 41
1.5
 42
1.5
 43
1.5
  0
TEXT
  5
17EE2
  8
0
  6
CONTINUOUS
 62
     0
 10
11842.97399353014
 20
18398.87064181611
 30
0.0
 40
3.0
  1
425
  0
POINT
  5
17EE3
  8
DEFPOINTS
 62
     0
 10
11826.00970781585
 20
18387.4852825462
 30
0.0
  0
POINT
  5
17EE4
  8
DEFPOINTS
 62
     0
 10
11868.50970781585
 20
18387.4852825462
 30
0.0
  0
POINT
  5
17EE5
  8
DEFPOINTS
 62
     0
 10
11868.50970781585
 20
18395.87064181611
 30
0.0
  0
ENDBLK
  8
0
  0
BLOCK
  8
0
  2
*D84
 70
     1
 10
0.0
 20
0.0
 30
0.0
  0
LINE
  5
17EA7
  8
0
 62
     0
 10
11868.50970781585
 20
18389.4852825462
 30
0.0
 11
11868.50970781585
 21
18396.87064181611
 31
0.0
  0
LINE
  5
17EA8
  8
0
 62
     0
 10
11911.00970781585
 20
18389.48528254621
 30
0.0
 11
11911.00970781585
 21
18396.87064181611
 31
0.0
  0
LINE
  5
17EA9
  8
0
 62
     0
 10
11870.00970781585
 20
18395.87064181611
 30
0.0
 11
11909.50970781585
 21
18395.87064181611
 31
0.0
  0
INSERT
  5
17EAA
  8
0
 62
     0
  2
_OPEN30
 10
11868.50970781585
 20
18395.87064181611
 30
0.0
 41
1.5
 42
1.5
 43
1.5
 50
180.0
  0
INSERT
  5
17EAB
  8
0
 62
     0
  2
_OPEN30
 10
11911.00970781585
 20
18395.87064181611
 30
0.0
 41
1.5
 42
1.5
 43
1.5
  0
TEXT
  5
17EAC
  8
0
  6
CONTINUOUS
 62
     0
 10
11885.47399353014
 20
18398.87064181611
 30
0.0
 40
3.0
  1
425
  0
POINT
  5
17EAD
  8
DEFPOINTS
 62
     0
 10
11868.50970781585
 20
18387.4852825462
 30
0.0
  0
POINT
  5
17EAE
  8
DEFPOINTS
 62
     0
 10
11911.00970781585
 20
18387.48528254621
 30
0.0
  0
POINT
  5
17EAF
  8
DEFPOINTS
 62
     0
 10
11911.00970781585
 20
18395.87064181611
 30
0.0
  0
ENDBLK
  8
0
  0
BLOCK
  8
0
  2
*D85
 70
     1
 10
0.0
 20
0.0
 30
0.0
  0
LINE
  5
17F37
  8
0
 62
     0
 10
11911.00970781585
 20
18389.48528254621
 30
0.0
 11
11911.00970781585
 21
18396.87064181611
 31
0.0
  0
LINE
  5
17F38
  8
0
 62
     0
 10
11953.50970781585
 20
18389.4852825462
 30
0.0
 11
11953.50970781585
 21
18396.87064181611
 31
0.0
  0
LINE
  5
17F39
  8
0
 62
     0
 10
11912.50970781585
 20
18395.87064181611
 30
0.0
 11
11952.00970781585
 21
18395.87064181611
 31
0.0
  0
INSERT
  5
17F3A
  8
0
 62
     0
  2
_OPEN30
 10
11911.00970781585
 20
18395.87064181611
 30
0.0
 41
1.5
 42
1.5
 43
1.5
 50
180.0
  0
INSERT
  5
17F3B
  8
0
 62
     0
  2
_OPEN30
 10
11953.50970781585
 20
18395.87064181611
 30
0.0
 41
1.5
 42
1.5
 43
1.5
  0
TEXT
  5
17F3C
  8
0
  6
CONTINUOUS
 62
     0
 10
11927.97399353014
 20
18398.87064181611
 30
0.0
 40
3.0
  1
425
  0
POINT
  5
17F3D
  8
DEFPOINTS
 62
     0
 10
11911.00970781585
 20
18387.48528254621
 30
0.0
  0
POINT
  5
17F3E
  8
DEFPOINTS
 62
     0
 10
11953.50970781585
 20
18387.4852825462
 30
0.0
  0
POINT
  5
17F3F
  8
DEFPOINTS
 62
     0
 10
11953.50970781585
 20
18395.87064181611
 30
0.0
  0
ENDBLK
  8
0
  0
BLOCK
  8
0
  2
*D86
 70
     1
 10
0.0
 20
0.0
 30
0.0
  0
LINE
  5
17F2E
  8
0
 62
     0
 10
11953.50970781585
 20
18389.4852825462
 30
0.0
 11
11953.50970781585
 21
18396.87064181611
 31
0.0
  0
LINE
  5
17F2F
  8
0
 62
     0
 10
11962.50970781585
 20
18389.4852825462
 30
0.0
 11
11962.50970781585
 21
18396.87064181611
 31
0.0
  0
LINE
  5
17F30
  8
0
 62
     0
 10
11955.00970781585
 20
18395.87064181611
 30
0.0
 11
11961.00970781585
 21
18395.87064181611
 31
0.0
  0
TEXT
  5
17F31
  8
0
  6
CONTINUOUS
 62
     0
 10
11955.15256495871
 20
18398.87064181611
 30
0.0
 40
3.0
  1
90
  0
INSERT
  5
17F32
  8
0
 62
     0
  2
_OPEN30
 10
11953.50970781585
 20
18395.87064181611
 30
0.0
 41
1.5
 42
1.5
 43
1.5
 50
180.0
  0
INSERT
  5
17F33
  8
0
 62
     0
  2
_OPEN30
 10
11962.50970781585
 20
18395.87064181611
 30
0.0
 41
1.5
 42
1.5
 43
1.5
  0
POINT
  5
17F34
  8
DEFPOINTS
 62
     0
 10
11953.50970781585
 20
18387.4852825462
 30
0.0
  0
POINT
  5
17F35
  8
DEFPOINTS
 62
     0
 10
11962.50970781585
 20
18387.4852825462
 30
0.0
  0
POINT
  5
17F36
  8
DEFPOINTS
 62
     0
 10
11962.50970781585
 20
18395.87064181611
 30
0.0
  0
ENDBLK
  8
0
  0
BLOCK
  8
0
  2
*D87
 70
     1
 10
0.0
 20
0.0
 30
0.0
  0
LINE
  5
17D27
  8
0
 62
     0
 10
11764.50970781585
 20
18388.4352825462
 30
0.0
 11
11764.50970781585
 21
18411.09140030912
 31
0.0
  0
LINE
  5
17D28
  8
0
 62
     0
 10
11962.50970781585
 20
18389.48528254621
 30
0.0
 11
11962.50970781585
 21
18411.09140030912
 31
0.0
  0
LINE
  5
17D29
  8
0
 62
     0
 10
11766.00970781585
 20
18410.09140030912
 30
0.0
 11
11961.00970781585
 21
18410.09140030912
 31
0.0
  0
INSERT
  5
17D2A
  8
0
 62
     0
  2
_OPEN30
 10
11764.50970781585
 20
18410.09140030912
 30
0.0
 41
1.5
 42
1.5
 43
1.5
 50
180.0
  0
INSERT
  5
17D2B
  8
0
 62
     0
  2
_OPEN30
 10
11962.50970781585
 20
18410.09140030912
 30
0.0
 41
1.5
 42
1.5
 43
1.5
  0
TEXT
  5
17D2C
  8
0
  6
CONTINUOUS
 62
     0
 10
11857.58113638728
 20
18413.09140030912
 30
0.0
 40
3.0
  1
1980
  0
POINT
  5
17D2D
  8
DEFPOINTS
 62
     0
 10
11764.50970781585
 20
18386.4352825462
 30
0.0
  0
POINT
  5
17D2E
  8
DEFPOINTS
 62
     0
 10
11962.50970781585
 20
18387.48528254621
 30
0.0
  0
POINT
  5
17D2F
  8
DEFPOINTS
 62
     0
 10
11962.50970781585
 20
18410.09140030912
 30
0.0
  0
ENDBLK
  8
0
  0
BLOCK
  8
0
  2
*D88
 70
     1
 10
0.0
 20
0.0
 30
0.0
  0
LINE
  5
17D1E
  8
0
 62
     0
 10
11764.50970781585
 20
18388.4352825462
 30
0.0
 11
11764.50970781585
 21
18396.87064181611
 31
0.0
  0
LINE
  5
17D1F
  8
0
 62
     0
 10
11783.50970781585
 20
18388.4352825462
 30
0.0
 11
11783.50970781585
 21
18396.87064181611
 31
0.0
  0
LINE
  5
17D20
  8
0
 62
     0
 10
11766.00970781585
 20
18395.87064181611
 30
0.0
 11
11782.00970781585
 21
18395.87064181611
 31
0.0
  0
INSERT
  5
17D21
  8
0
 62
     0
  2
_OPEN30
 10
11764.50970781585
 20
18395.87064181611
 30
0.0
 41
1.5
 42
1.5
 43
1.5
 50
180.0
  0
INSERT
  5
17D22
  8
0
 62
     0
  2
_OPEN30
 10
11783.50970781585
 20
18395.87064181611
 30
0.0
 41
1.5
 42
1.5
 43
1.5
  0
TEXT
  5
17D23
  8
0
  6
CONTINUOUS
 62
     0
 10
11769.50970781585
 20
18398.87064181611
 30
0.0
 40
3.0
  1
190
  0
POINT
  5
17D24
  8
DEFPOINTS
 62
     0
 10
11764.50970781585
 20
18386.4352825462
 30
0.0
  0
POINT
  5
17D25
  8
DEFPOINTS
 62
     0
 10
11783.50970781585
 20
18386.4352825462
 30
0.0
  0
POINT
  5
17D26
  8
DEFPOINTS
 62
     0
 10
11783.50970781585
 20
18395.87064181611
 30
0.0
  0
ENDBLK
  8
0
  0
BLOCK
  8
0
  2
*D89
 70
     1
 10
0.0
 20
0.0
 30
0.0
  0
LINE
  5
17E9E
  8
0
 62
     0
 10
11811.43844489212
 20
18448.1463557865
 30
0.0
 11
11811.43844489212
 21
18464.6946294028
 31
0.0
  0
LINE
  5
17E9F
  8
0
 62
     0
 10
11960.43844489212
 20
18448.1463557865
 30
0.0
 11
11960.43844489212
 21
18464.6946294028
 31
0.0
  0
LINE
  5
17EA0
  8
0
 62
     0
 10
11812.93844489212
 20
18463.6946294028
 30
0.0
 11
11958.93844489212
 21
18463.6946294028
 31
0.0
  0
INSERT
  5
17EA1
  8
0
 62
     0
  2
_OPEN30
 10
11811.43844489212
 20
18463.6946294028
 30
0.0
 41
1.5
 42
1.5
 43
1.5
 50
180.0
  0
INSERT
  5
17EA2
  8
0
 62
     0
  2
_OPEN30
 10
11960.43844489212
 20
18463.6946294028
 30
0.0
 41
1.5
 42
1.5
 43
1.5
  0
TEXT
  5
17EA3
  8
0
  6
CONTINUOUS
 62
     0
 10
11880.00987346354
 20
18466.6946294028
 30
0.0
 40
3.0
  1
1490
  0
POINT
  5
17EA4
  8
DEFPOINTS
 62
     0
 10
11811.43844489212
 20
18446.1463557865
 30
0.0
  0
POINT
  5
17EA5
  8
DEFPOINTS
 62
     0
 10
11960.43844489212
 20
18446.1463557865
 30
0.0
  0
POINT
  5
17EA6
  8
DEFPOINTS
 62
     0
 10
11960.43844489212
 20
18463.6946294028
 30
0.0
  0
ENDBLK
  8
0
  0
BLOCK
  8
0
  2
*D90
 70
     1
 10
0.0
 20
0.0
 30
0.0
  0
LINE
  5
17ED4
  8
0
 62
     0
 10
11862.97360699318
 20
18492.06871615977
 30
0.0
 11
11862.97360699318
 21
18493.71890034341
 31
0.0
  0
LINE
  5
17ED5
  8
0
 62
     0
 10
11872.47360699318
 20
18492.06871615977
 30
0.0
 11
11872.47360699318
 21
18493.71890034341
 31
0.0
  0
LINE
  5
17ED6
  8
0
 62
     0
 10
11864.47360699318
 20
18492.71890034341
 30
0.0
 11
11870.97360699318
 21
18492.71890034341
 31
0.0
  0
TEXT
  5
17ED7
  8
0
  6
CONTINUOUS
 62
     0
 10
11864.86646413603
 20
18494.11871615977
 30
0.0
 40
3.0
  1
95
  0
INSERT
  5
17ED8
  8
0
 62
     0
  2
_OPEN30
 10
11862.97360699318
 20
18492.71890034341
 30
0.0
 41
1.5
 42
1.5
 43
1.5
 50
180.0
  0
INSERT
  5
17ED9
  8
0
 62
     0
  2
_OPEN30
 10
11872.47360699318
 20
18492.71890034341
 30
0.0
 41
1.5
 42
1.5
 43
1.5
  0
POINT
  5
17EDA
  8
DEFPOINTS
 62
     0
 10
11862.97360699318
 20
18490.06871615977
 30
0.0
  0
POINT
  5
17EDB
  8
DEFPOINTS
 62
     0
 10
11872.47360699318
 20
18490.06871615977
 30
0.0
  0
POINT
  5
17EDC
  8
DEFPOINTS
 62
     0
 10
11872.47360699318
 20
18492.71890034341
 30
0.0
  0
ENDBLK
  8
0
  0
BLOCK
  8
0
  2
*D91
 70
     1
 10
0.0
 20
0.0
 30
0.0
  0
LINE
  5
17ECB
  8
0
 62
     0
 10
11872.47360699318
 20
18493.11871615977
 30
0.0
 11
11872.47360699318
 21
18493.71890034341
 31
0.0
  0
LINE
  5
17ECC
  8
0
 62
     0
 10
11882.47360699318
 20
18493.11871615977
 30
0.0
 11
11882.47360699318
 21
18493.71890034341
 31
0.0
  0
LINE
  5
17ECD
  8
0
 62
     0
 10
11873.97360699318
 20
18492.71890034341
 30
0.0
 11
11880.97360699318
 21
18492.71890034341
 31
0.0
  0
TEXT
  5
17ECE
  8
0
  6
CONTINUOUS
 62
     0
 10
11872.97360699318
 20
18494.11871615977
 30
0.0
 40
3.0
  1
100
  0
INSERT
  5
17ECF
  8
0
 62
     0
  2
_OPEN30
 10
11872.47360699318
 20
18492.71890034341
 30
0.0
 41
1.5
 42
1.5
 43
1.5
 50
180.0
  0
INSERT
  5
17ED0
  8
0
 62
     0
  2
_OPEN30
 10
11882.47360699318
 20
18492.71890034341
 30
0.0
 41
1.5
 42
1.5
 43
1.5
  0
POINT
  5
17ED1
  8
DEFPOINTS
 62
     0
 10
11872.47360699318
 20
18491.11871615977
 30
0.0
  0
POINT
  5
17ED2
  8
DEFPOINTS
 62
     0
 10
11882.47360699318
 20
18491.11871615977
 30
0.0
  0
POINT
  5
17ED3
  8
DEFPOINTS
 62
     0
 10
11882.47360699318
 20
18492.71890034341
 30
0.0
  0
ENDBLK
  8
0
  0
BLOCK
  8
0
  2
*D92
 70
     1
 10
0.0
 20
0.0
 30
0.0
  0
LINE
  5
17F25
  8
0
 62
     0
 10
11961.97360699318
 20
18489.38171615977
 30
0.0
 11
11961.97360699318
 21
18502.43527329965
 31
0.0
  0
LINE
  5
17F26
  8
0
 62
     0
 10
11952.47360699318
 20
18489.38171615977
 30
0.0
 11
11952.47360699318
 21
18502.43527329965
 31
0.0
  0
LINE
  5
17F27
  8
0
 62
     0
 10
11960.47360699318
 20
18501.43527329965
 30
0.0
 11
11953.97360699318
 21
18501.43527329965
 31
0.0
  0
TEXT
  5
17F28
  8
0
  6
CONTINUOUS
 62
     0
 10
11954.36646413603
 20
18504.43527329965
 30
0.0
 40
3.0
  1
95
  0
INSERT
  5
17F29
  8
0
 62
     0
  2
_OPEN30
 10
11961.97360699318
 20
18501.43527329965
 30
0.0
 41
1.5
 42
1.5
 43
1.5
  0
INSERT
  5
17F2A
  8
0
 62
     0
  2
_OPEN30
 10
11952.47360699318
 20
18501.43527329965
 30
0.0
 41
1.5
 42
1.5
 43
1.5
 50
180.0
  0
POINT
  5
17F2B
  8
DEFPOINTS
 62
     0
 10
11961.97360699318
 20
18487.38171615977
 30
0.0
  0
POINT
  5
17F2C
  8
DEFPOINTS
 62
     0
 10
11952.47360699318
 20
18487.38171615977
 30
0.0
  0
POINT
  5
17F2D
  8
DEFPOINTS
 62
     0
 10
11952.47360699318
 20
18501.43527329965
 30
0.0
  0
ENDBLK
  8
0
  0
BLOCK
  8
0
  2
*U93
 70
     1
 10
0.0
 20
0.0
 30
0.0
  0
SOLID
  5
1810D
  8
0
  6
CONTINUOUS
 62
     0
 10
11988.68382111241
 20
18730.29675544121
 30
0.0
 11
11988.64756911985
 21
18730.71062750149
 31
0.0
 12
11988.68382111241
 22
18731.12449956178
 32
0.0
 13
11988.68382111241
 23
18731.12449956178
 33
0.0
  0
SOLID
  5
1810E
  8
0
  6
CONTINUOUS
 62
     0
 10
11988.68382111241
 20
18730.29675544121
 30
0.0
 11
11988.68382111241
 21
18731.12449956178
 31
0.0
 12
11988.79147300117
 22
18729.89548824831
 32
0.0
 13
11988.79147300117
 23
18729.89548824831
 33
0.0
  0
SOLID
  5
1810F
  8
0
  6
CONTINUOUS
 62
     0
 10
11988.79147300117
 20
18729.89548824831
 30
0.0
 11
11988.68382111241
 21
18731.12449956178
 31
0.0
 12
11988.79147300117
 22
18731.52576675467
 32
0.0
 13
11988.79147300117
 23
18731.52576675467
 33
0.0
  0
SOLID
  5
18110
  8
0
  6
CONTINUOUS
 62
     0
 10
11988.79147300117
 20
18729.89548824831
 30
0.0
 11
11988.79147300117
 21
18731.52576675467
 31
0.0
 12
11988.96724614542
 22
18729.51904689696
 32
0.0
 13
11988.96724614542
 23
18729.51904689696
 33
0.0
  0
SOLID
  5
18111
  8
0
  6
CONTINUOUS
 62
     0
 10
11988.96724614542
 20
18729.51904689696
 30
0.0
 11
11988.79147300117
 21
18731.52576675467
 31
0.0
 12
11988.96724614542
 22
18731.90220810602
 32
0.0
 13
11988.96724614542
 23
18731.90220810602
 33
0.0
  0
SOLID
  5
18112
  8
0
  6
CONTINUOUS
 62
     0
 10
11988.96724614542
 20
18729.51904689696
 30
0.0
 11
11988.96724614542
 21
18731.90220810602
 31
0.0
 12
11989.25241296034
 22
18729.0977470405
 32
0.0
 13
11989.25241296034
 23
18729.0977470405
 33
0.0
  0
SOLID
  5
18113
  8
0
  6
CONTINUOUS
 62
     0
 10
11989.25241296034
 20
18729.0977470405
 30
0.0
 11
11988.96724614542
 21
18731.90220810602
 31
0.0
 12
11989.25241296034
 22
18732.32350796248
 32
0.0
 13
11989.25241296034
 23
18732.32350796248
 33
0.0
  0
SOLID
  5
18114
  8
0
  6
CONTINUOUS
 62
     0
 10
11989.25241296034
 20
18729.0977470405
 30
0.0
 11
11989.25241296034
 21
18732.32350796248
 31
0.0
 12
11989.5941977396
 22
18728.72092235175
 32
0.0
 13
11989.5941977396
 23
18728.72092235175
 33
0.0
  0
SOLID
  5
18115
  8
0
  6
CONTINUOUS
 62
     0
 10
11989.5941977396
 20
18728.72092235175
 30
0.0
 11
11989.25241296034
 21
18732.32350796248
 31
0.0
 12
11989.5941977396
 22
18732.70033265123
 32
0.0
 13
11989.5941977396
 23
18732.70033265123
 33
0.0
  0
SOLID
  5
18116
  8
0
  6
CONTINUOUS
 62
     0
 10
11989.5941977396
 20
18728.72092235175
 30
0.0
 11
11989.5941977396
 21
18732.70033265123
 31
0.0
 12
11989.98575506708
 22
18728.39612004159
 32
0.0
 13
11989.98575506708
 23
18728.39612004159
 33
0.0
  0
SOLID
  5
18117
  8
0
  6
CONTINUOUS
 62
     0
 10
11989.98575506708
 20
18728.39612004159
 30
0.0
 11
11989.5941977396
 21
18732.70033265123
 31
0.0
 12
11989.98575506708
 22
18733.02513496139
 32
0.0
 13
11989.98575506708
 23
18733.02513496139
 33
0.0
  0
SOLID
  5
18118
  8
0
  6
CONTINUOUS
 62
     0
 10
11989.98575506708
 20
18728.39612004159
 30
0.0
 11
11989.98575506708
 21
18733.02513496139
 31
0.0
 12
11990.21598120985
 22
18728.25862744854
 32
0.0
 13
11990.21598120985
 23
18728.25862744854
 33
0.0
  0
SOLID
  5
18119
  8
0
  6
CONTINUOUS
 62
     0
 10
11990.21598120985
 20
18728.25862744854
 30
0.0
 11
11989.98575506708
 21
18733.02513496139
 31
0.0
 12
11990.21598120985
 22
18733.16262755444
 32
0.0
 13
11990.21598120985
 23
18733.16262755444
 33
0.0
  0
SOLID
  5
1811A
  8
0
  6
CONTINUOUS
 62
     0
 10
11990.21598120985
 20
18728.25862744854
 30
0.0
 11
11990.21598120985
 21
18730.71062750149
 31
0.0
 12
11990.27363383311
 22
18728.22419691613
 32
0.0
 13
11990.27363383311
 23
18728.22419691613
 33
0.0
  0
SOLID
  5
1811B
  8
0
  6
CONTINUOUS
 62
     0
 10
11990.27363383311
 20
18728.22419691613
 30
0.0
 11
11990.21598120985
 21
18730.71062750149
 31
0.0
 12
11990.27363383311
 22
18730.12527059425
 32
0.0
 13
11990.27363383311
 23
18730.12527059425
 33
0.0
  0
SOLID
  5
1811C
  8
0
  6
CONTINUOUS
 62
     0
 10
11990.21598120985
 20
18730.71062750149
 30
0.0
 11
11990.21598120985
 21
18733.16262755444
 31
0.0
 12
11990.27363383311
 22
18731.29598440873
 32
0.0
 13
11990.27363383311
 23
18731.29598440873
 33
0.0
  0
SOLID
  5
1811D
  8
0
  6
CONTINUOUS
 62
     0
 10
11990.27363383311
 20
18731.29598440873
 30
0.0
 11
11990.21598120985
 21
18733.16262755444
 31
0.0
 12
11990.27363383311
 22
18733.19705808685
 32
0.0
 13
11990.27363383311
 23
18733.19705808685
 33
0.0
  0
SOLID
  5
1811E
  8
0
  6
CONTINUOUS
 62
     0
 10
11990.27363383311
 20
18728.22419691613
 30
0.0
 11
11990.27363383311
 21
18730.12527059425
 31
0.0
 12
11990.4443761449
 22
18728.12222846498
 32
0.0
 13
11990.4443761449
 23
18728.12222846498
 33
0.0
  0
SOLID
  5
1811F
  8
0
  6
CONTINUOUS
 62
     0
 10
11990.4443761449
 20
18728.12222846498
 30
0.0
 11
11990.27363383311
 21
18730.12527059425
 31
0.0
 12
11990.4443761449
 22
18729.56240862469
 32
0.0
 13
11990.4443761449
 23
18729.56240862469
 33
0.0
  0
SOLID
  5
18120
  8
0
  6
CONTINUOUS
 62
     0
 10
11990.27363383311
 20
18731.29598440873
 30
0.0
 11
11990.27363383311
 21
18733.19705808685
 31
0.0
 12
11990.4443761449
 22
18731.85884637829
 32
0.0
 13
11990.4443761449
 23
18731.85884637829
 33
0.0
  0
SOLID
  5
18121
  8
0
  6
CONTINUOUS
 62
     0
 10
11990.4443761449
 20
18731.85884637829
 30
0.0
 11
11990.27363383311
 21
18733.19705808685
 31
0.0
 12
11990.4443761449
 22
18733.299026538
 32
0.0
 13
11990.4443761449
 23
18733.299026538
 33
0.0
  0
SOLID
  5
18122
  8
0
  6
CONTINUOUS
 62
     0
 10
11990.4443761449
 20
18728.12222846498
 30
0.0
 11
11990.4443761449
 21
18729.56240862469
 31
0.0
 12
11990.66797247013
 22
18727.98869524332
 32
0.0
 13
11990.66797247013
 23
18727.98869524332
 33
0.0
  0
SOLID
  5
18123
  8
0
  6
CONTINUOUS
 62
     0
 10
11990.66797247013
 20
18727.98869524332
 30
0.0
 11
11990.4443761449
 21
18729.56240862469
 31
0.0
 12
11990.66797247013
 22
18729.14408932283
 32
0.0
 13
11990.66797247013
 23
18729.14408932283
 33
0.0
  0
SOLID
  5
18124
  8
0
  6
CONTINUOUS
 62
     0
 10
11990.4443761449
 20
18731.85884637829
 30
0.0
 11
11990.4443761449
 21
18733.299026538
 31
0.0
 12
11990.66797247013
 22
18732.27716568015
 32
0.0
 13
11990.66797247013
 23
18732.27716568015
 33
0.0
  0
SOLID
  5
18125
  8
0
  6
CONTINUOUS
 62
     0
 10
11990.66797247013
 20
18732.27716568015
 30
0.0
 11
11990.4443761449
 21
18733.299026538
 31
0.0
 12
11990.66797247013
 22
18733.43255975966
 32
0.0
 13
11990.66797247013
 23
18733.43255975966
 33
0.0
  0
SOLID
  5
18126
  8
0
  6
CONTINUOUS
 62
     0
 10
11990.66797247013
 20
18727.98869524332
 30
0.0
 11
11990.66797247013
 21
18729.14408932283
 31
0.0
 12
11990.72164661395
 22
18727.96776768972
 32
0.0
 13
11990.72164661395
 23
18727.96776768972
 33
0.0
  0
SOLID
  5
18127
  8
0
  6
CONTINUOUS
 62
     0
 10
11990.72164661395
 20
18727.96776768972
 30
0.0
 11
11990.66797247013
 21
18729.14408932283
 31
0.0
 12
11990.72164661395
 22
18729.04367206263
 32
0.0
 13
11990.72164661395
 23
18729.04367206263
 33
0.0
  0
SOLID
  5
18128
  8
0
  6
CONTINUOUS
 62
     0
 10
11990.66797247013
 20
18732.27716568015
 30
0.0
 11
11990.66797247013
 21
18733.43255975966
 31
0.0
 12
11990.72164661395
 22
18732.37758294035
 32
0.0
 13
11990.72164661395
 23
18732.37758294035
 33
0.0
  0
SOLID
  5
18129
  8
0
  6
CONTINUOUS
 62
     0
 10
11990.72164661395
 20
18732.37758294035
 30
0.0
 11
11990.66797247013
 21
18733.43255975966
 31
0.0
 12
11990.72164661395
 22
18733.45348731327
 32
0.0
 13
11990.72164661395
 23
18733.45348731327
 33
0.0
  0
SOLID
  5
1812A
  8
0
  6
CONTINUOUS
 62
     0
 10
11990.72164661395
 20
18727.96776768972
 30
0.0
 11
11990.72164661395
 21
18729.04367206263
 31
0.0
 12
11991.09478989161
 22
18727.82227909146
 32
0.0
 13
11991.09478989161
 23
18727.82227909146
 33
0.0
  0
SOLID
  5
1812B
  8
0
  6
CONTINUOUS
 62
     0
 10
11991.09478989161
 20
18727.82227909146
 30
0.0
 11
11990.72164661395
 21
18729.04367206263
 31
0.0
 12
11991.09478989161
 22
18728.58899566325
 32
0.0
 13
11991.09478989161
 23
18728.58899566325
 33
0.0
  0
SOLID
  5
1812C
  8
0
  6
CONTINUOUS
 62
     0
 10
11990.72164661395
 20
18732.37758294035
 30
0.0
 11
11990.72164661395
 21
18733.45348731327
 31
0.0
 12
11991.09478989161
 22
18732.83225933973
 32
0.0
 13
11991.09478989161
 23
18732.83225933973
 33
0.0
  0
SOLID
  5
1812D
  8
0
  6
CONTINUOUS
 62
     0
 10
11991.09478989161
 20
18732.83225933973
 30
0.0
 11
11990.72164661395
 21
18733.45348731327
 31
0.0
 12
11991.09478989161
 22
18733.59897591152
 32
0.0
 13
11991.09478989161
 23
18733.59897591152
 33
0.0
  0
SOLID
  5
1812E
  8
0
  6
CONTINUOUS
 62
     0
 10
11991.09478989161
 20
18727.82227909146
 30
0.0
 11
11991.09478989161
 21
18728.58899566325
 31
0.0
 12
11991.40830568648
 22
18727.70003925422
 32
0.0
 13
11991.40830568648
 23
18727.70003925422
 33
0.0
  0
SOLID
  5
1812F
  8
0
  6
CONTINUOUS
 62
     0
 10
11991.40830568648
 20
18727.70003925422
 30
0.0
 11
11991.09478989161
 21
18728.58899566325
 31
0.0
 12
11991.40830568648
 22
18728.33169989981
 32
0.0
 13
11991.40830568648
 23
18728.33169989981
 33
0.0
  0
SOLID
  5
18130
  8
0
  6
CONTINUOUS
 62
     0
 10
11991.09478989161
 20
18732.83225933973
 30
0.0
 11
11991.09478989161
 21
18733.59897591152
 31
0.0
 12
11991.40830568648
 22
18733.08955510317
 32
0.0
 13
11991.40830568648
 23
18733.08955510317
 33
0.0
  0
SOLID
  5
18131
  8
0
  6
CONTINUOUS
 62
     0
 10
11991.40830568648
 20
18733.08955510317
 30
0.0
 11
11991.09478989161
 21
18733.59897591152
 31
0.0
 12
11991.40830568648
 22
18733.72121574876
 32
0.0
 13
11991.40830568648
 23
18733.72121574876
 33
0.0
  0
SOLID
  5
18132
  8
0
  6
CONTINUOUS
 62
     0
 10
11991.40830568648
 20
18727.70003925422
 30
0.0
 11
11991.40830568648
 21
18728.33169989981
 31
0.0
 12
11991.54946629099
 22
18727.66901291663
 32
0.0
 13
11991.54946629099
 23
18727.66901291663
 33
0.0
  0
SOLID
  5
18133
  8
0
  6
CONTINUOUS
 62
     0
 10
11991.54946629099
 20
18727.66901291663
 30
0.0
 11
11991.40830568648
 21
18728.33169989981
 31
0.0
 12
11991.54946629099
 22
18728.21585238559
 32
0.0
 13
11991.54946629099
 23
18728.21585238559
 33
0.0
  0
SOLID
  5
18134
  8
0
  6
CONTINUOUS
 62
     0
 10
11991.40830568648
 20
18733.08955510317
 30
0.0
 11
11991.40830568648
 21
18733.72121574876
 31
0.0
 12
11991.54946629099
 22
18733.20540261739
 32
0.0
 13
11991.54946629099
 23
18733.20540261739
 33
0.0
  0
SOLID
  5
18135
  8
0
  6
CONTINUOUS
 62
     0
 10
11991.54946629099
 20
18733.20540261739
 30
0.0
 11
11991.40830568648
 21
18733.72121574876
 31
0.0
 12
11991.54946629099
 22
18733.75224208635
 32
0.0
 13
11991.54946629099
 23
18733.75224208635
 33
0.0
  0
SOLID
  5
18136
  8
0
  6
CONTINUOUS
 62
     0
 10
11991.54946629099
 20
18727.66901291663
 30
0.0
 11
11991.54946629099
 21
18728.21585238559
 31
0.0
 12
11992.06820285305
 22
18727.55499742519
 32
0.0
 13
11992.06820285305
 23
18727.55499742519
 33
0.0
  0
SOLID
  5
18137
  8
0
  6
CONTINUOUS
 62
     0
 10
11992.06820285305
 20
18727.55499742519
 30
0.0
 11
11991.54946629099
 21
18728.21585238559
 31
0.0
 12
11992.06820285305
 22
18727.93858191655
 32
0.0
 13
11992.06820285305
 23
18727.93858191655
 33
0.0
  0
SOLID
  5
18138
  8
0
  6
CONTINUOUS
 62
     0
 10
11991.54946629099
 20
18733.20540261739
 30
0.0
 11
11991.54946629099
 21
18733.75224208635
 31
0.0
 12
11992.06820285305
 22
18733.48267308644
 32
0.0
 13
11992.06820285305
 23
18733.48267308644
 33
0.0
  0
SOLID
  5
18139
  8
0
  6
CONTINUOUS
 62
     0
 10
11992.06820285305
 20
18733.48267308644
 30
0.0
 11
11991.54946629099
 21
18733.75224208635
 31
0.0
 12
11992.06820285305
 22
18733.86625757779
 32
0.0
 13
11992.06820285305
 23
18733.86625757779
 33
0.0
  0
SOLID
  5
1813A
  8
0
  6
CONTINUOUS
 62
     0
 10
11992.06820285305
 20
18727.55499742519
 30
0.0
 11
11992.06820285305
 21
18727.93858191655
 31
0.0
 12
11992.30287744018
 22
18727.50341721986
 32
0.0
 13
11992.30287744018
 23
18727.50341721986
 33
0.0
  0
SOLID
  5
1813B
  8
0
  6
CONTINUOUS
 62
     0
 10
11992.30287744018
 20
18727.50341721986
 30
0.0
 11
11992.06820285305
 21
18727.93858191655
 31
0.0
 12
11992.30287744018
 22
18727.86739415882
 32
0.0
 13
11992.30287744018
 23
18727.86739415882
 33
0.0
  0
SOLID
  5
1813C
  8
0
  6
CONTINUOUS
 62
     0
 10
11992.06820285305
 20
18733.48267308644
 30
0.0
 11
11992.06820285305
 21
18733.86625757779
 31
0.0
 12
11992.30287744018
 22
18733.55386084417
 32
0.0
 13
11992.30287744018
 23
18733.55386084417
 33
0.0
  0
SOLID
  5
1813D
  8
0
  6
CONTINUOUS
 62
     0
 10
11992.30287744018
 20
18733.55386084417
 30
0.0
 11
11992.06820285305
 21
18733.86625757779
 31
0.0
 12
11992.30287744018
 22
18733.91783778312
 32
0.0
 13
11992.30287744018
 23
18733.91783778312
 33
0.0
  0
SOLID
  5
1813E
  8
0
  6
CONTINUOUS
 62
     0
 10
11992.30287744018
 20
18727.50341721986
 30
0.0
 11
11992.30287744018
 21
18727.86739415882
 31
0.0
 12
11992.63106482261
 22
18727.47970784291
 32
0.0
 13
11992.63106482261
 23
18727.47970784291
 33
0.0
  0
SOLID
  5
1813F
  8
0
  6
CONTINUOUS
 62
     0
 10
11992.63106482261
 20
18727.47970784291
 30
0.0
 11
11992.30287744018
 21
18727.86739415882
 31
0.0
 12
11992.63106482261
 22
18727.76783960475
 32
0.0
 13
11992.63106482261
 23
18727.76783960475
 33
0.0
  0
SOLID
  5
18140
  8
0
  6
CONTINUOUS
 62
     0
 10
11992.30287744018
 20
18733.55386084417
 30
0.0
 11
11992.30287744018
 21
18733.91783778312
 31
0.0
 12
11992.63106482261
 22
18733.65341539823
 32
0.0
 13
11992.63106482261
 23
18733.65341539823
 33
0.0
  0
SOLID
  5
18141
  8
0
  6
CONTINUOUS
 62
     0
 10
11992.63106482261
 20
18733.65341539823
 30
0.0
 11
11992.30287744018
 21
18733.91783778312
 31
0.0
 12
11992.63106482261
 22
18733.94154716007
 32
0.0
 13
11992.63106482261
 23
18733.94154716007
 33
0.0
  0
SOLID
  5
18142
  8
0
  6
CONTINUOUS
 62
     0
 10
11992.63106482261
 20
18727.47970784291
 30
0.0
 11
11992.63106482261
 21
18727.76783960475
 31
0.0
 12
11993.21642172985
 22
18727.43741966149
 32
0.0
 13
11993.21642172985
 23
18727.43741966149
 33
0.0
  0
SOLID
  5
18143
  8
0
  6
CONTINUOUS
 62
     0
 10
11993.21642172985
 20
18727.43741966149
 30
0.0
 11
11992.63106482261
 21
18727.76783960475
 31
0.0
 12
11993.21642172985
 22
18727.71018698149
 32
0.0
 13
11993.21642172985
 23
18727.71018698149
 33
0.0
  0
SOLID
  5
18144
  8
0
  6
CONTINUOUS
 62
     0
 10
11992.63106482261
 20
18733.65341539823
 30
0.0
 11
11992.63106482261
 21
18733.94154716007
 31
0.0
 12
11993.21642172985
 22
18733.71106802149
 32
0.0
 13
11993.21642172985
 23
18733.71106802149
 33
0.0
  0
SOLID
  5
18145
  8
0
  6
CONTINUOUS
 62
     0
 10
11993.21642172985
 20
18733.71106802149
 30
0.0
 11
11992.63106482261
 21
18733.94154716007
 31
0.0
 12
11993.21642172985
 22
18733.98383534149
 32
0.0
 13
11993.21642172985
 23
18733.98383534149
 33
0.0
  0
SOLID
  5
18146
  8
0
  6
CONTINUOUS
 62
     0
 10
11993.21642172985
 20
18727.43741966149
 30
0.0
 11
11993.21642172985
 21
18727.71018698149
 31
0.0
 12
11993.80177863709
 22
18727.47970784291
 32
0.0
 13
11993.80177863709
 23
18727.47970784291
 33
0.0
  0
SOLID
  5
18147
  8
0
  6
CONTINUOUS
 62
     0
 10
11993.80177863709
 20
18727.47970784291
 30
0.0
 11
11993.21642172985
 21
18727.71018698149
 31
0.0
 12
11993.80177863709
 22
18727.76783960475
 32
0.0
 13
11993.80177863709
 23
18727.76783960475
 33
0.0
  0
SOLID
  5
18148
  8
0
  6
CONTINUOUS
 62
     0
 10
11993.21642172985
 20
18733.71106802149
 30
0.0
 11
11993.21642172985
 21
18733.98383534149
 31
0.0
 12
11993.80177863709
 22
18733.65341539823
 32
0.0
 13
11993.80177863709
 23
18733.65341539823
 33
0.0
  0
SOLID
  5
18149
  8
0
  6
CONTINUOUS
 62
     0
 10
11993.80177863709
 20
18733.65341539823
 30
0.0
 11
11993.21642172985
 21
18733.98383534149
 31
0.0
 12
11993.80177863709
 22
18733.94154716007
 32
0.0
 13
11993.80177863709
 23
18733.94154716007
 33
0.0
  0
SOLID
  5
1814A
  8
0
  6
CONTINUOUS
 62
     0
 10
11993.80177863709
 20
18727.47970784291
 30
0.0
 11
11993.80177863709
 21
18727.76783960475
 31
0.0
 12
11994.12996601952
 22
18727.50341721987
 32
0.0
 13
11994.12996601952
 23
18727.50341721987
 33
0.0
  0
SOLID
  5
1814B
  8
0
  6
CONTINUOUS
 62
     0
 10
11994.12996601952
 20
18727.50341721987
 30
0.0
 11
11993.80177863709
 21
18727.76783960475
 31
0.0
 12
11994.12996601952
 22
18727.86739415882
 32
0.0
 13
11994.12996601952
 23
18727.86739415882
 33
0.0
  0
SOLID
  5
1814C
  8
0
  6
CONTINUOUS
 62
     0
 10
11993.80177863709
 20
18733.65341539823
 30
0.0
 11
11993.80177863709
 21
18733.94154716007
 31
0.0
 12
11994.12996601952
 22
18733.55386084417
 32
0.0
 13
11994.12996601952
 23
18733.55386084417
 33
0.0
  0
SOLID
  5
1814D
  8
0
  6
CONTINUOUS
 62
     0
 10
11994.12996601952
 20
18733.55386084417
 30
0.0
 11
11993.80177863709
 21
18733.94154716007
 31
0.0
 12
11994.12996601952
 22
18733.91783778312
 32
0.0
 13
11994.12996601952
 23
18733.91783778312
 33
0.0
  0
SOLID
  5
1814E
  8
0
  6
CONTINUOUS
 62
     0
 10
11994.12996601952
 20
18727.50341721987
 30
0.0
 11
11994.12996601952
 21
18727.86739415882
 31
0.0
 12
11994.36464060665
 22
18727.55499742519
 32
0.0
 13
11994.36464060665
 23
18727.55499742519
 33
0.0
  0
SOLID
  5
1814F
  8
0
  6
CONTINUOUS
 62
     0
 10
11994.36464060665
 20
18727.55499742519
 30
0.0
 11
11994.12996601952
 21
18727.86739415882
 31
0.0
 12
11994.36464060665
 22
18727.93858191655
 32
0.0
 13
11994.36464060665
 23
18727.93858191655
 33
0.0
  0
SOLID
  5
18150
  8
0
  6
CONTINUOUS
 62
     0
 10
11994.12996601952
 20
18733.55386084417
 30
0.0
 11
11994.12996601952
 21
18733.91783778312
 31
0.0
 12
11994.36464060665
 22
18733.48267308644
 32
0.0
 13
11994.36464060665
 23
18733.48267308644
 33
0.0
  0
SOLID
  5
18151
  8
0
  6
CONTINUOUS
 62
     0
 10
11994.36464060665
 20
18733.48267308644
 30
0.0
 11
11994.12996601952
 21
18733.91783778312
 31
0.0
 12
11994.36464060665
 22
18733.86625757779
 32
0.0
 13
11994.36464060665
 23
18733.86625757779
 33
0.0
  0
SOLID
  5
18152
  8
0
  6
CONTINUOUS
 62
     0
 10
11994.36464060665
 20
18727.55499742519
 30
0.0
 11
11994.36464060665
 21
18727.93858191655
 31
0.0
 12
11994.88337716871
 22
18727.66901291663
 32
0.0
 13
11994.88337716871
 23
18727.66901291663
 33
0.0
  0
SOLID
  5
18153
  8
0
  6
CONTINUOUS
 62
     0
 10
11994.88337716871
 20
18727.66901291663
 30
0.0
 11
11994.36464060665
 21
18727.93858191655
 31
0.0
 12
11994.88337716871
 22
18728.21585238559
 32
0.0
 13
11994.88337716871
 23
18728.21585238559
 33
0.0
  0
SOLID
  5
18154
  8
0
  6
CONTINUOUS
 62
     0
 10
11994.36464060665
 20
18733.48267308644
 30
0.0
 11
11994.36464060665
 21
18733.86625757779
 31
0.0
 12
11994.88337716871
 22
18733.20540261739
 32
0.0
 13
11994.88337716871
 23
18733.20540261739
 33
0.0
  0
SOLID
  5
18155
  8
0
  6
CONTINUOUS
 62
     0
 10
11994.88337716871
 20
18733.20540261739
 30
0.0
 11
11994.36464060665
 21
18733.86625757779
 31
0.0
 12
11994.88337716871
 22
18733.75224208635
 32
0.0
 13
11994.88337716871
 23
18733.75224208635
 33
0.0
  0
SOLID
  5
18156
  8
0
  6
CONTINUOUS
 62
     0
 10
11994.88337716871
 20
18727.66901291663
 30
0.0
 11
11994.88337716871
 21
18728.21585238559
 31
0.0
 12
11995.02453777322
 22
18727.70003925422
 32
0.0
 13
11995.02453777322
 23
18727.70003925422
 33
0.0
  0
SOLID
  5
18157
  8
0
  6
CONTINUOUS
 62
     0
 10
11995.02453777322
 20
18727.70003925422
 30
0.0
 11
11994.88337716871
 21
18728.21585238559
 31
0.0
 12
11995.02453777322
 22
18728.33169989982
 32
0.0
 13
11995.02453777322
 23
18728.33169989982
 33
0.0
  0
SOLID
  5
18158
  8
0
  6
CONTINUOUS
 62
     0
 10
11994.88337716871
 20
18733.20540261739
 30
0.0
 11
11994.88337716871
 21
18733.75224208635
 31
0.0
 12
11995.02453777322
 22
18733.08955510317
 32
0.0
 13
11995.02453777322
 23
18733.08955510317
 33
0.0
  0
SOLID
  5
18159
  8
0
  6
CONTINUOUS
 62
     0
 10
11995.02453777322
 20
18733.08955510317
 30
0.0
 11
11994.88337716871
 21
18733.75224208635
 31
0.0
 12
11995.02453777322
 22
18733.72121574876
 32
0.0
 13
11995.02453777322
 23
18733.72121574876
 33
0.0
  0
SOLID
  5
1815A
  8
0
  6
CONTINUOUS
 62
     0
 10
11995.02453777322
 20
18727.70003925422
 30
0.0
 11
11995.02453777322
 21
18728.33169989982
 31
0.0
 12
11995.33805356809
 22
18727.82227909146
 32
0.0
 13
11995.33805356809
 23
18727.82227909146
 33
0.0
  0
SOLID
  5
1815B
  8
0
  6
CONTINUOUS
 62
     0
 10
11995.33805356809
 20
18727.82227909146
 30
0.0
 11
11995.02453777322
 21
18728.33169989982
 31
0.0
 12
11995.33805356809
 22
18728.58899566325
 32
0.0
 13
11995.33805356809
 23
18728.58899566325
 33
0.0
  0
SOLID
  5
1815C
  8
0
  6
CONTINUOUS
 62
     0
 10
11995.02453777322
 20
18733.08955510317
 30
0.0
 11
11995.02453777322
 21
18733.72121574876
 31
0.0
 12
11995.33805356809
 22
18732.83225933973
 32
0.0
 13
11995.33805356809
 23
18732.83225933973
 33
0.0
  0
SOLID
  5
1815D
  8
0
  6
CONTINUOUS
 62
     0
 10
11995.33805356809
 20
18732.83225933973
 30
0.0
 11
11995.02453777322
 21
18733.72121574876
 31
0.0
 12
11995.33805356809
 22
18733.59897591153
 32
0.0
 13
11995.33805356809
 23
18733.59897591153
 33
0.0
  0
SOLID
  5
1815E
  8
0
  6
CONTINUOUS
 62
     0
 10
11995.33805356809
 20
18727.82227909146
 30
0.0
 11
11995.33805356809
 21
18728.58899566325
 31
0.0
 12
11995.71119684575
 22
18727.96776768972
 32
0.0
 13
11995.71119684575
 23
18727.96776768972
 33
0.0
  0
SOLID
  5
1815F
  8
0
  6
CONTINUOUS
 62
     0
 10
11995.71119684575
 20
18727.96776768972
 30
0.0
 11
11995.33805356809
 21
18728.58899566325
 31
0.0
 12
11995.71119684575
 22
18729.04367206263
 32
0.0
 13
11995.71119684575
 23
18729.04367206263
 33
0.0
  0
SOLID
  5
18160
  8
0
  6
CONTINUOUS
 62
     0
 10
11995.33805356809
 20
18732.83225933973
 30
0.0
 11
11995.33805356809
 21
18733.59897591153
 31
0.0
 12
11995.71119684575
 22
18732.37758294035
 32
0.0
 13
11995.71119684575
 23
18732.37758294035
 33
0.0
  0
SOLID
  5
18161
  8
0
  6
CONTINUOUS
 62
     0
 10
11995.71119684575
 20
18732.37758294035
 30
0.0
 11
11995.33805356809
 21
18733.59897591153
 31
0.0
 12
11995.71119684575
 22
18733.45348731327
 32
0.0
 13
11995.71119684575
 23
18733.45348731327
 33
0.0
  0
SOLID
  5
18162
  8
0
  6
CONTINUOUS
 62
     0
 10
11995.71119684575
 20
18727.96776768972
 30
0.0
 11
11995.71119684575
 21
18729.04367206263
 31
0.0
 12
11995.76487098957
 22
18727.98869524332
 32
0.0
 13
11995.76487098957
 23
18727.98869524332
 33
0.0
  0
SOLID
  5
18163
  8
0
  6
CONTINUOUS
 62
     0
 10
11995.76487098957
 20
18727.98869524332
 30
0.0
 11
11995.71119684575
 21
18729.04367206263
 31
0.0
 12
11995.76487098957
 22
18729.14408932283
 32
0.0
 13
11995.76487098957
 23
18729.14408932283
 33
0.0
  0
SOLID
  5
18164
  8
0
  6
CONTINUOUS
 62
     0
 10
11995.71119684575
 20
18732.37758294035
 30
0.0
 11
11995.71119684575
 21
18733.45348731327
 31
0.0
 12
11995.76487098957
 22
18732.27716568015
 32
0.0
 13
11995.76487098957
 23
18732.27716568015
 33
0.0
  0
SOLID
  5
18165
  8
0
  6
CONTINUOUS
 62
     0
 10
11995.76487098957
 20
18732.27716568015
 30
0.0
 11
11995.71119684575
 21
18733.45348731327
 31
0.0
 12
11995.76487098957
 22
18733.43255975966
 32
0.0
 13
11995.76487098957
 23
18733.43255975966
 33
0.0
  0
SOLID
  5
18166
  8
0
  6
CONTINUOUS
 62
     0
 10
11995.76487098957
 20
18727.98869524332
 30
0.0
 11
11995.76487098957
 21
18729.14408932283
 31
0.0
 12
11995.98846731479
 22
18728.12222846498
 32
0.0
 13
11995.98846731479
 23
18728.12222846498
 33
0.0
  0
SOLID
  5
18167
  8
0
  6
CONTINUOUS
 62
     0
 10
11995.98846731479
 20
18728.12222846498
 30
0.0
 11
11995.76487098957
 21
18729.14408932283
 31
0.0
 12
11995.98846731479
 22
18729.56240862469
 32
0.0
 13
11995.98846731479
 23
18729.56240862469
 33
0.0
  0
SOLID
  5
18168
  8
0
  6
CONTINUOUS
 62
     0
 10
11995.76487098957
 20
18732.27716568015
 30
0.0
 11
11995.76487098957
 21
18733.43255975966
 31
0.0
 12
11995.98846731479
 22
18731.85884637829
 32
0.0
 13
11995.98846731479
 23
18731.85884637829
 33
0.0
  0
SOLID
  5
18169
  8
0
  6
CONTINUOUS
 62
     0
 10
11995.98846731479
 20
18731.85884637829
 30
0.0
 11
11995.76487098957
 21
18733.43255975966
 31
0.0
 12
11995.98846731479
 22
18733.299026538
 32
0.0
 13
11995.98846731479
 23
18733.299026538
 33
0.0
  0
SOLID
  5
1816A
  8
0
  6
CONTINUOUS
 62
     0
 10
11995.98846731479
 20
18728.12222846498
 30
0.0
 11
11995.98846731479
 21
18729.56240862469
 31
0.0
 12
11996.15920962659
 22
18728.22419691613
 32
0.0
 13
11996.15920962659
 23
18728.22419691613
 33
0.0
  0
SOLID
  5
1816B
  8
0
  6
CONTINUOUS
 62
     0
 10
11996.15920962659
 20
18728.22419691613
 30
0.0
 11
11995.98846731479
 21
18729.56240862469
 31
0.0
 12
11996.15920962659
 22
18730.12527059425
 32
0.0
 13
11996.15920962659
 23
18730.12527059425
 33
0.0
  0
SOLID
  5
1816C
  8
0
  6
CONTINUOUS
 62
     0
 10
11995.98846731479
 20
18731.85884637829
 30
0.0
 11
11995.98846731479
 21
18733.299026538
 31
0.0
 12
11996.15920962659
 22
18731.29598440873
 32
0.0
 13
11996.15920962659
 23
18731.29598440873
 33
0.0
  0
SOLID
  5
1816D
  8
0
  6
CONTINUOUS
 62
     0
 10
11996.15920962659
 20
18731.29598440873
 30
0.0
 11
11995.98846731479
 21
18733.299026538
 31
0.0
 12
11996.15920962659
 22
18733.19705808685
 32
0.0
 13
11996.15920962659
 23
18733.19705808685
 33
0.0
  0
SOLID
  5
1816E
  8
0
  6
CONTINUOUS
 62
     0
 10
11996.15920962659
 20
18728.22419691613
 30
0.0
 11
11996.15920962659
 21
18730.12527059425
 31
0.0
 12
11996.21686224985
 22
18728.25862744854
 32
0.0
 13
11996.21686224985
 23
18728.25862744854
 33
0.0
  0
SOLID
  5
1816F
  8
0
  6
CONTINUOUS
 62
     0
 10
11996.21686224985
 20
18728.25862744854
 30
0.0
 11
11996.15920962659
 21
18730.12527059425
 31
0.0
 12
11996.21686224985
 22
18730.71062750149
 32
0.0
 13
11996.21686224985
 23
18730.71062750149
 33
0.0
  0
SOLID
  5
18170
  8
0
  6
CONTINUOUS
 62
     0
 10
11996.15920962659
 20
18731.29598440873
 30
0.0
 11
11996.15920962659
 21
18733.19705808685
 31
0.0
 12
11996.21686224985
 22
18730.71062750149
 32
0.0
 13
11996.21686224985
 23
18730.71062750149
 33
0.0
  0
SOLID
  5
18171
  8
0
  6
CONTINUOUS
 62
     0
 10
11996.21686224985
 20
18730.71062750149
 30
0.0
 11
11996.15920962659
 21
18733.19705808685
 31
0.0
 12
11996.21686224985
 22
18733.16262755444
 32
0.0
 13
11996.21686224985
 23
18733.16262755444
 33
0.0
  0
SOLID
  5
18172
  8
0
  6
CONTINUOUS
 62
     0
 10
11996.21686224985
 20
18728.25862744854
 30
0.0
 11
11996.21686224985
 21
18733.16262755444
 31
0.0
 12
11996.44708839262
 22
18728.39612004159
 32
0.0
 13
11996.44708839262
 23
18728.39612004159
 33
0.0
  0
SOLID
  5
18173
  8
0
  6
CONTINUOUS
 62
     0
 10
11996.44708839262
 20
18728.39612004159
 30
0.0
 11
11996.21686224985
 21
18733.16262755444
 31
0.0
 12
11996.44708839262
 22
18733.02513496139
 32
0.0
 13
11996.44708839262
 23
18733.02513496139
 33
0.0
  0
SOLID
  5
18174
  8
0
  6
CONTINUOUS
 62
     0
 10
11996.44708839262
 20
18728.39612004159
 30
0.0
 11
11996.44708839262
 21
18733.02513496139
 31
0.0
 12
11996.8386457201
 22
18728.72092235176
 32
0.0
 13
11996.8386457201
 23
18728.72092235176
 33
0.0
  0
SOLID
  5
18175
  8
0
  6
CONTINUOUS
 62
     0
 10
11996.8386457201
 20
18728.72092235176
 30
0.0
 11
11996.44708839262
 21
18733.02513496139
 31
0.0
 12
11996.8386457201
 22
18732.70033265123
 32
0.0
 13
11996.8386457201
 23
18732.70033265123
 33
0.0
  0
SOLID
  5
18176
  8
0
  6
CONTINUOUS
 62
     0
 10
11996.8386457201
 20
18728.72092235176
 30
0.0
 11
11996.8386457201
 21
18732.70033265123
 31
0.0
 12
11997.18043049936
 22
18729.0977470405
 32
0.0
 13
11997.18043049936
 23
18729.0977470405
 33
0.0
  0
SOLID
  5
18177
  8
0
  6
CONTINUOUS
 62
     0
 10
11997.18043049936
 20
18729.0977470405
 30
0.0
 11
11996.8386457201
 21
18732.70033265123
 31
0.0
 12
11997.18043049936
 22
18732.32350796248
 32
0.0
 13
11997.18043049936
 23
18732.32350796248
 33
0.0
  0
SOLID
  5
18178
  8
0
  6
CONTINUOUS
 62
     0
 10
11997.18043049936
 20
18729.0977470405
 30
0.0
 11
11997.18043049936
 21
18732.32350796248
 31
0.0
 12
11997.46559731428
 22
18729.51904689696
 32
0.0
 13
11997.46559731428
 23
18729.51904689696
 33
0.0
  0
SOLID
  5
18179
  8
0
  6
CONTINUOUS
 62
     0
 10
11997.46559731428
 20
18729.51904689696
 30
0.0
 11
11997.18043049936
 21
18732.32350796248
 31
0.0
 12
11997.46559731428
 22
18731.90220810602
 32
0.0
 13
11997.46559731428
 23
18731.90220810602
 33
0.0
  0
SOLID
  5
1817A
  8
0
  6
CONTINUOUS
 62
     0
 10
11997.46559731428
 20
18729.51904689696
 30
0.0
 11
11997.46559731428
 21
18731.90220810602
 31
0.0
 12
11997.64137045853
 22
18729.89548824831
 32
0.0
 13
11997.64137045853
 23
18729.89548824831
 33
0.0
  0
SOLID
  5
1817B
  8
0
  6
CONTINUOUS
 62
     0
 10
11997.64137045853
 20
18729.89548824831
 30
0.0
 11
11997.46559731428
 21
18731.90220810602
 31
0.0
 12
11997.64137045853
 22
18731.52576675467
 32
0.0
 13
11997.64137045853
 23
18731.52576675467
 33
0.0
  0
SOLID
  5
1817C
  8
0
  6
CONTINUOUS
 62
     0
 10
11997.64137045853
 20
18729.89548824831
 30
0.0
 11
11997.64137045853
 21
18731.52576675467
 31
0.0
 12
11997.74902234729
 22
18730.29675544121
 32
0.0
 13
11997.74902234729
 23
18730.29675544121
 33
0.0
  0
SOLID
  5
1817D
  8
0
  6
CONTINUOUS
 62
     0
 10
11997.74902234729
 20
18730.29675544121
 30
0.0
 11
11997.64137045853
 21
18731.52576675467
 31
0.0
 12
11997.74902234729
 22
18731.12449956177
 32
0.0
 13
11997.74902234729
 23
18731.12449956177
 33
0.0
  0
SOLID
  5
1817E
  8
0
  6
CONTINUOUS
 62
     0
 10
11997.74902234729
 20
18730.29675544121
 30
0.0
 11
11997.74902234729
 21
18731.12449956178
 31
0.0
 12
11997.78527433985
 22
18730.71062750149
 32
0.0
 13
11997.78527433985
 23
18730.71062750149
 33
0.0
  0
ENDBLK
  8
0
  0
ENDSEC
  0
SECTION
  2
ENTITIES
  0
LINE
  5
12311
  8
0
 62
     0
 10
11625.26177331126
 20
18559.83429987783
 30
0.0
 11
11652.17791725935
 21
18559.83429987782
 31
0.0
  0
LINE
  5
12314
  8
0
 62
     0
 10
11654.17791725935
 20
18557.83429987783
 30
0.0
 11
11654.17791725935
 21
18550.83429987783
 31
0.0
  0
ARC
  5
123E4
  8
0
 62
     0
 10
11625.26177331126
 20
18553.83429987783
 30
0.0
 40
6.0
 50
90.0
 51
135.5662365051722
  0
LINE
  5
1246D
  8
0
 62
     0
 10
11647.17791725935
 20
18550.83429987783
 30
0.0
 11
11649.76370369698
 21
18553.42008631545
 31
0.0
  0
ARC
  5
12470
  8
0
 62
     0
 10
11652.17791725935
 20
18557.83429987783
 30
0.0
 40
2.0
 50
0.0
 51
90.0
  0
ARC
  5
12486
  8
0
 62
     0
 10
11626.97791725935
 20
18552.03429987783
 30
0.0
 40
1.0
 50
0.0
 51
135.0000000000734
  0
LINE
  5
124A3
  8
0
 62
     0
 10
11630.26177331126
 20
18556.83429987783
 30
0.0
 11
11630.26177331126
 21
18552.03429987783
 31
0.0
  0
LINE
  5
124A4
  8
0
 62
     0
 10
11628.26177331126
 20
18552.03429987783
 30
0.0
 11
11630.26177331126
 21
18552.03429987783
 31
0.0
  0
LINE
  5
124A5
  8
0
 62
     0
 10
11628.26177331126
 20
18552.03429987783
 30
0.0
 11
11627.97791725935
 21
18552.03429987783
 31
0.0
  0
LINE
  5
124A7
  8
0
 62
     0
 10
11630.26177331126
 20
18556.83429987783
 30
0.0
 11
11648.34949013461
 21
18556.83429987783
 31
0.0
  0
LINE
  5
12516
  8
0
 62
     0
 10
11647.17791725935
 20
18550.83429987783
 30
0.0
 11
11654.17791725935
 21
18550.83429987783
 31
0.0
  0
LINE
  5
1252D
  8
0
 62
     0
 10
11619.17791725935
 20
18553.75044382592
 30
0.0
 11
11619.17791725934
 21
18526.83429987782
 31
0.0
  0
ARC
  5
12530
  8
0
 62
     0
 10
11621.17791725934
 20
18526.83429987783
 30
0.0
 40
2.0
 50
180.0
 51
270.0
  0
LINE
  5
12531
  8
0
 62
     0
 10
11622.17791725935
 20
18548.75044382592
 30
0.0
 11
11626.97791725935
 21
18548.75044382592
 31
0.0
  0
ARC
  5
12532
  8
0
 62
     0
 10
11625.17791725935
 20
18553.75044382592
 30
0.0
 40
6.0
 50
134.4337634947532
 51
180.0
  0
LINE
  5
12533
  8
0
 62
     0
 10
11628.17791725935
 20
18531.83429987782
 30
0.0
 11
11625.59213082171
 21
18529.2485134402
 31
0.0
  0
ARC
  5
12534
  8
0
 62
     0
 10
11624.17791725934
 20
18530.66272700257
 30
0.0
 40
2.0
 50
180.0
 51
314.9999999998521
  0
ARC
  5
12535
  8
0
 62
     0
 10
11626.97791725935
 20
18552.03429987783
 30
0.0
 40
1.0
 50
134.9999999998523
 51
270.0
  0
LINE
  5
12536
  8
0
 62
     0
 10
11622.17791725935
 20
18548.75044382592
 30
0.0
 11
11622.17791725934
 21
18530.66272700257
 31
0.0
  0
LINE
  5
12537
  8
0
 62
     0
 10
11628.17791725935
 20
18531.83429987782
 30
0.0
 11
11628.17791725934
 21
18524.83429987782
 31
0.0
  0
LINE
  5
1253A
  8
0
 62
     0
 10
11621.17791725934
 20
18524.83429987783
 30
0.0
 11
11628.17791725934
 21
18524.83429987781
 31
0.0
  0
LINE
  5
1253B
  8
0
 62
     0
 10
11626.97791725935
 20
18551.03429987783
 30
0.0
 11
11626.97791725935
 21
18548.75044382592
 31
0.0
  0
LINE
  5
125E5
  8
0
 62
     0
 10
11627.97791725935
 20
18552.03429987783
 30
0.0
 11
11627.97791725935
 21
18552.03429987783
 31
0.0
  0
ARC
  5
1261A
  8
0
 62
     0
 10
11648.34949013461
 20
18554.83429987783
 30
0.0
 40
2.0
 50
314.9999999999994
 51
90.0
  0
LINE
  5
12A73
  8
0
 62
     0
 10
11755.46669671869
 20
18562.65979764698
 30
0.0
 11
11776.46669671869
 21
18562.65979764698
 31
0.0
  0
LINE
  5
12A74
  8
0
 62
     0
 10
11756.66669671869
 20
18561.45979764698
 30
0.0
 11
11776.96375256656
 21
18561.45979764698
 31
0.0
  0
LINE
  5
12A75
  8
0
 62
     0
 10
11767.46669671869
 20
18562.65979764698
 30
0.0
 11
11767.46669671868
 21
18561.45979764698
 31
0.0
  0
LINE
  5
12A76
  8
0
 62
     0
 10
11765.46669671869
 20
18562.65979764698
 30
0.0
 11
11765.46669671869
 21
18561.45979764698
 31
0.0
  0
LINE
  5
12A77
  8
0
 62
     0
 10
11769.46669671869
 20
18562.65979764698
 30
0.0
 11
11769.46669671869
 21
18561.45979764697
 31
0.0
  0
DIMENSION
  5
12A78
  8
0
 62
     0
  2
*D25
 10
11767.46669671869
 20
18566.5259545455
 30
0.0
 11
11761.46669671869
 21
18571.0259545455
 31
0.0
 70
    32
 13
11755.46669671869
 23
18562.65979764698
 33
0.0
 14
11767.46669671869
 24
18562.65979764698
 34
0.0
 50
0.0000000001563306
  0
LINE
  5
12A79
  8
0
 62
     0
 10
11776.46669643613
 20
18562.6597977914
 30
0.0
 11
11779.65075833506
 21
18565.84385969034
 31
0.0
  0
LINE
  5
12A7A
  8
0
 62
     0
 10
11776.96375256656
 20
18561.45979764698
 30
0.0
 11
11780.49928647249
 21
18564.99533155292
 31
0.0
  0
LINE
  5
12A7B
  8
0
 62
     0
 10
11755.46712467201
 20
18562.66022529528
 30
0.0
 11
11755.45215164344
 21
18541.66023063318
 31
0.0
  0
LINE
  5
12A7C
  8
0
 62
     0
 10
11756.66626876536
 20
18561.45936999867
 30
0.0
 11
11756.65179693693
 21
18541.16231931001
 31
0.0
  0
LINE
  5
12A7D
  8
0
 62
     0
 10
11755.45856865569
 20
18550.66022834551
 30
0.0
 11
11756.65856835067
 21
18550.65937274387
 31
0.0
  0
LINE
  5
12A7E
  8
0
 62
     0
 10
11755.45999465841
 20
18552.66022783714
 30
0.0
 11
11756.65999435339
 21
18552.6593722355
 31
0.0
  0
LINE
  5
12A7F
  8
0
 62
     0
 10
11755.45714265297
 20
18548.66022885388
 30
0.0
 11
11756.65714234795
 21
18548.65937325224
 31
0.0
  0
DIMENSION
  5
12A83
  8
0
 62
     0
  2
*D26
 10
11749.23342261696
 20
18541.66023106016
 30
0.0
 11
11744.73342261695
 21
18552.15980068171
 31
0.0
 70
    32
 13
11755.4671240624
 23
18562.65937030327
 33
0.0
 14
11755.45215164374
 24
18541.66023106016
 34
0.0
 50
89.99999999979156
  0
LINE
  5
12AE7
  8
0
 62
     0
 10
11779.65075833506
 20
18565.84385969034
 30
0.0
 11
11780.49928647249
 21
18564.99533155292
 31
0.0
  0
LINE
  5
12AEA
  8
0
 62
     0
 10
11755.45171851658
 20
18541.65980357603
 30
0.0
 11
11752.26538637831
 21
18538.47801353627
 31
0.0
  0
LINE
  5
12AEB
  8
0
 62
     0
 10
11756.65136382781
 20
18541.16189166549
 30
0.0
 11
11753.11330908265
 21
18537.62888039743
 31
0.0
  0
LINE
  5
12AEC
  8
0
 62
     0
 10
11752.26538637831
 20
18538.47801353627
 30
0.0
 11
11753.11330908265
 21
18537.62888039743
 31
0.0
  0
DIMENSION
  5
12AFF
  8
0
 62
     0
  2
*D27
 10
11786.64791261599
 20
18558.84670540944
 30
0.0
 11
11793.01187364666
 21
18557.43249184707
 31
0.0
 70
    33
 13
11776.96375256656
 23
18561.45979764698
 33
0.0
 14
11780.49928647249
 24
18564.99533155292
 34
0.0
  0
DIMENSION
  5
12EC1
  8
0
 62
     0
  2
*D36
 10
11782.71983472686
 20
18567.2158798073
 30
0.0
 11
11794.03354322584
 21
18572.16562727562
 31
0.0
 70
    33
 13
11779.65075833506
 23
18565.84385969034
 33
0.0
 14
11780.49928647249
 24
18564.99533155292
 34
0.0
  0
DIMENSION
  5
12F00
  8
0
 62
     0
  2
*D37
 10
11654.17791725935
 20
18572.90901764166
 30
0.0
 11
11636.67791725935
 21
18577.40901764166
 31
0.0
 70
    32
 13
11619.17791725935
 23
18553.75044382592
 33
0.0
 14
11654.17791725935
 24
18553.75044382592
 34
0.0
  0
DIMENSION
  5
12F0D
  8
0
 62
     0
  2
*D38
 10
11626.97791725935
 20
18561.55210268589
 30
0.0
 11
11623.07791725935
 21
18561.55210268589
 31
0.0
 70
   160
 13
11619.17791725935
 23
18553.75044382592
 33
0.0
 14
11626.97791725935
 24
18553.75044382592
 34
0.0
  0
DIMENSION
  5
12F1F
  8
0
 62
     0
  2
*D39
 10
11661.38119328877
 20
18559.83429987782
 30
0.0
 11
11661.49091016127
 21
18558.33429987782
 31
0.0
 70
   160
 13
11648.34949013461
 23
18556.83429987783
 33
0.0
 14
11648.34949013461
 24
18559.83429987782
 34
0.0
 50
90.0
  0
DIMENSION
  5
12F31
  8
0
 62
     0
  2
*D40
 10
11661.38119328877
 20
18550.4248309315
 30
0.0
 11
11661.38119328877
 21
18553.4248309315
 31
0.0
 70
   160
  1
\P<>
 13
11652.65125740485
 23
18556.4248309315
 33
0.0
 14
11652.65125740485
 24
18550.4248309315
 34
0.0
 50
90.0
  0
DIMENSION
  5
12F5F
  8
0
 62
     0
  2
*D41
 10
11678.19165057864
 20
18550.83429987783
 30
0.0
 11
11673.69165057864
 21
18555.33429987783
 31
0.0
 70
    32
 13
11652.17791725935
 23
18559.83429987783
 33
0.0
 14
11652.17791725935
 24
18550.83429987783
 34
0.0
 50
90.0
  0
DIMENSION
  5
12F6E
  8
0
 62
     0
  2
*D42
 10
11654.17791725935
 20
18543.66247900182
 30
0.0
 11
11650.67791725935
 21
18543.66247900182
 31
0.0
 70
   160
 13
11647.17791725935
 23
18550.83429987783
 33
0.0
 14
11654.17791725935
 24
18550.83429987783
 34
0.0
  0
DIMENSION
  5
12F82
  8
0
 62
     0
  2
*D43
 10
11624.17791725933
 20
18530.66272700258
 30
0.0
 11
11611.19106977012
 21
18522.76501974445
 31
0.0
 70
   164
 15
11622.46909190619
 25
18529.62353697546
 35
0.0
 40
0.0
  0
DIMENSION
  5
12F8C
  8
0
 62
     0
  2
*D44
 10
11625.26177331126
 20
18553.83429987782
 30
0.0
 11
11611.62000563963
 21
18570.43513770038
 31
0.0
 70
   164
 15
11621.4524422742
 25
18558.46992249513
 35
0.0
 40
0.0
  0
DIMENSION
  5
12F9C
  8
0
 62
     0
  2
*D45
 10
11652.17791725934
 20
18557.83429987782
 30
0.0
 11
11668.11883865962
 21
18573.76941058584
 31
0.0
 70
   164
 15
11653.59238859567
 25
18559.24825561926
 35
0.0
 40
0.0
  0
DIMENSION
  5
12FA6
  8
0
 62
     0
  2
*D46
 10
11626.97791725935
 20
18552.03429987782
 30
0.0
 11
11635.13143662815
 21
18534.62731164834
 31
0.0
 70
   164
 15
11626.55373958401
 25
18552.93987886375
 35
0.0
 40
0.0
  0
LINE
  5
13DBD
  8
0
 62
     0
 10
11862.97360699318
 20
18491.11871615977
 30
0.0
 11
11862.97360699318
 21
18483.64471615977
 31
0.0
  0
LINE
  5
13DBE
  8
0
 62
     0
 10
11862.97360699318
 20
18487.38171615977
 30
0.0
 11
11961.97360699318
 21
18487.38171615977
 31
0.0
  0
LINE
  5
13EB0
  8
0
 62
     0
 10
11862.97360699318
 20
18490.06871615977
 30
0.0
 11
11961.97360699318
 21
18490.06871615977
 31
0.0
  0
LINE
  5
13EB1
  8
0
 62
     0
 10
11862.97360699318
 20
18484.69471615977
 30
0.0
 11
11961.97360699318
 21
18484.69471615977
 31
0.0
  0
LINE
  5
13EB2
  8
0
 62
     0
 10
11862.97360699318
 20
18491.11871615977
 30
0.0
 11
11961.97360699318
 21
18491.11871615977
 31
0.0
  0
LINE
  5
13EB3
  8
0
 62
     0
 10
11862.97360699318
 20
18483.64471615977
 30
0.0
 11
11961.97360699318
 21
18483.64471615977
 31
0.0
  0
CIRCLE
  5
13EFA
  8
0
 62
     0
 10
11873.17360699318
 20
18485.86171615977
 30
0.0
 40
0.0000000000001558
  0
ARC
  5
13F0B
  8
0
 62
     0
 10
11872.02110699318
 20
18485.61421615977
 30
0.0
 40
0.2475
 50
90.0
 51
270.0
  0
ARC
  5
13F0C
  8
0
 62
     0
 10
11872.92610699318
 20
18485.61421615977
 30
0.0
 40
0.2474999999996275
 50
270.0
 51
90.0
  0
LINE
  5
13F0E
  8
0
 62
     0
 10
11872.02110699318
 20
18485.86171615977
 30
0.0
 11
11872.92610699318
 21
18485.86171615977
 31
0.0
  0
LINE
  5
13F0F
  8
0
 62
     0
 10
11872.02110699318
 20
18485.36671615977
 30
0.0
 11
11872.92610699318
 21
18485.36671615977
 31
0.0
  0
LINE
  5
13F15
  8
0
 62
     0
 10
11882.02110699318
 20
18489.39671615977
 30
0.0
 11
11882.92610699317
 21
18489.39671615977
 31
0.0
  0
LINE
  5
13F16
  8
0
 62
     0
 10
11882.02110699318
 20
18488.90171615977
 30
0.0
 11
11882.92610699317
 21
18488.90171615977
 31
0.0
  0
CIRCLE
  5
13F17
  8
0
 62
     0
 10
11883.17360699318
 20
18489.39671615977
 30
0.0
 40
0.0000000000001558
  0
ARC
  5
13F18
  8
0
 62
     0
 10
11882.02110699318
 20
18489.14921615977
 30
0.0
 40
0.2475
 50
90.0
 51
270.0
  0
ARC
  5
13F19
  8
0
 62
     0
 10
11882.92610699317
 20
18489.14921615977
 30
0.0
 40
0.2474999999996275
 50
270.0
 51
90.0
  0
DIMENSION
  5
13F1D
  8
0
 62
     0
  2
*D53
 10
11882.47360699318
 20
18501.43527329965
 30
0.0
 11
11872.72360699318
 21
18501.43527329965
 31
0.0
 70
   160
 13
11862.97360699318
 23
18490.06871615977
 33
0.0
 14
11882.47360699318
 24
18490.06871615977
 34
0.0
  0
DIMENSION
  5
13F2A
  8
0
 62
     0
  2
*D54
 10
11917.47360699318
 20
18501.43527329965
 30
0.0
 11
11899.97360699318
 21
18505.93527329965
 31
0.0
 70
    32
 13
11882.47360699318
 23
18491.11871615977
 33
0.0
 14
11917.47360699318
 24
18491.11871615977
 34
0.0
  0
DIMENSION
  5
13F37
  8
0
 62
     0
  2
*D55
 10
11952.47360699318
 20
18501.43527329965
 30
0.0
 11
11934.97360699318
 21
18505.93527329965
 31
0.0
 70
    32
 13
11917.47360699318
 23
18491.11871615977
 33
0.0
 14
11952.47360699318
 24
18491.11871615977
 34
0.0
  0
LINE
  5
13F51
  8
0
 62
     0
 10
11961.97360699318
 20
18491.11871615977
 30
0.0
 11
11961.97360699318
 21
18483.64471615978
 31
0.0
  0
LINE
  5
13F6D
  8
0
 62
     0
 10
11907.02110699318
 20
18485.86171615977
 30
0.0
 11
11907.92610699318
 21
18485.86171615977
 31
0.0
  0
LINE
  5
13F6E
  8
0
 62
     0
 10
11907.02110699318
 20
18485.36671615977
 30
0.0
 11
11907.92610699318
 21
18485.36671615977
 31
0.0
  0
CIRCLE
  5
13F6F
  8
0
 62
     0
 10
11908.17360699318
 20
18485.86171615977
 30
0.0
 40
0.0000000000001558
  0
ARC
  5
13F70
  8
0
 62
     0
 10
11907.02110699318
 20
18485.61421615977
 30
0.0
 40
0.2475
 50
90.0
 51
270.0
  0
ARC
  5
13F71
  8
0
 62
     0
 10
11907.92610699318
 20
18485.61421615977
 30
0.0
 40
0.2474999999996275
 50
270.0
 51
90.0
  0
LINE
  5
13F73
  8
0
 62
     0
 10
11917.02110699318
 20
18489.39671615977
 30
0.0
 11
11917.92610699317
 21
18489.39671615977
 31
0.0
  0
LINE
  5
13F74
  8
0
 62
     0
 10
11917.02110699318
 20
18488.90171615977
 30
0.0
 11
11917.92610699317
 21
18488.90171615977
 31
0.0
  0
CIRCLE
  5
13F75
  8
0
 62
     0
 10
11918.17360699318
 20
18489.39671615977
 30
0.0
 40
0.0000000000001558
  0
ARC
  5
13F76
  8
0
 62
     0
 10
11917.02110699318
 20
18489.14921615977
 30
0.0
 40
0.2475
 50
90.0
 51
270.0
  0
ARC
  5
13F77
  8
0
 62
     0
 10
11917.92610699317
 20
18489.14921615977
 30
0.0
 40
0.2474999999996275
 50
270.0
 51
90.0
  0
LINE
  5
13F93
  8
0
 62
     0
 10
11942.02110699318
 20
18485.86171615977
 30
0.0
 11
11942.92610699318
 21
18485.86171615977
 31
0.0
  0
LINE
  5
13F94
  8
0
 62
     0
 10
11942.02110699318
 20
18485.36671615977
 30
0.0
 11
11942.92610699318
 21
18485.36671615977
 31
0.0
  0
CIRCLE
  5
13F95
  8
0
 62
     0
 10
11943.17360699318
 20
18485.86171615977
 30
0.0
 40
0.0000000000001558
  0
ARC
  5
13F96
  8
0
 62
     0
 10
11942.02110699318
 20
18485.61421615977
 30
0.0
 40
0.2475
 50
90.0
 51
270.0
  0
ARC
  5
13F97
  8
0
 62
     0
 10
11942.92610699318
 20
18485.61421615977
 30
0.0
 40
0.2474999999996275
 50
270.0
 51
90.0
  0
LINE
  5
13F99
  8
0
 62
     0
 10
11952.02110699318
 20
18489.39671615977
 30
0.0
 11
11952.92610699317
 21
18489.39671615977
 31
0.0
  0
LINE
  5
13F9A
  8
0
 62
     0
 10
11952.02110699318
 20
18488.90171615977
 30
0.0
 11
11952.92610699317
 21
18488.90171615977
 31
0.0
  0
CIRCLE
  5
13F9B
  8
0
 62
     0
 10
11953.17360699318
 20
18489.39671615977
 30
0.0
 40
0.0000000000001558
  0
ARC
  5
13F9C
  8
0
 62
     0
 10
11952.02110699318
 20
18489.14921615977
 30
0.0
 40
0.2475
 50
90.0
 51
270.0
  0
ARC
  5
13F9D
  8
0
 62
     0
 10
11952.92610699317
 20
18489.14921615977
 30
0.0
 40
0.2474999999996275
 50
270.0
 51
90.0
  0
DIMENSION
  5
13F9E
  8
0
 62
     0
  2
*D56
 10
11961.97360699318
 20
18512.53133910971
 30
0.0
 11
11912.47360699318
 21
18517.03133910971
 31
0.0
 70
    32
 13
11862.97360699318
 23
18483.64471615977
 33
0.0
 14
11961.97360699318
 24
18483.64471615977
 34
0.0
  0
LINE
  5
1400A
  8
0
 10
12183.33816015173
 20
18142.24719476949
 30
0.0
 11
12183.33816015174
 21
18067.50719476949
 31
0.0
  0
LINE
  5
1400B
  8
0
 10
13173.33816015173
 20
18142.24719476952
 30
0.0
 11
13173.33816015174
 21
18067.50719476952
 31
0.0
  0
LINE
  5
1400C
  8
0
 10
12183.33816015174
 20
18104.87719476949
 30
0.0
 11
13173.33816015174
 21
18104.87719476949
 31
0.0
  0
LINE
  5
1400D
  8
0
 10
12273.81316015174
 20
18089.67719476949
 30
0.0
 11
12282.86316015174
 21
18089.67719476949
 31
0.0
  0
LINE
  5
1400E
  8
0
 10
12183.33816015174
 20
18078.00719476949
 30
0.0
 11
13173.33816015174
 21
18078.0071947695
 31
0.0
  0
LINE
  5
1400F
  8
0
 10
12273.81316015174
 20
18084.72719476949
 30
0.0
 11
12282.86316015174
 21
18084.72719476949
 31
0.0
  0
LINE
  5
14010
  8
0
 10
12183.33816015174
 20
18067.50719476949
 30
0.0
 11
13173.33816015174
 21
18067.5071947695
 31
0.0
  0
LINE
  5
14011
  8
0
 10
12183.33816015174
 20
18131.74719476949
 30
0.0
 11
13173.33816015174
 21
18131.74719476949
 31
0.0
  0
LINE
  5
14012
  8
0
 10
12183.33816015174
 20
18142.24719476949
 30
0.0
 11
13173.33816015174
 21
18142.24719476949
 31
0.0
  0
CIRCLE
  5
14013
  8
0
 10
12285.33816015173
 20
18089.6771947695
 30
0.0
 40
0.0000000000015576
  0
ARC
  5
14014
  8
0
 10
12273.81316015174
 20
18087.2021947695
 30
0.0
 40
2.475
 50
90.0
 51
270.0
  0
ARC
  5
14015
  8
0
 10
12282.86316015174
 20
18087.2021947695
 30
0.0
 40
2.474999999996275
 50
270.0
 51
90.0
  0
LINE
  5
14016
  8
0
 10
12373.81316015173
 20
18125.0271947695
 30
0.0
 11
12382.86316015173
 21
18125.0271947695
 31
0.0
  0
LINE
  5
14017
  8
0
 10
12373.81316015173
 20
18120.0771947695
 30
0.0
 11
12382.86316015173
 21
18120.0771947695
 31
0.0
  0
CIRCLE
  5
14018
  8
0
 10
12385.33816015173
 20
18125.0271947695
 30
0.0
 40
0.0000000000015576
  0
ARC
  5
14019
  8
0
 10
12373.81316015173
 20
18122.5521947695
 30
0.0
 40
2.475
 50
90.0
 51
270.0
  0
ARC
  5
1401A
  8
0
 10
12382.86316015173
 20
18122.5521947695
 30
0.0
 40
2.474999999996275
 50
270.0
 51
90.0
  0
DIMENSION
  5
1401B
  8
0
  2
*D57
 10
12378.33816015173
 20
18184.89260895675
 30
0.0
 11
12280.83816015173
 21
18190.39260895675
 31
0.0
 70
    32
 13
12183.33816015173
 23
18131.74719476947
 33
0.0
 14
12378.33816015173
 24
18131.74719476948
 34
0.0
  0
DIMENSION
  5
1401C
  8
0
  2
*D58
 10
12728.33816015173
 20
18200.00471475641
 30
0.0
 11
12553.33816015173
 21
18205.50471475641
 31
0.0
 70
    32
 13
12378.33816015173
 23
18142.2471947695
 33
0.0
 14
12728.33816015173
 24
18142.24719476949
 34
0.0
  0
DIMENSION
  5
1401D
  8
0
  2
*D59
 10
13078.33816015173
 20
18187.78781731812
 30
0.0
 11
12903.33816015173
 21
18193.28781731812
 31
0.0
 70
    32
 13
12728.33816015173
 23
18142.24719476951
 33
0.0
 14
13078.33816015173
 24
18142.24719476949
 34
0.0
  0
LINE
  5
1401E
  8
0
 10
12623.81316015174
 20
18089.67719476948
 30
0.0
 11
12632.86316015174
 21
18089.67719476948
 31
0.0
  0
LINE
  5
1401F
  8
0
 10
12623.81316015174
 20
18084.72719476948
 30
0.0
 11
12632.86316015174
 21
18084.72719476948
 31
0.0
  0
CIRCLE
  5
14020
  8
0
 10
12635.33816015173
 20
18089.67719476949
 30
0.0
 40
0.0000000000015576
  0
ARC
  5
14021
  8
0
 10
12623.81316015174
 20
18087.20219476948
 30
0.0
 40
2.475
 50
90.0
 51
270.0
  0
ARC
  5
14022
  8
0
 10
12632.86316015174
 20
18087.20219476949
 30
0.0
 40
2.474999999996275
 50
270.0
 51
90.0
  0
LINE
  5
14023
  8
0
 10
12723.81316015173
 20
18125.02719476949
 30
0.0
 11
12732.86316015173
 21
18125.02719476949
 31
0.0
  0
LINE
  5
14024
  8
0
 10
12723.81316015173
 20
18120.07719476948
 30
0.0
 11
12732.86316015173
 21
18120.07719476948
 31
0.0
  0
CIRCLE
  5
14025
  8
0
 10
12735.33816015173
 20
18125.02719476949
 30
0.0
 40
0.0000000000015576
  0
ARC
  5
14026
  8
0
 10
12723.81316015173
 20
18122.55219476949
 30
0.0
 40
2.475
 50
90.0
 51
270.0
  0
ARC
  5
14027
  8
0
 10
12732.86316015173
 20
18122.55219476949
 30
0.0
 40
2.474999999996275
 50
270.0
 51
90.0
  0
LINE
  5
14028
  8
0
 10
12973.81316015174
 20
18089.67719476951
 30
0.0
 11
12982.86316015174
 21
18089.67719476951
 31
0.0
  0
LINE
  5
14029
  8
0
 10
12973.81316015174
 20
18084.72719476951
 30
0.0
 11
12982.86316015174
 21
18084.72719476951
 31
0.0
  0
CIRCLE
  5
1402A
  8
0
 10
12985.33816015173
 20
18089.67719476951
 30
0.0
 40
0.0000000000015576
  0
ARC
  5
1402B
  8
0
 10
12973.81316015174
 20
18087.20219476951
 30
0.0
 40
2.475
 50
90.0
 51
270.0
  0
ARC
  5
1402C
  8
0
 10
12982.86316015174
 20
18087.20219476951
 30
0.0
 40
2.474999999996275
 50
270.0
 51
90.0
  0
LINE
  5
1402D
  8
0
 10
13073.81316015173
 20
18125.02719476951
 30
0.0
 11
13082.86316015173
 21
18125.02719476951
 31
0.0
  0
LINE
  5
1402E
  8
0
 10
13073.81316015173
 20
18120.07719476951
 30
0.0
 11
13082.86316015173
 21
18120.07719476951
 31
0.0
  0
CIRCLE
  5
1402F
  8
0
 10
13085.33816015173
 20
18125.02719476951
 30
0.0
 40
0.0000000000015576
  0
ARC
  5
14030
  8
0
 10
13073.81316015173
 20
18122.55219476951
 30
0.0
 40
2.475
 50
90.0
 51
270.0
  0
ARC
  5
14031
  8
0
 10
13082.86316015173
 20
18122.55219476952
 30
0.0
 40
2.474999999996275
 50
270.0
 51
90.0
  0
DIMENSION
  5
14032
  8
0
  2
*D60
 10
13173.33816015174
 20
18246.78169297897
 30
0.0
 11
12678.33816015174
 21
18252.28169297897
 31
0.0
 70
    32
 13
12183.33816015174
 23
18067.50719476949
 33
0.0
 14
13173.33816015174
 24
18067.5071947695
 34
0.0
  0
LINE
  5
14157
  8
0
 10
12193.26062010922
 20
17814.27598447795
 30
0.0
 11
12193.26062010922
 21
17739.53598447795
 31
0.0
  0
LINE
  5
14159
  8
0
 10
12193.26062010922
 20
17776.90598447795
 30
0.0
 11
13683.26062010922
 21
17776.90598447796
 31
0.0
  0
LINE
  5
1415A
  8
0
 10
12283.73562010922
 20
17761.70598447795
 30
0.0
 11
12292.78562010922
 21
17761.70598447795
 31
0.0
  0
LINE
  5
1415B
  8
0
 10
12193.26062010922
 20
17750.03598447795
 30
0.0
 11
13683.26062010922
 21
17750.03598447796
 31
0.0
  0
LINE
  5
1415C
  8
0
 10
12283.73562010922
 20
17756.75598447795
 30
0.0
 11
12292.78562010922
 21
17756.75598447795
 31
0.0
  0
LINE
  5
1415D
  8
0
 10
12193.26062010922
 20
17739.53598447795
 30
0.0
 11
13683.26062010922
 21
17739.53598447796
 31
0.0
  0
LINE
  5
1415E
  8
0
 10
12193.26062010922
 20
17803.77598447795
 30
0.0
 11
13683.26062010922
 21
17803.77598447795
 31
0.0
  0
LINE
  5
1415F
  8
0
 10
12193.26062010922
 20
17814.27598447795
 30
0.0
 11
13683.26062010922
 21
17814.27598447795
 31
0.0
  0
CIRCLE
  5
14160
  8
0
 10
12295.26062010922
 20
17761.70598447796
 30
0.0
 40
0.0000000000015576
  0
ARC
  5
14161
  8
0
 10
12283.73562010922
 20
17759.23098447796
 30
0.0
 40
2.475
 50
90.0
 51
270.0
  0
ARC
  5
14162
  8
0
 10
12292.78562010922
 20
17759.23098447796
 30
0.0
 40
2.474999999996275
 50
270.0
 51
90.0
  0
LINE
  5
14163
  8
0
 10
12383.73562010922
 20
17797.05598447796
 30
0.0
 11
12392.78562010922
 21
17797.05598447796
 31
0.0
  0
LINE
  5
14164
  8
0
 10
12383.73562010922
 20
17792.10598447796
 30
0.0
 11
12392.78562010922
 21
17792.10598447796
 31
0.0
  0
CIRCLE
  5
14165
  8
0
 10
12395.26062010922
 20
17797.05598447796
 30
0.0
 40
0.0000000000015576
  0
ARC
  5
14166
  8
0
 10
12383.73562010922
 20
17794.58098447796
 30
0.0
 40
2.475
 50
90.0
 51
270.0
  0
ARC
  5
14167
  8
0
 10
12392.78562010922
 20
17794.58098447796
 30
0.0
 40
2.474999999996275
 50
270.0
 51
90.0
  0
LINE
  5
141D4
  8
0
 10
13683.26062010922
 20
17814.27598447799
 30
0.0
 11
13683.26062010922
 21
17739.53598447799
 31
0.0
  0
LINE
  5
141D5
  8
0
 10
12388.26062010922
 20
17814.27598447796
 30
0.0
 11
12388.26062010922
 21
17739.53598447796
 31
0.0
  0
LINE
  5
141D6
  8
0
 10
12988.26062010922
 20
17814.27598447797
 30
0.0
 11
12988.26062010922
 21
17739.53598447797
 31
0.0
  0
LINE
  5
141D7
  8
0
 10
12388.26062010922
 20
17814.27598447796
 30
0.0
 11
12388.26062010922
 21
17739.53598447796
 31
0.0
  0
LINE
  5
141D8
  8
0
 10
13588.26062010922
 20
17814.27598447799
 30
0.0
 11
13588.26062010922
 21
17739.53598447799
 31
0.0
  0
LINE
  5
141E9
  8
0
 10
12883.73562010922
 20
17761.70598447797
 30
0.0
 11
12892.78562010922
 21
17761.70598447797
 31
0.0
  0
LINE
  5
141EA
  8
0
 10
12883.73562010922
 20
17756.75598447797
 30
0.0
 11
12892.78562010922
 21
17756.75598447797
 31
0.0
  0
CIRCLE
  5
141EB
  8
0
 10
12895.26062010922
 20
17761.70598447797
 30
0.0
 40
0.0000000000015576
  0
ARC
  5
141EC
  8
0
 10
12883.73562010922
 20
17759.23098447797
 30
0.0
 40
2.475
 50
90.0
 51
270.0
  0
ARC
  5
141ED
  8
0
 10
12892.78562010922
 20
17759.23098447797
 30
0.0
 40
2.474999999996275
 50
270.0
 51
90.0
  0
LINE
  5
141EE
  8
0
 10
12983.73562010922
 20
17797.05598447797
 30
0.0
 11
12992.78562010922
 21
17797.05598447797
 31
0.0
  0
LINE
  5
141EF
  8
0
 10
12983.73562010922
 20
17792.10598447797
 30
0.0
 11
12992.78562010922
 21
17792.10598447797
 31
0.0
  0
CIRCLE
  5
141F0
  8
0
 10
12995.26062010922
 20
17797.05598447797
 30
0.0
 40
0.0000000000015576
  0
ARC
  5
141F1
  8
0
 10
12983.73562010922
 20
17794.58098447797
 30
0.0
 40
2.475
 50
90.0
 51
270.0
  0
ARC
  5
141F2
  8
0
 10
12992.78562010922
 20
17794.58098447798
 30
0.0
 40
2.474999999996275
 50
270.0
 51
90.0
  0
LINE
  5
14203
  8
0
 10
13483.73562010922
 20
17761.70598447798
 30
0.0
 11
13492.78562010922
 21
17761.70598447798
 31
0.0
  0
LINE
  5
14204
  8
0
 10
13483.73562010922
 20
17756.75598447798
 30
0.0
 11
13492.78562010922
 21
17756.75598447798
 31
0.0
  0
CIRCLE
  5
14205
  8
0
 10
13495.26062010922
 20
17761.70598447798
 30
0.0
 40
0.0000000000015576
  0
ARC
  5
14206
  8
0
 10
13483.73562010922
 20
17759.23098447798
 30
0.0
 40
2.475
 50
90.0
 51
270.0
  0
ARC
  5
14207
  8
0
 10
13492.78562010922
 20
17759.23098447798
 30
0.0
 40
2.474999999996275
 50
270.0
 51
90.0
  0
LINE
  5
14208
  8
0
 10
13583.73562010922
 20
17797.05598447798
 30
0.0
 11
13592.78562010922
 21
17797.05598447798
 31
0.0
  0
LINE
  5
14209
  8
0
 10
13583.73562010922
 20
17792.10598447798
 30
0.0
 11
13592.78562010922
 21
17792.10598447798
 31
0.0
  0
CIRCLE
  5
1420A
  8
0
 10
13595.26062010922
 20
17797.05598447799
 30
0.0
 40
0.0000000000015576
  0
ARC
  5
1420B
  8
0
 10
13583.73562010922
 20
17794.58098447798
 30
0.0
 40
2.475
 50
90.0
 51
270.0
  0
ARC
  5
1420C
  8
0
 10
13592.78562010922
 20
17794.58098447799
 30
0.0
 40
2.474999999996275
 50
270.0
 51
90.0
  0
LINE
  5
1420D
  8
0
 10
12288.26062010922
 20
17814.27598447796
 30
0.0
 11
12288.26062010922
 21
17739.53598447796
 31
0.0
  0
DIMENSION
  5
1420E
  8
0
  2
*D61
 10
12288.26062010922
 20
17830.64775039004
 30
0.0
 11
12240.76062010922
 21
17836.14775039004
 31
0.0
 70
    32
 13
12193.26062010922
 23
17750.03598447795
 33
0.0
 14
12288.26062010922
 24
17750.03598447796
 34
0.0
  0
DIMENSION
  5
14228
  8
0
  2
*D62
 10
12388.26062010922
 20
17830.64775039004
 30
0.0
 11
12338.26062010922
 21
17836.14775039004
 31
0.0
 70
    32
 13
12288.26062010922
 23
17776.90598447795
 33
0.0
 14
12388.26062010922
 24
17776.90598447796
 34
0.0
  0
DIMENSION
  5
14235
  8
0
  2
*D63
 10
12388.26062010922
 20
17844.6144293338
 30
0.0
 11
12290.76062010922
 21
17850.1144293338
 31
0.0
 70
    32
 13
12193.26062010922
 23
17803.77598447795
 33
0.0
 14
12388.26062010922
 24
17803.77598447795
 34
0.0
  0
DIMENSION
  5
14242
  8
0
  2
*D64
 10
12988.26062010922
 20
17830.64775039004
 30
0.0
 11
12688.26062010922
 21
17836.14775039004
 31
0.0
 70
    32
 13
12388.26062010922
 23
17814.27598447795
 33
0.0
 14
12988.26062010922
 24
17814.27598447795
 34
0.0
  0
DIMENSION
  5
1424F
  8
0
  2
*D65
 10
13588.26062010922
 20
17830.64775039004
 30
0.0
 11
13288.26062010922
 21
17836.14775039004
 31
0.0
 70
    32
 13
12988.26062010922
 23
17814.27598447797
 33
0.0
 14
13588.26062010922
 24
17814.27598447795
 34
0.0
  0
DIMENSION
  5
1425C
  8
0
  2
*D66
 10
13683.26062010922
 20
17830.64775039004
 30
0.0
 11
13635.76062010922
 21
17836.14775039004
 31
0.0
 70
    32
 13
13588.26062010922
 23
17814.27598447795
 33
0.0
 14
13683.26062010922
 24
17814.27598447799
 34
0.0
  0
LINE
  5
142E7
  8
0
 62
     0
 10
11811.43844489212
 20
18446.1463557865
 30
0.0
 11
11811.43844489212
 21
18438.6723557865
 31
0.0
  0
LINE
  5
142ED
  8
0
 62
     0
 10
11960.43844489212
 20
18446.1463557865
 30
0.0
 11
11960.43844489212
 21
18438.6723557865
 31
0.0
  0
LINE
  5
142EE
  8
0
 62
     0
 10
11811.43844489212
 20
18442.4093557865
 30
0.0
 11
11960.43844489212
 21
18442.4093557865
 31
0.0
  0
LINE
  5
142EF
  8
0
 62
     0
 10
11820.48594489212
 20
18440.8893557865
 30
0.0
 11
11821.39094489211
 21
18440.8893557865
 31
0.0
  0
LINE
  5
142F0
  8
0
 62
     0
 10
11811.43844489212
 20
18439.7223557865
 30
0.0
 11
11960.43844489212
 21
18439.7223557865
 31
0.0
  0
LINE
  5
142F1
  8
0
 62
     0
 10
11820.48594489212
 20
18440.3943557865
 30
0.0
 11
11821.39094489211
 21
18440.3943557865
 31
0.0
  0
LINE
  5
142F2
  8
0
 62
     0
 10
11811.43844489212
 20
18438.6723557865
 30
0.0
 11
11960.43844489212
 21
18438.6723557865
 31
0.0
  0
LINE
  5
142F3
  8
0
 62
     0
 10
11811.43844489212
 20
18445.0963557865
 30
0.0
 11
11960.43844489212
 21
18445.0963557865
 31
0.0
  0
LINE
  5
142F4
  8
0
 62
     0
 10
11811.43844489212
 20
18446.1463557865
 30
0.0
 11
11960.43844489212
 21
18446.1463557865
 31
0.0
  0
CIRCLE
  5
142F5
  8
0
 62
     0
 10
11821.63844489211
 20
18440.8893557865
 30
0.0
 40
0.0000000000001558
  0
ARC
  5
142F6
  8
0
 62
     0
 10
11820.48594489212
 20
18440.6418557865
 30
0.0
 40
0.2475
 50
90.0
 51
270.0
  0
ARC
  5
142F7
  8
0
 62
     0
 10
11821.39094489211
 20
18440.6418557865
 30
0.0
 40
0.2474999999996275
 50
270.0
 51
90.0
  0
LINE
  5
142F8
  8
0
 62
     0
 10
11830.48594489211
 20
18444.4243557865
 30
0.0
 11
11831.39094489211
 21
18444.4243557865
 31
0.0
  0
LINE
  5
142F9
  8
0
 62
     0
 10
11830.48594489211
 20
18443.9293557865
 30
0.0
 11
11831.39094489211
 21
18443.9293557865
 31
0.0
  0
CIRCLE
  5
142FA
  8
0
 62
     0
 10
11831.63844489211
 20
18444.4243557865
 30
0.0
 40
0.0000000000001558
  0
ARC
  5
142FB
  8
0
 62
     0
 10
11830.48594489211
 20
18444.1768557865
 30
0.0
 40
0.2475
 50
90.0
 51
270.0
  0
ARC
  5
142FC
  8
0
 62
     0
 10
11831.39094489211
 20
18444.1768557865
 30
0.0
 40
0.2474999999996275
 50
270.0
 51
90.0
  0
LINE
  5
142FD
  8
0
 62
     0
 10
11880.48594489212
 20
18440.8893557865
 30
0.0
 11
11881.39094489211
 21
18440.8893557865
 31
0.0
  0
LINE
  5
142FE
  8
0
 62
     0
 10
11880.48594489212
 20
18440.3943557865
 30
0.0
 11
11881.39094489211
 21
18440.3943557865
 31
0.0
  0
CIRCLE
  5
142FF
  8
0
 62
     0
 10
11881.63844489211
 20
18440.8893557865
 30
0.0
 40
0.0000000000001558
  0
ARC
  5
14300
  8
0
 62
     0
 10
11880.48594489212
 20
18440.6418557865
 30
0.0
 40
0.2475
 50
90.0
 51
270.0
  0
ARC
  5
14301
  8
0
 62
     0
 10
11881.39094489211
 20
18440.6418557865
 30
0.0
 40
0.2474999999996275
 50
270.0
 51
90.0
  0
LINE
  5
14302
  8
0
 62
     0
 10
11890.48594489211
 20
18444.4243557865
 30
0.0
 11
11891.39094489211
 21
18444.4243557865
 31
0.0
  0
LINE
  5
14303
  8
0
 62
     0
 10
11890.48594489211
 20
18443.9293557865
 30
0.0
 11
11891.39094489211
 21
18443.9293557865
 31
0.0
  0
CIRCLE
  5
14304
  8
0
 62
     0
 10
11891.63844489211
 20
18444.4243557865
 30
0.0
 40
0.0000000000001558
  0
ARC
  5
14305
  8
0
 62
     0
 10
11890.48594489211
 20
18444.1768557865
 30
0.0
 40
0.2475
 50
90.0
 51
270.0
  0
ARC
  5
14306
  8
0
 62
     0
 10
11891.39094489211
 20
18444.1768557865
 30
0.0
 40
0.2474999999996275
 50
270.0
 51
90.0
  0
LINE
  5
14307
  8
0
 62
     0
 10
11940.48594489212
 20
18440.8893557865
 30
0.0
 11
11941.39094489211
 21
18440.8893557865
 31
0.0
  0
LINE
  5
14308
  8
0
 62
     0
 10
11940.48594489212
 20
18440.3943557865
 30
0.0
 11
11941.39094489211
 21
18440.3943557865
 31
0.0
  0
CIRCLE
  5
14309
  8
0
 62
     0
 10
11941.63844489211
 20
18440.8893557865
 30
0.0
 40
0.0000000000001558
  0
ARC
  5
1430A
  8
0
 62
     0
 10
11940.48594489212
 20
18440.6418557865
 30
0.0
 40
0.2475
 50
90.0
 51
270.0
  0
ARC
  5
1430B
  8
0
 62
     0
 10
11941.39094489211
 20
18440.6418557865
 30
0.0
 40
0.2474999999996275
 50
270.0
 51
90.0
  0
LINE
  5
1430C
  8
0
 62
     0
 10
11950.48594489211
 20
18444.4243557865
 30
0.0
 11
11951.39094489211
 21
18444.4243557865
 31
0.0
  0
LINE
  5
1430D
  8
0
 62
     0
 10
11950.48594489211
 20
18443.9293557865
 30
0.0
 11
11951.39094489211
 21
18443.9293557865
 31
0.0
  0
CIRCLE
  5
1430E
  8
0
 62
     0
 10
11951.63844489211
 20
18444.4243557865
 30
0.0
 40
0.0000000000001558
  0
ARC
  5
1430F
  8
0
 62
     0
 10
11950.48594489211
 20
18444.1768557865
 30
0.0
 40
0.2475
 50
90.0
 51
270.0
  0
ARC
  5
14310
  8
0
 62
     0
 10
11951.39094489211
 20
18444.1768557865
 30
0.0
 40
0.2474999999996275
 50
270.0
 51
90.0
  0
DIMENSION
  5
14311
  8
0
 62
     0
  2
*D67
 10
11820.93844489212
 20
18447.78353237771
 30
0.0
 11
11816.18844489212
 21
18446.1463557865
 31
0.0
 70
   160
 13
11811.43844489212
 23
18439.7223557865
 33
0.0
 14
11820.93844489212
 24
18439.7223557865
 34
0.0
  0
DIMENSION
  5
14312
  8
0
 62
     0
  2
*D68
 10
11830.93844489212
 20
18447.78353237771
 30
0.0
 11
11825.93844489212
 21
18446.1463557865
 31
0.0
 70
   160
 13
11820.93844489212
 23
18442.4093557865
 33
0.0
 14
11830.93844489212
 24
18442.4093557865
 34
0.0
  0
DIMENSION
  5
14313
  8
0
 62
     0
  2
*D69
 10
11830.93844489212
 20
18454.88924896131
 30
0.0
 11
11821.35872926471
 21
18452.93833212477
 31
0.0
 70
   160
 13
11811.43844489212
 23
18445.0963557865
 33
0.0
 14
11830.93844489212
 24
18445.0963557865
 34
0.0
  0
DIMENSION
  5
14314
  8
0
 62
     0
  2
*D70
 10
11890.93844489212
 20
18454.88924896131
 30
0.0
 11
11860.93844489212
 21
18453.05764508772
 31
0.0
 70
   160
 13
11830.93844489212
 23
18446.1463557865
 33
0.0
 14
11890.93844489212
 24
18446.1463557865
 34
0.0
  0
DIMENSION
  5
14315
  8
0
 62
     0
  2
*D71
 10
11950.93844489212
 20
18454.88924896131
 30
0.0
 11
11921.27600152435
 21
18452.93606808465
 31
0.0
 70
   160
 13
11890.93844489212
 23
18446.1463557865
 33
0.0
 14
11950.93844489212
 24
18446.1463557865
 34
0.0
  0
DIMENSION
  5
14316
  8
0
 62
     0
  2
*D72
 10
11960.43844489212
 20
18454.89159969636
 30
0.0
 11
11955.5624242208
 21
18452.70190401552
 31
0.0
 70
   160
 13
11950.93844489212
 23
18446.1463557865
 33
0.0
 14
11960.43844489212
 24
18446.1463557865
 34
0.0
  0
LINE
  5
1458C
  8
0
 10
12167.7768927025
 20
17340.45298753561
 30
0.0
 11
12167.77689270251
 21
17265.71298753561
 31
0.0
  0
LINE
  5
14593
  8
0
 10
12167.77689270251
 20
17303.08298753561
 30
0.0
 11
14147.7768927025
 21
17303.08298753561
 31
0.0
  0
LINE
  5
14595
  8
0
 10
12167.77689270251
 20
17276.21298753561
 30
0.0
 11
14147.77689270251
 21
17276.21298753561
 31
0.0
  0
LINE
  5
14597
  8
0
 10
12167.77689270251
 20
17265.71298753561
 30
0.0
 11
14147.77689270251
 21
17265.71298753561
 31
0.0
  0
LINE
  5
14598
  8
0
 10
12167.77689270251
 20
17329.95298753561
 30
0.0
 11
14147.7768927025
 21
17329.95298753561
 31
0.0
  0
LINE
  5
14599
  8
0
 10
12167.77689270251
 20
17340.45298753561
 30
0.0
 11
14147.7768927025
 21
17340.45298753561
 31
0.0
  0
CIRCLE
  5
1459F
  8
0
 10
12369.7768927025
 20
17323.23298753562
 30
0.0
 40
0.0000000000015576
  0
LINE
  5
14640
  8
0
 10
14147.7768927025
 20
17340.45298753566
 30
0.0
 11
14147.77689270251
 21
17265.71298753565
 31
0.0
  0
LINE
  5
14652
  8
0
 10
12253.2518927025
 20
17287.88298753561
 30
0.0
 11
12262.3018927025
 21
17287.88298753561
 31
0.0
  0
LINE
  5
14653
  8
0
 10
12253.2518927025
 20
17282.93298753561
 30
0.0
 11
12262.3018927025
 21
17282.93298753561
 31
0.0
  0
CIRCLE
  5
14654
  8
0
 10
12264.7768927025
 20
17287.88298753561
 30
0.0
 40
0.0000000000015576
  0
ARC
  5
14655
  8
0
 10
12253.2518927025
 20
17285.40798753561
 30
0.0
 40
2.475
 50
90.0
 51
270.0
  0
ARC
  5
14656
  8
0
 10
12262.3018927025
 20
17285.40798753561
 30
0.0
 40
2.474999999996275
 50
270.0
 51
90.0
  0
LINE
  5
14659
  8
0
 10
12257.7768927025
 20
17340.45298753561
 30
0.0
 11
12257.77689270251
 21
17276.21298753561
 31
0.0
  0
DIMENSION
  5
1465C
  8
0
  2
*D73
 10
12257.7768927025
 20
17360.41183000722
 30
0.0
 11
12212.7768927025
 21
17365.91183000722
 31
0.0
 70
    32
 13
12167.7768927025
 23
17340.45298753561
 33
0.0
 14
12257.7768927025
 24
17340.45298753561
 34
0.0
  0
LINE
  5
14669
  8
0
 10
12357.7768927025
 20
17340.45298753562
 30
0.0
 11
12357.77689270251
 21
17276.21298753561
 31
0.0
  0
LINE
  5
14675
  8
0
 10
12353.2518927025
 20
17323.18697909591
 30
0.0
 11
12362.3018927025
 21
17323.18697909591
 31
0.0
  0
LINE
  5
14676
  8
0
 10
12353.2518927025
 20
17318.23697909591
 30
0.0
 11
12362.3018927025
 21
17318.23697909591
 31
0.0
  0
CIRCLE
  5
14677
  8
0
 10
12364.7768927025
 20
17323.18697909591
 30
0.0
 40
0.0000000000015576
  0
ARC
  5
14678
  8
0
 10
12353.2518927025
 20
17320.71197909591
 30
0.0
 40
2.475
 50
90.0
 51
270.0
  0
ARC
  5
14679
  8
0
 10
12362.3018927025
 20
17320.71197909592
 30
0.0
 40
2.474999999996275
 50
270.0
 51
90.0
  0
DIMENSION
  5
1467A
  8
0
  2
*D74
 10
12357.7768927025
 20
17360.41183000722
 30
0.0
 11
12307.7768927025
 21
17365.91183000722
 31
0.0
 70
    32
 13
12257.7768927025
 23
17340.45298753561
 33
0.0
 14
12357.7768927025
 24
17340.45298753561
 34
0.0
  0
LINE
  5
14688
  8
0
 10
12782.7768927025
 20
17340.45298753563
 30
0.0
 11
12782.77689270251
 21
17276.21298753563
 31
0.0
  0
CIRCLE
  5
1468E
  8
0
 10
12794.7768927025
 20
17323.23298753563
 30
0.0
 40
0.0000000000015576
  0
LINE
  5
1468F
  8
0
 10
12678.2518927025
 20
17287.88298753562
 30
0.0
 11
12687.3018927025
 21
17287.88298753562
 31
0.0
  0
LINE
  5
14690
  8
0
 10
12678.2518927025
 20
17282.93298753562
 30
0.0
 11
12687.3018927025
 21
17282.93298753562
 31
0.0
  0
CIRCLE
  5
14691
  8
0
 10
12689.7768927025
 20
17287.88298753562
 30
0.0
 40
0.0000000000015576
  0
ARC
  5
14692
  8
0
 10
12678.2518927025
 20
17285.40798753562
 30
0.0
 40
2.475
 50
90.0
 51
270.0
  0
ARC
  5
14693
  8
0
 10
12687.3018927025
 20
17285.40798753563
 30
0.0
 40
2.474999999996275
 50
270.0
 51
90.0
  0
LINE
  5
14694
  8
0
 10
12778.2518927025
 20
17323.18697909592
 30
0.0
 11
12787.3018927025
 21
17323.18697909592
 31
0.0
  0
LINE
  5
14695
  8
0
 10
12778.2518927025
 20
17318.23697909592
 30
0.0
 11
12787.3018927025
 21
17318.23697909592
 31
0.0
  0
CIRCLE
  5
14696
  8
0
 10
12789.7768927025
 20
17323.18697909592
 30
0.0
 40
0.0000000000015576
  0
ARC
  5
14697
  8
0
 10
12778.2518927025
 20
17320.71197909592
 30
0.0
 40
2.475
 50
90.0
 51
270.0
  0
ARC
  5
14698
  8
0
 10
12787.3018927025
 20
17320.71197909593
 30
0.0
 40
2.474999999996275
 50
270.0
 51
90.0
  0
LINE
  5
14699
  8
0
 10
13207.7768927025
 20
17340.45298753564
 30
0.0
 11
13207.77689270251
 21
17276.21298753564
 31
0.0
  0
LINE
  5
1469A
  8
0
 10
13632.7768927025
 20
17340.45298753565
 30
0.0
 11
13632.77689270251
 21
17276.21298753565
 31
0.0
  0
LINE
  5
1469B
  8
0
 10
14057.7768927025
 20
17340.45298753566
 30
0.0
 11
14057.77689270251
 21
17276.21298753566
 31
0.0
  0
CIRCLE
  5
1469C
  8
0
 10
13219.7768927025
 20
17323.23298753564
 30
0.0
 40
0.0000000000015576
  0
LINE
  5
1469D
  8
0
 10
13103.2518927025
 20
17287.88298753563
 30
0.0
 11
13112.3018927025
 21
17287.88298753563
 31
0.0
  0
LINE
  5
1469E
  8
0
 10
13103.2518927025
 20
17282.93298753563
 30
0.0
 11
13112.3018927025
 21
17282.93298753563
 31
0.0
  0
CIRCLE
  5
1469F
  8
0
 10
13114.7768927025
 20
17287.88298753564
 30
0.0
 40
0.0000000000015576
  0
ARC
  5
146A0
  8
0
 10
13103.2518927025
 20
17285.40798753563
 30
0.0
 40
2.475
 50
90.0
 51
270.0
  0
ARC
  5
146A1
  8
0
 10
13112.3018927025
 20
17285.40798753564
 30
0.0
 40
2.474999999996275
 50
270.0
 51
90.0
  0
LINE
  5
146A2
  8
0
 10
13203.2518927025
 20
17323.18697909593
 30
0.0
 11
13212.3018927025
 21
17323.18697909593
 31
0.0
  0
LINE
  5
146A3
  8
0
 10
13203.2518927025
 20
17318.23697909593
 30
0.0
 11
13212.3018927025
 21
17318.23697909593
 31
0.0
  0
CIRCLE
  5
146A4
  8
0
 10
13214.7768927025
 20
17323.18697909594
 30
0.0
 40
0.0000000000015576
  0
ARC
  5
146A5
  8
0
 10
13203.2518927025
 20
17320.71197909593
 30
0.0
 40
2.475
 50
90.0
 51
270.0
  0
ARC
  5
146A6
  8
0
 10
13212.3018927025
 20
17320.71197909594
 30
0.0
 40
2.474999999996275
 50
270.0
 51
90.0
  0
CIRCLE
  5
146A7
  8
0
 10
13644.7768927025
 20
17323.23298753565
 30
0.0
 40
0.0000000000015576
  0
LINE
  5
146A8
  8
0
 10
13528.2518927025
 20
17287.88298753565
 30
0.0
 11
13537.3018927025
 21
17287.88298753565
 31
0.0
  0
LINE
  5
146A9
  8
0
 10
13528.2518927025
 20
17282.93298753565
 30
0.0
 11
13537.3018927025
 21
17282.93298753565
 31
0.0
  0
CIRCLE
  5
146AA
  8
0
 10
13539.7768927025
 20
17287.88298753565
 30
0.0
 40
0.0000000000015576
  0
ARC
  5
146AB
  8
0
 10
13528.2518927025
 20
17285.40798753565
 30
0.0
 40
2.475
 50
90.0
 51
270.0
  0
ARC
  5
146AC
  8
0
 10
13537.3018927025
 20
17285.40798753565
 30
0.0
 40
2.474999999996275
 50
270.0
 51
90.0
  0
LINE
  5
146AD
  8
0
 10
13628.2518927025
 20
17323.18697909595
 30
0.0
 11
13637.3018927025
 21
17323.18697909595
 31
0.0
  0
LINE
  5
146AE
  8
0
 10
13628.2518927025
 20
17318.23697909595
 30
0.0
 11
13637.3018927025
 21
17318.23697909595
 31
0.0
  0
CIRCLE
  5
146AF
  8
0
 10
13639.7768927025
 20
17323.18697909595
 30
0.0
 40
0.0000000000015576
  0
ARC
  5
146B0
  8
0
 10
13628.2518927025
 20
17320.71197909595
 30
0.0
 40
2.475
 50
90.0
 51
270.0
  0
ARC
  5
146B1
  8
0
 10
13637.3018927025
 20
17320.71197909595
 30
0.0
 40
2.474999999996275
 50
270.0
 51
90.0
  0
CIRCLE
  5
146B2
  8
0
 10
14069.7768927025
 20
17323.23298753566
 30
0.0
 40
0.0000000000015576
  0
LINE
  5
146B3
  8
0
 10
13953.2518927025
 20
17287.88298753566
 30
0.0
 11
13962.3018927025
 21
17287.88298753566
 31
0.0
  0
LINE
  5
146B4
  8
0
 10
13953.2518927025
 20
17282.93298753566
 30
0.0
 11
13962.3018927025
 21
17282.93298753566
 31
0.0
  0
CIRCLE
  5
146B5
  8
0
 10
13964.7768927025
 20
17287.88298753566
 30
0.0
 40
0.0000000000015576
  0
ARC
  5
146B6
  8
0
 10
13953.2518927025
 20
17285.40798753566
 30
0.0
 40
2.475
 50
90.0
 51
270.0
  0
ARC
  5
146B7
  8
0
 10
13962.3018927025
 20
17285.40798753566
 30
0.0
 40
2.474999999996275
 50
270.0
 51
90.0
  0
LINE
  5
146B8
  8
0
 10
14053.2518927025
 20
17323.18697909596
 30
0.0
 11
14062.3018927025
 21
17323.18697909596
 31
0.0
  0
LINE
  5
146B9
  8
0
 10
14053.2518927025
 20
17318.23697909596
 30
0.0
 11
14062.3018927025
 21
17318.23697909596
 31
0.0
  0
CIRCLE
  5
146BA
  8
0
 10
14064.7768927025
 20
17323.18697909596
 30
0.0
 40
0.0000000000015576
  0
ARC
  5
146BB
  8
0
 10
14053.2518927025
 20
17320.71197909596
 30
0.0
 40
2.475
 50
90.0
 51
270.0
  0
ARC
  5
146BC
  8
0
 10
14062.3018927025
 20
17320.71197909596
 30
0.0
 40
2.474999999996275
 50
270.0
 51
90.0
  0
DIMENSION
  5
146BD
  8
0
  2
*D75
 10
12782.7768927025
 20
17360.41183000722
 30
0.0
 11
12570.2768927025
 21
17365.91183000722
 31
0.0
 70
    32
 13
12357.7768927025
 23
17329.95298753561
 33
0.0
 14
12782.7768927025
 24
17329.95298753561
 34
0.0
  0
DIMENSION
  5
146CA
  8
0
  2
*D76
 10
13207.7768927025
 20
17360.41183000722
 30
0.0
 11
12995.2768927025
 21
17365.91183000722
 31
0.0
 70
    32
 13
12782.7768927025
 23
17340.45298753561
 33
0.0
 14
13207.7768927025
 24
17340.45298753561
 34
0.0
  0
DIMENSION
  5
146D7
  8
0
  2
*D77
 10
13632.7768927025
 20
17360.41183000722
 30
0.0
 11
13420.2768927025
 21
17365.91183000722
 31
0.0
 70
    32
 13
13207.7768927025
 23
17340.45298753561
 33
0.0
 14
13632.7768927025
 24
17340.45298753565
 34
0.0
  0
DIMENSION
  5
146E4
  8
0
  2
*D78
 10
14057.7768927025
 20
17360.41183000722
 30
0.0
 11
13845.2768927025
 21
17365.91183000722
 31
0.0
 70
    32
 13
13632.7768927025
 23
17340.45298753565
 33
0.0
 14
14057.7768927025
 24
17340.45298753561
 34
0.0
  0
DIMENSION
  5
146F1
  8
0
  2
*D79
 10
14147.7768927025
 20
17360.41183000722
 30
0.0
 11
14102.7768927025
 21
17365.91183000722
 31
0.0
 70
    32
 13
14057.7768927025
 23
17340.45298753561
 33
0.0
 14
14147.7768927025
 24
17340.45298753561
 34
0.0
  0
LINE
  5
147AD
  8
0
 62
     0
 10
11764.50970781585
 20
18387.4852825462
 30
0.0
 11
11764.50970781585
 21
18380.0112825462
 31
0.0
  0
LINE
  5
147AE
  8
0
 62
     0
 10
11773.50970781585
 20
18387.4852825462
 30
0.0
 11
11773.50970781585
 21
18381.0612825462
 31
0.0
  0
LINE
  5
147AF
  8
0
 62
     0
 10
11783.50970781585
 20
18387.4852825462
 30
0.0
 11
11783.50970781585
 21
18381.0612825462
 31
0.0
  0
LINE
  5
147B0
  8
0
 62
     0
 10
11826.00970781585
 20
18387.4852825462
 30
0.0
 11
11826.00970781585
 21
18381.0612825462
 31
0.0
  0
LINE
  5
147B1
  8
0
 62
     0
 10
11868.50970781585
 20
18387.48528254621
 30
0.0
 11
11868.50970781585
 21
18381.0612825462
 31
0.0
  0
LINE
  5
147B2
  8
0
 62
     0
 10
11911.00970781585
 20
18387.48528254621
 30
0.0
 11
11911.00970781585
 21
18381.06128254621
 31
0.0
  0
LINE
  5
147B3
  8
0
 62
     0
 10
11953.50970781585
 20
18387.48528254621
 30
0.0
 11
11953.50970781585
 21
18381.06128254621
 31
0.0
  0
LINE
  5
147B4
  8
0
 62
     0
 10
11962.50970781585
 20
18387.48528254621
 30
0.0
 11
11962.50970781585
 21
18380.01128254621
 31
0.0
  0
LINE
  5
147B5
  8
0
 62
     0
 10
11764.50970781585
 20
18383.7482825462
 30
0.0
 11
11962.50970781585
 21
18383.7482825462
 31
0.0
  0
LINE
  5
147B6
  8
0
 62
     0
 10
11764.50970781585
 20
18381.0612825462
 30
0.0
 11
11962.50970781585
 21
18381.0612825462
 31
0.0
  0
LINE
  5
147B7
  8
0
 62
     0
 10
11764.50970781585
 20
18380.0112825462
 30
0.0
 11
11962.50970781585
 21
18380.01128254621
 31
0.0
  0
LINE
  5
147B8
  8
0
 62
     0
 10
11764.50970781585
 20
18386.4352825462
 30
0.0
 11
11962.50970781585
 21
18386.4352825462
 31
0.0
  0
LINE
  5
147B9
  8
0
 62
     0
 10
11764.50970781585
 20
18387.4852825462
 30
0.0
 11
11962.50970781585
 21
18387.4852825462
 31
0.0
  0
CIRCLE
  5
147BA
  8
0
 62
     0
 10
11784.70970781585
 20
18385.7632825462
 30
0.0
 40
0.0000000000001558
  0
LINE
  5
147BB
  8
0
 62
     0
 10
11773.05720781585
 20
18382.2282825462
 30
0.0
 11
11773.96220781585
 21
18382.2282825462
 31
0.0
  0
LINE
  5
147BC
  8
0
 62
     0
 10
11773.05720781585
 20
18381.7332825462
 30
0.0
 11
11773.96220781585
 21
18381.7332825462
 31
0.0
  0
CIRCLE
  5
147BD
  8
0
 62
     0
 10
11774.20970781585
 20
18382.2282825462
 30
0.0
 40
0.0000000000001558
  0
ARC
  5
147BE
  8
0
 62
     0
 10
11773.05720781585
 20
18381.9807825462
 30
0.0
 40
0.2475
 50
90.0
 51
270.0
  0
ARC
  5
147BF
  8
0
 62
     0
 10
11773.96220781585
 20
18381.9807825462
 30
0.0
 40
0.2474999999996275
 50
270.0
 51
90.0
  0
DIMENSION
  5
147C0
  8
0
 62
     0
  2
*D80
 10
11773.50970781585
 20
18389.48116679336
 30
0.0
 11
11769.00970781585
 21
18387.4852825462
 31
0.0
 70
   160
 13
11764.50970781585
 23
18387.4852825462
 33
0.0
 14
11773.50970781585
 24
18387.4852825462
 34
0.0
  0
LINE
  5
147C1
  8
0
 62
     0
 10
11783.05720781585
 20
18385.75868170223
 30
0.0
 11
11783.96220781585
 21
18385.75868170223
 31
0.0
  0
LINE
  5
147C2
  8
0
 62
     0
 10
11783.05720781585
 20
18385.26368170223
 30
0.0
 11
11783.96220781585
 21
18385.26368170223
 31
0.0
  0
CIRCLE
  5
147C3
  8
0
 62
     0
 10
11784.20970781585
 20
18385.75868170223
 30
0.0
 40
0.0000000000001558
  0
ARC
  5
147C4
  8
0
 62
     0
 10
11783.05720781585
 20
18385.51118170223
 30
0.0
 40
0.2475
 50
90.0
 51
270.0
  0
ARC
  5
147C5
  8
0
 62
     0
 10
11783.96220781585
 20
18385.51118170223
 30
0.0
 40
0.2474999999996275
 50
270.0
 51
90.0
  0
DIMENSION
  5
147C6
  8
0
 62
     0
  2
*D81
 10
11783.50970781585
 20
18389.48116679336
 30
0.0
 11
11778.50970781585
 21
18387.4852825462
 31
0.0
 70
   160
 13
11773.50970781585
 23
18387.4852825462
 33
0.0
 14
11783.50970781585
 24
18387.4852825462
 34
0.0
  0
CIRCLE
  5
147C7
  8
0
 62
     0
 10
11827.20970781585
 20
18385.76328254621
 30
0.0
 40
0.0000000000001558
  0
LINE
  5
147C8
  8
0
 62
     0
 10
11815.55720781585
 20
18382.2282825462
 30
0.0
 11
11816.46220781585
 21
18382.2282825462
 31
0.0
  0
LINE
  5
147C9
  8
0
 62
     0
 10
11815.55720781585
 20
18381.7332825462
 30
0.0
 11
11816.46220781585
 21
18381.7332825462
 31
0.0
  0
CIRCLE
  5
147CA
  8
0
 62
     0
 10
11816.70970781585
 20
18382.2282825462
 30
0.0
 40
0.0000000000001558
  0
ARC
  5
147CB
  8
0
 62
     0
 10
11815.55720781585
 20
18381.9807825462
 30
0.0
 40
0.2475
 50
90.0
 51
270.0
  0
ARC
  5
147CC
  8
0
 62
     0
 10
11816.46220781585
 20
18381.9807825462
 30
0.0
 40
0.2474999999996275
 50
270.0
 51
90.0
  0
LINE
  5
147CD
  8
0
 62
     0
 10
11825.55720781585
 20
18385.75868170223
 30
0.0
 11
11826.46220781585
 21
18385.75868170223
 31
0.0
  0
LINE
  5
147CE
  8
0
 62
     0
 10
11825.55720781585
 20
18385.26368170224
 30
0.0
 11
11826.46220781585
 21
18385.26368170224
 31
0.0
  0
CIRCLE
  5
147CF
  8
0
 62
     0
 10
11826.70970781585
 20
18385.75868170223
 30
0.0
 40
0.0000000000001558
  0
ARC
  5
147D0
  8
0
 62
     0
 10
11825.55720781585
 20
18385.51118170223
 30
0.0
 40
0.2475
 50
90.0
 51
270.0
  0
ARC
  5
147D1
  8
0
 62
     0
 10
11826.46220781585
 20
18385.51118170223
 30
0.0
 40
0.2474999999996275
 50
270.0
 51
90.0
  0
CIRCLE
  5
147D2
  8
0
 62
     0
 10
11869.70970781585
 20
18385.76328254621
 30
0.0
 40
0.0000000000001558
  0
LINE
  5
147D3
  8
0
 62
     0
 10
11858.05720781585
 20
18382.22828254621
 30
0.0
 11
11858.96220781585
 21
18382.22828254621
 31
0.0
  0
LINE
  5
147D4
  8
0
 62
     0
 10
11858.05720781585
 20
18381.7332825462
 30
0.0
 11
11858.96220781585
 21
18381.7332825462
 31
0.0
  0
CIRCLE
  5
147D5
  8
0
 62
     0
 10
11859.20970781585
 20
18382.22828254621
 30
0.0
 40
0.0000000000001558
  0
ARC
  5
147D6
  8
0
 62
     0
 10
11858.05720781585
 20
18381.9807825462
 30
0.0
 40
0.2475
 50
90.0
 51
270.0
  0
ARC
  5
147D7
  8
0
 62
     0
 10
11858.96220781585
 20
18381.9807825462
 30
0.0
 40
0.2474999999996275
 50
270.0
 51
90.0
  0
LINE
  5
147D8
  8
0
 62
     0
 10
11868.05720781585
 20
18385.75868170223
 30
0.0
 11
11868.96220781585
 21
18385.75868170223
 31
0.0
  0
LINE
  5
147D9
  8
0
 62
     0
 10
11868.05720781585
 20
18385.26368170224
 30
0.0
 11
11868.96220781585
 21
18385.26368170224
 31
0.0
  0
CIRCLE
  5
147DA
  8
0
 62
     0
 10
11869.20970781585
 20
18385.75868170223
 30
0.0
 40
0.0000000000001558
  0
ARC
  5
147DB
  8
0
 62
     0
 10
11868.05720781585
 20
18385.51118170223
 30
0.0
 40
0.2475
 50
90.0
 51
270.0
  0
ARC
  5
147DC
  8
0
 62
     0
 10
11868.96220781585
 20
18385.51118170224
 30
0.0
 40
0.2474999999996275
 50
270.0
 51
90.0
  0
CIRCLE
  5
147DD
  8
0
 62
     0
 10
11912.20970781585
 20
18385.76328254621
 30
0.0
 40
0.0000000000001558
  0
LINE
  5
147DE
  8
0
 62
     0
 10
11900.55720781585
 20
18382.22828254621
 30
0.0
 11
11901.46220781585
 21
18382.22828254621
 31
0.0
  0
LINE
  5
147DF
  8
0
 62
     0
 10
11900.55720781585
 20
18381.73328254621
 30
0.0
 11
11901.46220781585
 21
18381.73328254621
 31
0.0
  0
CIRCLE
  5
147E0
  8
0
 62
     0
 10
11901.70970781585
 20
18382.22828254621
 30
0.0
 40
0.0000000000001558
  0
ARC
  5
147E1
  8
0
 62
     0
 10
11900.55720781585
 20
18381.9807825462
 30
0.0
 40
0.2475
 50
90.0
 51
270.0
  0
ARC
  5
147E2
  8
0
 62
     0
 10
11901.46220781585
 20
18381.98078254621
 30
0.0
 40
0.2474999999996275
 50
270.0
 51
90.0
  0
LINE
  5
147E3
  8
0
 62
     0
 10
11910.55720781585
 20
18385.75868170224
 30
0.0
 11
11911.46220781585
 21
18385.75868170224
 31
0.0
  0
LINE
  5
147E4
  8
0
 62
     0
 10
11910.55720781585
 20
18385.26368170224
 30
0.0
 11
11911.46220781585
 21
18385.26368170224
 31
0.0
  0
CIRCLE
  5
147E5
  8
0
 62
     0
 10
11911.70970781585
 20
18385.75868170224
 30
0.0
 40
0.0000000000001558
  0
ARC
  5
147E6
  8
0
 62
     0
 10
11910.55720781585
 20
18385.51118170224
 30
0.0
 40
0.2475
 50
90.0
 51
270.0
  0
ARC
  5
147E7
  8
0
 62
     0
 10
11911.46220781585
 20
18385.51118170224
 30
0.0
 40
0.2474999999996275
 50
270.0
 51
90.0
  0
CIRCLE
  5
147E8
  8
0
 62
     0
 10
11954.70970781585
 20
18385.76328254621
 30
0.0
 40
0.0000000000001558
  0
LINE
  5
147E9
  8
0
 62
     0
 10
11943.05720781585
 20
18382.22828254621
 30
0.0
 11
11943.96220781585
 21
18382.22828254621
 31
0.0
  0
LINE
  5
147EA
  8
0
 62
     0
 10
11943.05720781585
 20
18381.73328254621
 30
0.0
 11
11943.96220781585
 21
18381.73328254621
 31
0.0
  0
CIRCLE
  5
147EB
  8
0
 62
     0
 10
11944.20970781585
 20
18382.22828254621
 30
0.0
 40
0.0000000000001558
  0
ARC
  5
147EC
  8
0
 62
     0
 10
11943.05720781585
 20
18381.98078254621
 30
0.0
 40
0.2475
 50
90.0
 51
270.0
  0
ARC
  5
147ED
  8
0
 62
     0
 10
11943.96220781585
 20
18381.98078254621
 30
0.0
 40
0.2474999999996275
 50
270.0
 51
90.0
  0
LINE
  5
147EE
  8
0
 62
     0
 10
11953.05720781585
 20
18385.75868170224
 30
0.0
 11
11953.96220781585
 21
18385.75868170224
 31
0.0
  0
LINE
  5
147EF
  8
0
 62
     0
 10
11953.05720781585
 20
18385.26368170224
 30
0.0
 11
11953.96220781585
 21
18385.26368170224
 31
0.0
  0
CIRCLE
  5
147F0
  8
0
 62
     0
 10
11954.20970781585
 20
18385.75868170224
 30
0.0
 40
0.0000000000001558
  0
ARC
  5
147F1
  8
0
 62
     0
 10
11953.05720781585
 20
18385.51118170224
 30
0.0
 40
0.2475
 50
90.0
 51
270.0
  0
ARC
  5
147F2
  8
0
 62
     0
 10
11953.96220781585
 20
18385.51118170224
 30
0.0
 40
0.2474999999996275
 50
270.0
 51
90.0
  0
DIMENSION
  5
147F3
  8
0
 62
     0
  2
*D82
 10
11826.00970781585
 20
18395.87064181611
 30
0.0
 11
11804.75970781585
 21
18400.37064181611
 31
0.0
 70
    32
 13
11783.50970781585
 23
18386.4352825462
 33
0.0
 14
11826.00970781585
 24
18386.4352825462
 34
0.0
  0
DIMENSION
  5
147F4
  8
0
 62
     0
  2
*D83
 10
11868.50970781585
 20
18395.87064181611
 30
0.0
 11
11847.25970781585
 21
18400.37064181611
 31
0.0
 70
    32
 13
11826.00970781585
 23
18387.4852825462
 33
0.0
 14
11868.50970781585
 24
18387.4852825462
 34
0.0
  0
DIMENSION
  5
147F5
  8
0
 62
     0
  2
*D84
 10
11911.00970781585
 20
18395.87064181611
 30
0.0
 11
11889.75970781585
 21
18400.37064181611
 31
0.0
 70
    32
 13
11868.50970781585
 23
18387.4852825462
 33
0.0
 14
11911.00970781585
 24
18387.48528254621
 34
0.0
  0
DIMENSION
  5
147F6
  8
0
 62
     0
  2
*D85
 10
11953.50970781585
 20
18395.87064181611
 30
0.0
 11
11932.25970781585
 21
18400.37064181611
 31
0.0
 70
    32
 13
11911.00970781585
 23
18387.48528254621
 33
0.0
 14
11953.50970781585
 24
18387.4852825462
 34
0.0
  0
DIMENSION
  5
147F7
  8
0
 62
     0
  2
*D86
 10
11962.50970781585
 20
18395.87064181611
 30
0.0
 11
11958.00970781585
 21
18395.87064181611
 31
0.0
 70
   160
 13
11953.50970781585
 23
18387.4852825462
 33
0.0
 14
11962.50970781585
 24
18387.4852825462
 34
0.0
  0
DIMENSION
  5
1497A
  8
0
 62
     0
  2
*D87
 10
11962.50970781585
 20
18410.09140030912
 30
0.0
 11
11863.50970781585
 21
18414.59140030912
 31
0.0
 70
    32
 13
11764.50970781585
 23
18386.4352825462
 33
0.0
 14
11962.50970781585
 24
18387.48528254621
 34
0.0
  0
DIMENSION
  5
151D1
  8
0
 62
     0
  2
*D88
 10
11783.50970781585
 20
18395.87064181611
 30
0.0
 11
11774.00970781585
 21
18400.37064181611
 31
0.0
 70
    32
 13
11764.50970781585
 23
18386.4352825462
 33
0.0
 14
11783.50970781585
 24
18386.4352825462
 34
0.0
  0
DIMENSION
  5
15267
  8
0
 62
     0
  2
*D89
 10
11960.43844489212
 20
18463.6946294028
 30
0.0
 11
11885.93844489212
 21
18468.1946294028
 31
0.0
 70
    32
 13
11811.43844489212
 23
18446.1463557865
 33
0.0
 14
11960.43844489212
 24
18446.1463557865
 34
0.0
  0
DIMENSION
  5
15288
  8
0
 62
     0
  2
*D90
 10
11872.47360699318
 20
18492.71890034341
 30
0.0
 11
11867.72360699318
 21
18491.11871615977
 31
0.0
 70
   160
 13
11862.97360699318
 23
18490.06871615977
 33
0.0
 14
11872.47360699318
 24
18490.06871615977
 34
0.0
  0
DIMENSION
  5
152CF
  8
0
 62
     0
  2
*D91
 10
11882.47360699318
 20
18492.71890034341
 30
0.0
 11
11877.47360699318
 21
18491.11871615977
 31
0.0
 70
   160
 13
11872.47360699318
 23
18491.11871615977
 33
0.0
 14
11882.47360699318
 24
18491.11871615977
 34
0.0
  0
DIMENSION
  5
15334
  8
0
 62
     0
  2
*D92
 10
11952.47360699318
 20
18501.43527329965
 30
0.0
 11
11957.22360699318
 21
18501.43527329965
 31
0.0
 70
   160
 13
11961.97360699318
 23
18487.38171615977
 33
0.0
 14
11952.47360699318
 24
18487.38171615977
 34
0.0
  0
LINE
  5
15457
  8
0
 62
     0
 10
11990.08910541192
 20
18741.23873826194
 30
0.0
 11
11570.16319541192
 21
18741.23873826194
 31
0.0
  0
LINE
  5
15467
  8
0
 62
     0
 10
11990.08910541192
 20
18336.26477026194
 30
0.0
 11
11570.16319541192
 21
18336.26477026194
 31
0.0
  0
LINE
  5
15468
  8
0
 62
     0
 10
11520.16319541192
 20
18691.23873826194
 30
0.0
 11
11520.16319541192
 21
18386.26477026194
 31
0.0
  0
LINE
  5
15469
  8
0
 62
     0
 10
11520.16319541192
 20
18691.23873826194
 30
0.0
 11
11520.16319541192
 21
18741.23873826194
 31
0.0
  0
LINE
  5
1546A
  8
0
 62
     0
 10
11570.16319541192
 20
18741.23873826194
 30
0.0
 11
11520.16319541192
 21
18741.23873826194
 31
0.0
  0
LINE
  5
1546B
  8
0
 62
     0
 10
11570.16319541192
 20
18336.26477026194
 30
0.0
 11
11520.16319541192
 21
18336.26477026194
 31
0.0
  0
LINE
  5
1546C
  8
0
 62
     0
 10
11520.16319541192
 20
18386.26477026194
 30
0.0
 11
11520.16319541192
 21
18336.26477026194
 31
0.0
  0
LINE
  5
1546D
  8
0
 62
     0
 10
11990.08910541192
 20
18336.26477026194
 30
0.0
 11
12040.08910541192
 21
18336.26477026194
 31
0.0
  0
LINE
  5
15470
  8
0
 62
     0
 10
11990.08910541192
 20
18741.23873826194
 30
0.0
 11
12040.08910541192
 21
18741.23873826194
 31
0.0
  0
LINE
  5
15478
  8
0
 62
     0
 10
12090.08910541192
 20
18721.23873826194
 30
0.0
 11
11970.08910541191
 21
18721.23873826194
 31
0.0
  0
LINE
  5
15479
  8
0
 62
     0
 10
12090.08910541192
 20
18701.23873826194
 30
0.0
 11
11970.08910541191
 21
18701.23873826194
 31
0.0
  0
LINE
  5
1547A
  8
0
 62
     0
 10
12090.08910541192
 20
18681.23873826194
 30
0.0
 11
11970.08910541191
 21
18681.23873826194
 31
0.0
  0
LINE
  5
1547B
  8
0
 62
     0
 10
11970.08910541192
 20
18356.26477026194
 30
0.0
 11
12090.08910541192
 21
18356.26477026194
 31
0.0
  0
LINE
  5
15A1C
  8
0
 62
     0
 10
12040.08910541192
 20
18741.23873826194
 30
0.0
 11
12090.08910541192
 21
18741.23873826194
 31
0.0
  0
LINE
  5
15A1D
  8
0
 62
     0
 10
12040.08910541192
 20
18336.26477026194
 30
0.0
 11
12090.08910541192
 21
18336.26477026194
 31
0.0
  0
LINE
  5
15A2C
  8
0
 62
     0
 10
12090.08910541192
 20
18336.26477026194
 30
0.0
 11
12090.08910541192
 21
18741.23873826194
 31
0.0
  0
LINE
  5
15A2D
  8
0
 62
     0
 10
11970.08910541192
 20
18336.26477026194
 30
0.0
 11
11970.08910541192
 21
18741.23873826194
 31
0.0
  0
LINE
  5
15A2F
  8
0
 62
     0
 10
11985.08910541192
 20
18681.23873826194
 30
0.0
 11
11985.08910541192
 21
18721.23873826194
 31
0.0
  0
TEXT
  5
15BEC
  8
0
 62
     0
 10
12000.62778302873
 20
18706.20929701036
 30
0.0
 40
10.0
  1
コーナーガード
 41
0.8
 72
     1
 11
12033.16111636207
 21
18706.20929701036
 31
0.0
  0
TEXT
  5
15BED
  8
0
 62
     0
 10
12018.9442222783
 20
18689.12356030743
 30
0.0
 40
5.0
  1
SCL-0035V
 41
0.8
 72
     1
 11
12036.46803180211
 21
18689.12356030743
 31
0.0
  0
TEXT
  5
15C11
  8
0
 62
     0
 10
11973.63320588255
 20
18671.80673931364
 30
0.0
 40
5.0
  1
製品仕様
 72
     1
 11
11984.96653921589
 21
18671.80673931364
 31
0.0
  0
TEXT
  5
15C12
  8
0
 62
     0
 10
11978.43156911449
 20
18661.94647084925
 30
0.0
 40
5.0
  1
■本体
  0
TEXT
  5
15C13
  8
0
 62
     0
 10
11977.55907695543
 20
18654.17281116293
 30
0.0
 40
5.0
  1
・材質：軟質塩化ビニル樹脂（PVC）
  0
TEXT
  5
15C14
  8
0
 62
     0
 10
11978.28981345131
 20
18645.6919894761
 30
0.0
 40
5.0
  1
・色：
  0
TEXT
  5
15C15
  8
0
 62
     0
 10
11998.14874486293
 20
18645.6919859454
 30
0.0
 40
5.0
  1
黄
  0
TEXT
  5
15C16
  8
0
 62
     0
 10
11998.38042541534
 20
18636.78121580685
 30
0.0
 40
5.0
  1
アイボリー
  0
TEXT
  5
15C17
  8
0
 62
     0
 10
11997.39658762502
 20
18627.94684666151
 30
0.0
 40
5.0
  1
グレー
  0
TEXT
  5
15C18
  8
0
 62
     0
 10
11997.86282786184
 20
18619.54683582235
 30
0.0
 40
5.0
  1
茶
  0
TEXT
  5
15C19
  8
0
 62
     0
 10
11998.05340720554
 20
18610.40406638333
 30
0.0
 40
5.0
  1
黒
  0
TEXT
  5
15C1A
  8
0
 62
     0
 10
11981.58259635571
 20
18582.58415519533
 30
0.0
 40
5.0
  1
・材質：スチール
  0
TEXT
  5
15C1B
  8
0
 62
     0
 10
11980.83622937214
 20
18593.60775403905
 30
0.0
 40
5.0
  1
■当板
  0
TEXT
  5
15C1C
  8
0
 62
     0
 10
11981.04070532627
 20
18560.13643821098
 30
0.0
 40
5.0
  1
■定尺長さ
  0
TEXT
  5
15C1D
  8
0
 62
     0
 10
11980.26632758745
 20
18551.29919506922
 30
0.0
 40
5.0
  1
・1,000L
  0
TEXT
  5
15C1E
  8
0
 62
     0
 10
11980.26633398552
 20
18542.77626707846
 30
0.0
 40
5.0
  1
・1,500L
  0
TEXT
  5
15C1F
  8
0
 62
     0
 10
11980.07272835419
 20
18533.71202200558
 30
0.0
 40
5.0
  1
・2,000L
  0
TEXT
  5
15C21
  8
0
 62
     0
 10
11980.29456227519
 20
18458.00655178642
 30
0.0
 40
5.0
  1
■注記
  0
TEXT
  5
15C23
  8
0
 62
     0
 10
11980.29456227519
 20
18444.00655178642
 30
0.0
 40
4.0
  1
・取り付けボルトは製品に含まれていません。
  0
TEXT
  5
15C24
  8
0
 62
     0
 10
11982.85657062365
 20
18523.13815223799
 30
0.0
 40
5.0
  1
定尺長さ以外の長さも製作可能です。
  0
TEXT
  5
15C38
  8
0
 62
     0
 10
11981.08211023509
 20
18424.27232615386
 30
0.0
 40
4.0
  1
・当て板、穴ピッチは10分の1の縮尺です。
  0
TEXT
  5
15C5A
  8
0
 62
     0
 10
11975.27479660244
 20
18713.36217431652
 30
0.0
 40
5.0
  1
名
 72
     1
 11
11977.44146326911
 21
18713.36217431652
 31
0.0
  0
TEXT
  5
15C5B
  8
0
 62
     0
 10
11975.10812993577
 20
18703.28620849384
 30
0.0
 40
5.0
  1
称
 72
     1
 11
11977.44146326911
 21
18703.28620849384
 31
0.0
  0
TEXT
  5
15C62
  8
0
 62
     0
 10
11975.11637382205
 20
18693.07113031194
 30
0.0
 40
5.0
  1
品
 72
     1
 11
11977.44970715539
 21
18693.07113031194
 31
0.0
  0
TEXT
  5
15C63
  8
0
 62
     0
 10
11975.33102115995
 20
18683.42420860199
 30
0.0
 40
5.0
  1
番
 72
     1
 11
11977.66435449328
 21
18683.42420860199
 31
0.0
  0
POLYLINE
  5
15C74
  8
0
 62
     0
 66
     1
 10
0.0
 20
0.0
 30
0.0
 70
     1
  0
VERTEX
  5
180E0
  8
0
 62
     0
 10
11988.96724614542
 20
18731.90220810602
 30
0.0
 42
0.131809399201534
  0
VERTEX
  5
180E1
  8
0
 62
     0
 10
11988.64756911985
 20
18730.71062750149
 30
0.0
 42
-0.131809399201534
  0
VERTEX
  5
180E2
  8
0
 62
     0
 10
11988.96724614542
 20
18731.90220810602
 30
0.0
 42
0.1318093992014997
  0
VERTEX
  5
180E3
  8
0
 62
     0
 10
11988.64756911985
 20
18730.71062750149
 30
0.0
 42
0.1318093992015154
  0
VERTEX
  5
180E4
  8
0
 62
     0
 10
11988.96724614542
 20
18729.51904689696
 30
0.0
 42
0.1066315912060444
  0
VERTEX
  5
180E5
  8
0
 62
     0
 10
11989.98575506708
 20
18728.39612004159
 30
0.0
 42
-0.1066315912060444
  0
VERTEX
  5
180E6
  8
0
 62
     0
 10
11988.96724614542
 20
18729.51904689696
 30
0.0
 42
-0.1318093992015154
  0
VERTEX
  5
180E7
  8
0
 62
     0
 10
11988.64756911985
 20
18730.71062750149
 30
0.0
 42
0.1318093992014997
  0
VERTEX
  5
180E8
  8
0
 62
     0
 10
11988.96724614542
 20
18729.51904689696
 30
0.0
 42
0.106631591206045
  0
VERTEX
  5
180E9
  8
0
 62
     0
 10
11989.98575506708
 20
18728.39612004159
 30
0.0
 42
0.0834900407424662
  0
VERTEX
  5
180EA
  8
0
 62
     0
 10
11991.40830568648
 20
18727.70003925422
 30
0.0
 42
-0.0834900407424662
  0
VERTEX
  5
180EB
  8
0
 62
     0
 10
11989.98575506708
 20
18728.39612004159
 30
0.0
 42
0.0834900407424899
  0
VERTEX
  5
180EC
  8
0
 62
     0
 10
11991.40830568648
 20
18727.70003925422
 30
0.0
 42
0.0722434140546601
  0
VERTEX
  5
180ED
  8
0
 62
     0
 10
11993.21642172985
 20
18727.43741966149
 30
0.0
 42
-0.0722434140546601
  0
VERTEX
  5
180EE
  8
0
 62
     0
 10
11991.40830568648
 20
18727.70003925422
 30
0.0
 42
0.072243414054648
  0
VERTEX
  5
180EF
  8
0
 62
     0
 10
11993.21642172985
 20
18727.43741966149
 30
0.0
 42
0.07224341405465
  0
VERTEX
  5
180F0
  8
0
 62
     0
 10
11995.02453777322
 20
18727.70003925422
 30
0.0
 42
-0.07224341405465
  0
VERTEX
  5
180F1
  8
0
 62
     0
 10
11993.21642172985
 20
18727.43741966149
 30
0.0
 42
0.0722434140546485
  0
VERTEX
  5
180F2
  8
0
 62
     0
 10
11995.02453777322
 20
18727.70003925422
 30
0.0
 42
0.0834900407424903
  0
VERTEX
  5
180F3
  8
0
 62
     0
 10
11996.44708839262
 20
18728.39612004159
 30
0.0
 42
0.1066315912060448
  0
VERTEX
  5
180F4
  8
0
 62
     0
 10
11997.46559731428
 20
18729.51904689696
 30
0.0
 42
-0.1066315912060769
  0
VERTEX
  5
180F5
  8
0
 62
     0
 10
11996.44708839262
 20
18728.39612004159
 30
0.0
 42
0.1066315912060769
  0
VERTEX
  5
180F6
  8
0
 62
     0
 10
11997.46559731428
 20
18729.51904689696
 30
0.0
 42
0.1318093992015007
  0
VERTEX
  5
180F7
  8
0
 62
     0
 10
11997.78527433985
 20
18730.71062750149
 30
0.0
 42
-0.1318093992014695
  0
VERTEX
  5
180F8
  8
0
 62
     0
 10
11997.46559731428
 20
18729.51904689696
 30
0.0
 42
0.1318093992014695
  0
VERTEX
  5
180F9
  8
0
 62
     0
 10
11997.78527433985
 20
18730.71062750149
 30
0.0
 42
0.1318093992015003
  0
VERTEX
  5
180FA
  8
0
 62
     0
 10
11997.46559731428
 20
18731.90220810602
 30
0.0
 42
-0.1318093992014827
  0
VERTEX
  5
180FB
  8
0
 62
     0
 10
11997.78527433985
 20
18730.71062750149
 30
0.0
 42
0.1318093992014827
  0
VERTEX
  5
180FC
  8
0
 62
     0
 10
11997.46559731428
 20
18731.90220810602
 30
0.0
 42
0.1066315912060452
  0
VERTEX
  5
180FD
  8
0
 62
     0
 10
11996.44708839262
 20
18733.02513496139
 30
0.0
 42
-0.1066315912060705
  0
VERTEX
  5
180FE
  8
0
 62
     0
 10
11997.46559731428
 20
18731.90220810602
 30
0.0
 42
0.1066315912060705
  0
VERTEX
  5
180FF
  8
0
 62
     0
 10
11996.44708839262
 20
18733.02513496139
 30
0.0
 42
0.0834900407424905
  0
VERTEX
  5
18100
  8
0
 62
     0
 10
11995.02453777322
 20
18733.72121574876
 30
0.0
 42
-0.0834900407425049
  0
VERTEX
  5
18101
  8
0
 62
     0
 10
11996.44708839262
 20
18733.02513496139
 30
0.0
 42
0.0834900407425049
  0
VERTEX
  5
18102
  8
0
 62
     0
 10
11995.02453777322
 20
18733.72121574876
 30
0.0
 42
0.0722434140546481
  0
VERTEX
  5
18103
  8
0
 62
     0
 10
11993.21642172985
 20
18733.98383534149
 30
0.0
 42
-0.0722434140546288
  0
VERTEX
  5
18104
  8
0
 62
     0
 10
11995.02453777322
 20
18733.72121574876
 30
0.0
 42
0.0722434140546288
  0
VERTEX
  5
18105
  8
0
 62
     0
 10
11993.21642172985
 20
18733.98383534149
 30
0.0
 42
0.0722434140546481
  0
VERTEX
  5
18106
  8
0
 62
     0
 10
11991.40830568648
 20
18733.72121574876
 30
0.0
 42
-0.0722434140546497
  0
VERTEX
  5
18107
  8
0
 62
     0
 10
11993.21642172985
 20
18733.98383534149
 30
0.0
 42
0.0722434140546497
  0
VERTEX
  5
18108
  8
0
 62
     0
 10
11991.40830568648
 20
18733.72121574876
 30
0.0
 42
0.0834900407424901
  0
VERTEX
  5
18109
  8
0
 62
     0
 10
11989.98575506708
 20
18733.02513496139
 30
0.0
 42
-0.0834900407424854
  0
VERTEX
  5
1810A
  8
0
 62
     0
 10
11991.40830568648
 20
18733.72121574876
 30
0.0
 42
0.0834900407424854
  0
VERTEX
  5
1810B
  8
0
 62
     0
 10
11989.98575506708
 20
18733.02513496139
 30
0.0
 42
0.1066315912060231
  0
SEQEND
  5
18185
  8
0
 62
     0
  0
CIRCLE
  5
15C75
  8
0
 62
     0
 10
11993.21642172985
 20
18730.71062750149
 30
0.0
 40
3.000440519999999
  0
CIRCLE
  5
15C76
  8
0
 62
     0
 10
11991.90372900235
 20
18730.71062750149
 30
0.0
 40
0.9717335774999997
  0
INSERT
  5
15C77
  8
0
 62
     0
  2
*U93
 10
0.0
 20
0.0
 30
0.0
  0
TEXT
  5
15C78
  8
0
 62
     0
 10
12004.25536589819
 20
18725.9523184966
 30
0.0
 40
2.0
  1
OHJI RUBBER & CHEMICALS CO.,LTD.
 41
1.02
 72
     1
 11
12031.71765161248
 21
18726.9523184966
 31
0.0
  0
ARC
  5
15C79
  8
0
 62
     0
 10
11993.66601922007
 20
18732.27802909494
 30
0.0
 40
4.775307701183849
 50
286.5282565340647
 51
305.6184898392706
  0
ARC
  5
15C7A
  8
0
 62
     0
 10
11993.66601922007
 20
18732.27802909494
 30
0.0
 40
4.775307701183848
 50
286.5282565340647
 51
305.6184898392706
  0
TEXT
  5
15C7B
  8
0
 62
     0
 10
12002.98516779631
 20
18731.27323515031
 30
0.0
 40
5.0
  1
王子ゴム化成株式会社
  0
ARC
  5
15C7C
  8
0
 62
     0
 10
11992.87485791272
 20
18730.7449026395
 30
0.0
 40
1.022877449995576
 50
270.0
 51
0.0000000002037789
  0
LINE
  5
15C7D
  8
0
 62
     0
 10
11993.35280538985
 20
18729.73889392399
 30
0.0
 11
11993.11413398485
 21
18729.73889392399
 31
0.0
  0
LINE
  5
15C7E
  8
0
 62
     0
 10
11994.37568283985
 20
18731.68236107899
 30
0.0
 11
11994.37568283985
 21
18730.76177137399
 31
0.0
  0
LINE
  5
15C7F
  8
0
 62
     0
 10
11995.29627254485
 20
18731.68236107899
 30
0.0
 11
11995.29627254485
 21
18729.73889392399
 31
0.0
  0
LINE
  5
15DBE
  8
0
 62
     0
 10
11758.007767065
 20
18387.4852825462
 30
0.0
 11
11758.007767065
 21
18386.43528254621
 31
0.0
  0
LINE
  5
15DD5
  8
0
 62
     0
 10
11754.69117578606
 20
18383.7482825462
 30
0.0
 11
11758.007767065
 21
18386.4352825462
 31
0.0
  0
LINE
  5
15DD6
  8
0
 62
     0
 10
11758.007767065
 20
18386.4352825462
 30
0.0
 11
11754.69117578606
 21
18383.7482825462
 31
0.0
  0
LINE
  5
15DD7
  8
0
 62
     0
 10
11754.69117578606
 20
18383.7482825462
 30
0.0
 11
11758.007767065
 21
18381.0612825462
 31
0.0
  0
LINE
  5
15DD8
  8
0
 62
     0
 10
11758.007767065
 20
18381.0612825462
 30
0.0
 11
11758.007767065
 21
18380.0112825462
 31
0.0
  0
LINE
  5
15DE4
  8
0
 62
     0
 10
11804.24894275782
 20
18446.04250530086
 30
0.0
 11
11804.24894275783
 21
18444.99250530086
 31
0.0
  0
LINE
  5
15DE5
  8
0
 62
     0
 10
11804.24894275783
 20
18439.61850530086
 30
0.0
 11
11804.24894275782
 21
18438.56850530086
 31
0.0
  0
LINE
  5
15DE6
  8
0
 62
     0
 10
11800.93235147889
 20
18442.30550530086
 30
0.0
 11
11804.24894275782
 21
18444.99250530086
 31
0.0
  0
LINE
  5
15DE7
  8
0
 62
     0
 10
11804.24894275782
 20
18444.99250530086
 30
0.0
 11
11800.93235147889
 21
18442.30550530086
 31
0.0
  0
LINE
  5
15DE8
  8
0
 62
     0
 10
11800.93235147889
 20
18442.30550530086
 30
0.0
 11
11804.24894275782
 21
18439.61850530086
 31
0.0
  0
LINE
  5
15DF4
  8
0
 62
     0
 10
11854.14919101407
 20
18490.89395753148
 30
0.0
 11
11854.14919101408
 21
18489.84395753149
 31
0.0
  0
LINE
  5
15DF5
  8
0
 62
     0
 10
11854.14919101408
 20
18484.46995753148
 30
0.0
 11
11854.14919101407
 21
18483.41995753148
 31
0.0
  0
LINE
  5
15DF6
  8
0
 62
     0
 10
11850.83259973514
 20
18487.15695753148
 30
0.0
 11
11854.14919101407
 21
18489.84395753148
 31
0.0
  0
LINE
  5
15DF7
  8
0
 62
     0
 10
11854.14919101407
 20
18489.84395753148
 30
0.0
 11
11850.83259973514
 21
18487.15695753148
 31
0.0
  0
LINE
  5
15DF8
  8
0
 62
     0
 10
11850.83259973514
 20
18487.15695753148
 30
0.0
 11
11854.14919101407
 21
18484.46995753148
 31
0.0
  0
LINE
  5
15E18
  8
0
 62
     0
 10
11985.08910541192
 20
18336.26477026194
 30
0.0
 11
11985.08910541192
 21
18356.26477026194
 31
0.0
  0
LINE
  5
15E1D
  8
0
 62
     0
 10
11985.08910541192
 20
18681.23873826194
 30
0.0
 11
11985.08910541192
 21
18721.23873826194
 31
0.0
  0
TEXT
  5
15E26
  8
0
 62
     0
 10
11974.74707697352
 20
18339.30077125356
 30
0.0
 40
5.0
  1
番
 72
     1
 11
11977.08041030685
 21
18339.30077125356
 31
0.0
  0
TEXT
  5
15E31
  8
0
 62
     0
 10
11975.00662672386
 20
18348.63926897807
 30
0.0
 40
5.0
  1
図
 72
     1
 11
11977.3399600572
 21
18348.63926897807
 31
0.0
  0
TEXT
  5
15E3A
  8
0
 62
     0
 10
12006.00700530745
 20
18340.69808916478
 30
0.0
 40
10.0
  1
ND-SCL35
 41
0.8
 72
     1
 11
12038.00700530745
 21
18340.69808916478
 31
0.0
  0
ENDSEC
  0
EOF
