  0
SECTION
  2
HEADER
  9
$ACADVER
  1
AC1006
  9
$DWGCODEPAGE
  3
ansi_932
  9
$INSBASE
 10
0.0
 20
0.0
 30
0.0
  9
$EXTMIN
 10
26.03311061733075
 20
13.01432443648422
  9
$EXTMAX
 10
254.5
 20
50.12735693269926
  9
$LIMMIN
 10
0.0
 20
0.0
  9
$LIMMAX
 10
420.0
 20
297.0
  9
$ORTHOMODE
 70
     0
  9
$REGENMODE
 70
     1
  9
$FILLMODE
 70
     1
  9
$QTEXTMODE
 70
     0
  9
$MIRRTEXT
 70
     1
  9
$DRAGMODE
 70
     2
  9
$LTSCALE
 40
0.5
  9
$OSMODE
 70
    37
  9
$ATTMODE
 70
     1
  9
$TEXTSIZE
 40
2.0
  9
$TRACEWID
 40
1.0
  9
$TEXTSTYLE
  7
STANDARD
  9
$CLAYER
  8
寸法線
  9
$CELTYPE
  6
BYLAYER
  9
$CECOLOR
 62
   256
  9
$DIMSCALE
 40
1.0
  9
$DIMASZ
 40
1.0
  9
$DIMEXO
 40
0.625
  9
$DIMDLI
 40
3.75
  9
$DIMRND
 40
0.0
  9
$DIMDLE
 40
0.0
  9
$DIMEXE
 40
1.25
  9
$DIMTP
 40
0.0
  9
$DIMTM
 40
0.0
  9
$DIMTXT
 40
1.5
  9
$DIMCEN
 40
1.0
  9
$DIMTSZ
 40
0.0
  9
$DIMTOL
 70
     0
  9
$DIMLIM
 70
     0
  9
$DIMTIH
 70
     0
  9
$DIMTOH
 70
     0
  9
$DIMSE1
 70
     0
  9
$DIMSE2
 70
     0
  9
$DIMTAD
 70
     1
  9
$DIMZIN
 70
     8
  9
$DIMBLK
  1
OPEN30
  9
$DIMASO
 70
     1
  9
$DIMSHO
 70
     1
  9
$DIMPOST
  1

  9
$DIMAPOST
  1

  9
$DIMALT
 70
     0
  9
$DIMALTD
 70
     3
  9
$DIMALTF
 40
0.03937007874016
  9
$DIMLFAC
 40
1.0
  9
$DIMTOFL
 70
     1
  9
$DIMTVP
 40
0.0
  9
$DIMTIX
 70
     0
  9
$DIMSOXD
 70
     0
  9
$DIMSAH
 70
     0
  9
$DIMBLK1
  1

  9
$DIMBLK2
  1

  9
$LUNITS
 70
     2
  9
$LUPREC
 70
     4
  9
$SKETCHINC
 40
1.0
  9
$FILLETRAD
 40
1.0
  9
$AUNITS
 70
     0
  9
$AUPREC
 70
     0
  9
$MENU
  1
.
  9
$ELEVATION
 40
0.0
  9
$THICKNESS
 40
0.0
  9
$LIMCHECK
 70
     0
  9
$CHAMFERA
 40
2.0
  9
$CHAMFERB
 40
2.0
  9
$SKPOLY
 70
     0
  9
$TDCREATE
 40
2452705.193565278
  9
$TDUPDATE
 40
2459449.751406817
  9
$TDINDWG
 40
6.5296757639
  9
$TDUSRTIMER
 40
6.5296734259
  9
$USRTIMER
 70
     1
  9
$ANGBASE
 50
0.0
  9
$ANGDIR
 70
     0
  9
$PDMODE
 70
     0
  9
$PDSIZE
 40
0.0
  9
$PLINEWID
 40
0.0
  9
$COORDS
 70
     1
  9
$SPLFRAME
 70
     0
  9
$SPLINETYPE
 70
     6
  9
$SPLINESEGS
 70
     8
  9
$ATTDIA
 70
     0
  9
$ATTREQ
 70
     1
  9
$HANDLING
 70
     1
  9
$HANDSEED
  5
1A49B
  9
$SURFTAB1
 70
     6
  9
$SURFTAB2
 70
     6
  9
$SURFTYPE
 70
     6
  9
$SURFU
 70
     6
  9
$SURFV
 70
     6
  9
$UCSNAME
  2

  9
$UCSORG
 10
0.0
 20
0.0
 30
0.0
  9
$UCSXDIR
 10
1.0
 20
0.0
 30
0.0
  9
$UCSYDIR
 10
0.0
 20
1.0
 30
0.0
  9
$USERI1
 70
     0
  9
$USERI2
 70
     0
  9
$USERI3
 70
     0
  9
$USERI4
 70
     0
  9
$USERI5
 70
     0
  9
$USERR1
 40
0.0
  9
$USERR2
 40
0.0
  9
$USERR3
 40
0.0
  9
$USERR4
 40
0.0
  9
$USERR5
 40
0.0
  9
$WORLDVIEW
 70
     1
  0
ENDSEC
  0
SECTION
  2
TABLES
  0
TABLE
  2
VPORT
 70
     1
  0
VPORT
  2
*ACTIVE
 70
     0
 10
0.0
 20
0.0
 11
1.0
 21
1.0
 12
160.8126743817819
 22
99.01199612274246
 13
0.0
 23
0.0
 14
10.0
 24
10.0
 15
10.0
 25
10.0
 16
0.0
 26
0.0
 36
1.0
 17
0.0
 27
0.0
 37
0.0
 40
287.6297979015067
 41
2.0
 42
50.0
 43
0.0
 44
0.0
 50
0.0
 51
0.0
 71
     0
 72
   100
 73
     1
 74
     3
 75
     0
 76
     0
 77
     0
 78
     0
  0
ENDTAB
  0
TABLE
  2
LTYPE
 70
     7
  0
LTYPE
  2
CONTINUOUS
 70
     0
  3
Solid line
 72
    65
 73
     0
 40
0.0
  0
LTYPE
  2
CENTER2
 70
     0
  3
Center (.5x) ___ _ ___ _ ___ _ ___ _ ___ _ ___
 72
    65
 73
     4
 40
28.575
 49
19.05
 49
-3.175
 49
3.175
 49
-3.175
  0
LTYPE
  2
DASHED2
 70
     0
  3
Dashed (.5x) _ _ _ _ _ _ _ _ _ _ _ _ _ _ _ _ _
 72
    65
 73
     2
 40
9.524999999999999
 49
6.35
 49
-3.175
  0
LTYPE
  2
HIDDEN2
 70
     0
  3
Hidden (.5x) _ _ _ _ _ _ _ _ _ _ _ _ _ _ _ _ _
 72
    65
 73
     2
 40
4.762499999999999
 49
3.175
 49
-1.5875
  0
LTYPE
  2
PHANTOM2
 70
     0
  3
Phantom (.5x) ___ _ _ ___ _ _ ___ _ _ ___ _ _
 72
    65
 73
     6
 40
31.75
 49
15.875
 49
-3.175
 49
3.175
 49
-3.175
 49
3.175
 49
-3.175
  0
LTYPE
  2
DASHDOT2
 70
     0
  3
Dash dot (.5x) _._._._._._._._._._._._._._._.
 72
    65
 73
     4
 40
12.7
 49
6.35
 49
-3.175
 49
0.0
 49
-3.175
  0
LTYPE
  2
DOT
 70
     0
  3
Dot . . . . . . . . . . . . . . . . . . . . . .
 72
    65
 73
     2
 40
0.25
 49
0.0
 49
-0.25
  0
ENDTAB
  0
TABLE
  2
LAYER
 70
     9
  0
LAYER
  2
0
 70
     0
 62
     7
  6
CONTINUOUS
  0
LAYER
  2
センター線
 70
     0
 62
     4
  6
CENTER2
  0
LAYER
  2
補助線
 70
     0
 62
     2
  6
CONTINUOUS
  0
LAYER
  2
DEFPOINTS
 70
     0
 62
     7
  6
CONTINUOUS
  0
LAYER
  2
隠線
 70
     0
 62
     8
  6
HIDDEN2
  0
LAYER
  2
外径線
 70
     0
 62
     5
  6
CONTINUOUS
  0
LAYER
  2
画層5
 70
     0
 62
     6
  6
DASHED2
  0
LAYER
  2
枠
 70
     0
 62
     7
  6
CONTINUOUS
  0
LAYER
  2
寸法線
 70
     0
 62
     3
  6
CONTINUOUS
  0
ENDTAB
  0
TABLE
  2
STYLE
 70
     2
  0
STYLE
  2
STANDARD
 70
     0
 40
0.0
 41
1.0
 50
0.0
 71
     0
 42
2.0
  3
romans.shx
  4
bigfont.shx
  0
STYLE
  2

 70
     1
 40
0.0
 41
1.0
 50
0.0
 71
     0
 42
2.5
  3
ltypeshp.shx
  4

  0
ENDTAB
  0
TABLE
  2
VIEW
 70
     0
  0
ENDTAB
  0
TABLE
  2
UCS
 70
     0
  0
ENDTAB
  0
ENDSEC
  0
SECTION
  2
BLOCKS
  0
BLOCK
  8
0
  2
_OPEN30
 70
     0
 10
0.0
 20
0.0
 30
0.0
  0
LINE
  5
9A1
  8
補助線
 62
     0
 10
-1.0
 20
0.26794919
 30
0.0
 11
0.0
 21
0.0
 31
0.0
  0
LINE
  5
9A2
  8
補助線
 62
     0
 10
0.0
 20
0.0
 30
0.0
 11
-1.0
 21
-0.26794919
 31
0.0
  0
LINE
  5
9A3
  8
補助線
 62
     0
 10
0.0
 20
0.0
 30
0.0
 11
-1.0
 21
0.0
 31
0.0
  0
ENDBLK
  8
0
  0
BLOCK
  8
0
  2
A$C27AF58EE
 70
     0
 10
0.0
 20
0.0
 30
0.0
  0
TEXT
  5
5516
  8
寸法線
  6
CONTINUOUS
 10
-0.4285717510906417
 20
14.92176606841309
 30
0.0
 40
3.0
  1
仕　様
  0
TEXT
  5
5517
  8
寸法線
  6
CONTINUOUS
 10
3.844093856596731
 20
0.00000024768309
 30
0.0
 40
3.0
  1
硬　　さ　：　ﾃﾞｭﾛﾒｰﾀAﾀｲﾌﾟ　７０±5
  0
TEXT
  5
5518
  8
寸法線
  6
CONTINUOUS
 10
3.844093856596731
 20
7.659072610947192
 30
0.0
 40
3.0
  1
ゴム材質　：　EPDM
  0
ENDBLK
  8
0
  0
BLOCK
  8
0
  2
A$C09A73ABD
 70
     0
 10
0.0
 20
0.0
 30
0.0
  0
TEXT
  5
5D47
  8
寸法線
  6
CONTINUOUS
 10
6.974862829712769
 20
41.59703390664651
 30
0.0
 40
2.0
  1
製品公差　３級
  0
TEXT
  5
5D48
  8
寸法線
  6
CONTINUOUS
 10
7.166770043033986
 20
36.49763584663531
 30
0.0
 40
1.5
  1
3未満
  0
TEXT
  5
5D49
  8
寸法線
  6
CONTINUOUS
 10
3.695205921218709
 20
31.57479022324087
 30
0.0
 40
1.5
  1
3以上～6未満
  0
LINE
  5
5D4A
  8
外径線
 10
0.0000000841159817
 20
45.00000001150772
 30
0.0
 11
0.0000000841159817
 21
0.0000000115077228
 31
0.0
  0
LINE
  5
5D4B
  8
外径線
 10
18.60000008411598
 20
40.00000001150772
 30
0.0
 11
18.60000008411598
 21
0.0000000115077228
 31
0.0
  0
LINE
  5
5D4C
  8
外径線
 10
30.00000008411598
 20
45.00000001150772
 30
0.0
 11
30.00000008411598
 21
0.0000000115077228
 31
0.0
  0
LINE
  5
5D4D
  8
外径線
 10
0.0000000841159817
 20
45.00000001150772
 30
0.0
 11
30.00000008411598
 21
45.00000001150772
 31
0.0
  0
LINE
  5
5D4E
  8
外径線
 10
0.0000000841159817
 20
40.00000001150772
 30
0.0
 11
30.00000008411598
 21
40.00000001150772
 31
0.0
  0
LINE
  5
5D4F
  8
外径線
 10
0.0000000841159817
 20
35.00000001150772
 30
0.0
 11
30.00000008411598
 21
35.00000001150772
 31
0.0
  0
LINE
  5
5D50
  8
外径線
 10
0.0000000841159817
 20
30.00000001150772
 30
0.0
 11
30.00000008411598
 21
30.00000001150772
 31
0.0
  0
LINE
  5
5D51
  8
外径線
 10
0.0000000841159817
 20
25.00000001150772
 30
0.0
 11
30.00000008411598
 21
25.00000001150772
 31
0.0
  0
LINE
  5
5D52
  8
外径線
 10
0.0000000841159817
 20
20.00000001150772
 30
0.0
 11
30.00000008411598
 21
20.00000001150772
 31
0.0
  0
LINE
  5
5D53
  8
外径線
 10
0.0000000841159817
 20
0.0000000115077228
 30
0.0
 11
30.00000008411598
 21
0.0000000115077228
 31
0.0
  0
LINE
  5
5D54
  8
外径線
 10
0.0000000841159817
 20
5.000000011507723
 30
0.0
 11
30.00000008411598
 21
5.000000011507723
 31
0.0
  0
LINE
  5
5D55
  8
外径線
 10
0.0000000841159817
 20
15.00000001150772
 30
0.0
 11
30.00000008411598
 21
15.00000001150772
 31
0.0
  0
LINE
  5
5D56
  8
外径線
 10
0.0000000841159817
 20
10.00000001150772
 30
0.0
 11
30.00000008411598
 21
10.00000001150772
 31
0.0
  0
TEXT
  5
5D57
  8
寸法線
  6
CONTINUOUS
 10
21.31136972492373
 20
36.7189986512717
 30
0.0
 40
1.5
  1
±0.4
  0
TEXT
  5
5D58
  8
寸法線
  6
CONTINUOUS
 10
21.31136972492373
 20
31.57479069058609
 30
0.0
 40
1.5
  1
±0.5
  0
TEXT
  5
5D59
  8
寸法線
  6
CONTINUOUS
 10
21.31136972492373
 20
26.78132437295209
 30
0.0
 40
1.5
  1
±0.6
  0
TEXT
  5
5D5A
  8
寸法線
  6
CONTINUOUS
 10
21.31136972492373
 20
21.5202025312493
 30
0.0
 40
1.5
  1
±0.8
  0
TEXT
  5
5D5B
  8
寸法線
  6
CONTINUOUS
 10
21.31136972492373
 20
16.49290845158088
 30
0.0
 40
1.5
  1
±1.0
  0
TEXT
  5
5D5C
  8
寸法線
  6
CONTINUOUS
 10
21.31136972492373
 20
11.58252825292965
 30
0.0
 40
1.5
  1
±1.5
  0
TEXT
  5
5D5D
  8
寸法線
  6
CONTINUOUS
 10
21.31136972492373
 20
6.789061935295649
 30
0.0
 40
1.5
  1
±2.0
  0
TEXT
  5
5D5E
  8
寸法線
  6
CONTINUOUS
 10
21.31136972492373
 20
1.761767388282067
 30
0.0
 40
1.5
  1
±2.5
  0
TEXT
  5
5D5F
  8
寸法線
  6
CONTINUOUS
 10
2.317457774442305
 20
21.83391360949081
 30
0.0
 40
1.5
  1
10以上～18未満
  0
TEXT
  5
5D60
  8
寸法線
  6
CONTINUOUS
 10
2.317457774442305
 20
16.72394522804001
 30
0.0
 40
1.5
  1
18以上～30未満
  0
TEXT
  5
5D61
  8
寸法線
  6
CONTINUOUS
 10
2.331743488728031
 20
11.77366403031817
 30
0.0
 40
1.5
  1
30以上～50未満
  0
TEXT
  5
5D62
  8
寸法線
  6
CONTINUOUS
 10
2.331743488728031
 20
6.743538773386717
 30
0.0
 40
1.5
  1
50以上～80未満
  0
TEXT
  5
5D63
  8
寸法線
  6
CONTINUOUS
 10
2.331743488728031
 20
1.952943824703539
 30
0.0
 40
1.5
  1
80以上～120未満
  0
TEXT
  5
5D64
  8
寸法線
  6
CONTINUOUS
 10
3.828470170713152
 20
26.46482230913528
 30
0.0
 40
1.5
  1
6以上～10未満
  0
ENDBLK
  8
0
  0
BLOCK
  8
0
  2
*D4
 70
     1
 10
0.0
 20
0.0
 30
0.0
  0
LINE
  5
19CA5
  8
寸法線
 62
     0
 10
104.625
 20
30.0
 30
0.0
 11
108.3199252643532
 21
30.0
 31
0.0
  0
LINE
  5
19CA6
  8
寸法線
 62
     0
 10
99.925
 20
31.00000000000001
 30
0.0
 11
108.3199252643532
 21
31.0
 31
0.0
  0
LINE
  5
19CA7
  8
寸法線
 62
     0
 10
107.0699252643532
 20
29.0
 30
0.0
 11
107.0699252643532
 21
28.0
 31
0.0
  0
LINE
  5
19CA8
  8
寸法線
 62
     0
 10
107.0699252643532
 20
32.00000000000001
 30
0.0
 11
107.0699252643532
 21
33.00000000000001
 31
0.0
  0
LINE
  5
19CA9
  8
寸法線
 62
     0
 10
107.0699252643532
 20
30.5
 30
0.0
 11
111.5074252643532
 21
31.83125
 31
0.0
  0
LINE
  5
19CAA
  8
寸法線
 62
     0
 10
111.5074252643532
 20
31.83125
 30
0.0
 11
111.5074252643532
 21
33.43839285714286
 31
0.0
  0
TEXT
  5
19CAB
  8
寸法線
  6
CONTINUOUS
 62
     0
 10
110.8824252643532
 20
32.02767857142859
 30
0.0
 40
1.5
  1
1
 50
90.0
  0
LINE
  5
19CAC
  8
寸法線
 62
     0
 10
107.0699252643532
 20
30.0
 30
0.0
 11
107.0699252643532
 21
31.0
 31
0.0
  0
LINE
  5
19CAD
  8
寸法線
 62
     0
 10
107.0699252643532
 20
30.0
 30
0.0
 11
107.0699252643532
 21
31.0
 31
0.0
  0
INSERT
  5
19CAE
  8
寸法線
 62
     0
  2
_OPEN30
 10
107.0699252643532
 20
30.0
 30
0.0
 50
90.0
  0
INSERT
  5
19CAF
  8
寸法線
 62
     0
  2
_OPEN30
 10
107.0699252643532
 20
31.0
 30
0.0
 50
270.0
  0
POINT
  5
19CB0
  8
DEFPOINTS
 62
     0
 10
104.0
 20
30.0
 30
0.0
  0
POINT
  5
19CB1
  8
DEFPOINTS
 62
     0
 10
99.3
 20
31.00000000000001
 30
0.0
  0
POINT
  5
19CB2
  8
DEFPOINTS
 62
     0
 10
107.0699252643532
 20
31.0
 30
0.0
  0
ENDBLK
  8
0
  0
BLOCK
  8
0
  2
*D5
 70
     1
 10
0.0
 20
0.0
 30
0.0
  0
LINE
  5
19C93
  8
寸法線
 62
     0
 10
31.5
 20
28.275
 30
0.0
 11
31.5
 21
23.56298864319768
 31
0.0
  0
LINE
  5
19C94
  8
寸法線
 62
     0
 10
66.5
 20
28.275
 30
0.0
 11
66.5
 21
23.56298864319768
 31
0.0
  0
LINE
  5
19C95
  8
寸法線
 62
     0
 10
32.5
 20
24.81298864319768
 30
0.0
 11
65.5
 21
24.81298864319768
 31
0.0
  0
INSERT
  5
19C96
  8
寸法線
 62
     0
  2
_OPEN30
 10
31.5
 20
24.81298864319768
 30
0.0
 50
180.0
  0
INSERT
  5
19C97
  8
寸法線
 62
     0
  2
_OPEN30
 10
66.5
 20
24.81298864319768
 30
0.0
  0
TEXT
  5
19C98
  8
寸法線
  6
CONTINUOUS
 62
     0
 10
47.57142857142857
 20
25.43798864319768
 30
0.0
 40
1.5
  1
35
  0
POINT
  5
19C99
  8
DEFPOINTS
 62
     0
 10
31.5
 20
28.9
 30
0.0
  0
POINT
  5
19C9A
  8
DEFPOINTS
 62
     0
 10
66.5
 20
28.9
 30
0.0
  0
POINT
  5
19C9B
  8
DEFPOINTS
 62
     0
 10
66.5
 20
24.81298864319768
 30
0.0
  0
ENDBLK
  8
0
  0
BLOCK
  8
0
  2
*D6
 70
     1
 10
0.0
 20
0.0
 30
0.0
  0
LINE
  5
19C8A
  8
寸法線
 62
     0
 10
68.49999999999999
 20
28.275
 30
0.0
 11
68.49999999999999
 21
23.56298864319768
 31
0.0
  0
LINE
  5
19C8B
  8
寸法線
 62
     0
 10
103.5
 20
28.275
 30
0.0
 11
103.5
 21
23.56298864319768
 31
0.0
  0
LINE
  5
19C8C
  8
寸法線
 62
     0
 10
69.49999999999999
 20
24.81298864319768
 30
0.0
 11
102.5
 21
24.81298864319768
 31
0.0
  0
INSERT
  5
19C8D
  8
寸法線
 62
     0
  2
_OPEN30
 10
68.49999999999999
 20
24.81298864319768
 30
0.0
 50
180.0
  0
INSERT
  5
19C8E
  8
寸法線
 62
     0
  2
_OPEN30
 10
103.5
 20
24.81298864319768
 30
0.0
  0
TEXT
  5
19C8F
  8
寸法線
  6
CONTINUOUS
 62
     0
 10
84.57142857142857
 20
25.43798864319768
 30
0.0
 40
1.5
  1
35
  0
POINT
  5
19C90
  8
DEFPOINTS
 62
     0
 10
68.49999999999999
 20
28.9
 30
0.0
  0
POINT
  5
19C91
  8
DEFPOINTS
 62
     0
 10
103.5
 20
28.9
 30
0.0
  0
POINT
  5
19C92
  8
DEFPOINTS
 62
     0
 10
103.5
 20
24.81298864319768
 30
0.0
  0
ENDBLK
  8
0
  0
BLOCK
  8
0
  2
*D7
 70
     1
 10
0.0
 20
0.0
 30
0.0
  0
LINE
  5
19C9C
  8
寸法線
 62
     0
 10
30.875
 20
30.0
 30
0.0
 11
26.90811061733075
 21
30.0
 31
0.0
  0
LINE
  5
19C9D
  8
寸法線
 62
     0
 10
32.425
 20
35.0
 30
0.0
 11
26.90811061733075
 21
35.0
 31
0.0
  0
LINE
  5
19C9E
  8
寸法線
 62
     0
 10
28.15811061733075
 20
31.0
 30
0.0
 11
28.15811061733075
 21
34.0
 31
0.0
  0
INSERT
  5
19C9F
  8
寸法線
 62
     0
  2
_OPEN30
 10
28.15811061733075
 20
30.0
 30
0.0
 50
270.0
  0
INSERT
  5
19CA0
  8
寸法線
 62
     0
  2
_OPEN30
 10
28.15811061733075
 20
35.0
 30
0.0
 50
90.0
  0
TEXT
  5
19CA1
  8
寸法線
  6
CONTINUOUS
 62
     0
 10
27.53311061733074
 20
31.78571428571429
 30
0.0
 40
1.5
  1
5
 50
90.0
  0
POINT
  5
19CA2
  8
DEFPOINTS
 62
     0
 10
31.5
 20
30.0
 30
0.0
  0
POINT
  5
19CA3
  8
DEFPOINTS
 62
     0
 10
33.05
 20
35.0
 30
0.0
  0
POINT
  5
19CA4
  8
DEFPOINTS
 62
     0
 10
28.15811061733075
 20
35.0
 30
0.0
  0
ENDBLK
  8
0
  0
BLOCK
  8
0
  2
*D8
 70
     1
 10
0.0
 20
0.0
 30
0.0
  0
LINE
  5
19C81
  8
寸法線
 62
     0
 10
30.5
 20
31.125
 30
0.0
 11
30.5
 21
38.92920215701389
 31
0.0
  0
LINE
  5
19C82
  8
寸法線
 62
     0
 10
104.5
 20
31.125
 30
0.0
 11
104.5
 21
38.92920215701389
 31
0.0
  0
LINE
  5
19C83
  8
寸法線
 62
     0
 10
31.5
 20
37.67920215701389
 30
0.0
 11
103.5
 21
37.67920215701389
 31
0.0
  0
INSERT
  5
19C84
  8
寸法線
 62
     0
  2
_OPEN30
 10
30.5
 20
37.67920215701389
 30
0.0
 50
180.0
  0
INSERT
  5
19C85
  8
寸法線
 62
     0
  2
_OPEN30
 10
104.5
 20
37.67920215701389
 30
0.0
  0
TEXT
  5
19C86
  8
寸法線
  6
CONTINUOUS
 62
     0
 10
66.03571428571429
 20
38.30420215701389
 30
0.0
 40
1.5
  1
74
  0
POINT
  5
19C87
  8
DEFPOINTS
 62
     0
 10
30.5
 20
30.5
 30
0.0
  0
POINT
  5
19C88
  8
DEFPOINTS
 62
     0
 10
104.5
 20
30.5
 30
0.0
  0
POINT
  5
19C89
  8
DEFPOINTS
 62
     0
 10
104.5
 20
37.67920215701389
 30
0.0
  0
ENDBLK
  8
0
  0
BLOCK
  8
0
  2
*X9
 70
     1
 10
0.0
 20
0.0
 30
0.0
  0
TEXT
  5
1A02E
  8
寸法線
  6
CONTINUOUS
 62
     0
 10
61.29143052179256
 20
15.92182005329282
 30
0.0
 40
1.2
  1
両面ﾃｰﾌﾟ：EBISU両面テープ　＃703（35mm幅×２列）
  0
TEXT
  5
1A02F
  8
寸法線
  6
CONTINUOUS
 62
     0
 10
61.29143052179256
 20
13.92182005329282
 30
0.0
 40
1.2
  1
　　　　　もしくは相当品
  0
ENDBLK
  8
0
  0
BLOCK
  8
0
  2
*X10
 70
     1
 10
0.0
 20
0.0
 30
0.0
  0
INSERT
  5
1A031
  8
寸法線
 62
     0
  2
_OPEN30
 10
53.20471288976716
 20
28.9
 30
0.0
 50
116.4818695038314
  0
LINE
  5
1A032
  8
寸法線
 62
     0
 10
53.65062749032912
 20
28.00492448977437
 30
0.0
 11
61.11874315049499
 21
13.01432443648423
 31
0.0
  0
LINE
  5
1A033
  8
寸法線
 62
     0
 10
61.11874315049499
 20
13.01432443648423
 30
0.0
 11
104.625
 21
13.01432443648422
 31
0.0
  0
ENDBLK
  8
0
  0
BLOCK
  8
0
  2
*X11
 70
     1
 10
0.0
 20
0.0
 30
0.0
  0
INSERT
  5
1A035
  8
寸法線
 62
     0
  2
_OPEN30
 10
48.95
 20
35.0
 30
0.0
 50
292.6121026243289
  0
LINE
  5
1A036
  8
寸法線
 62
     0
 10
48.56550967562748
 20
35.92312902156953
 30
0.0
 11
43.55133486870398
 21
47.96174219355999
 31
0.0
  0
LINE
  5
1A037
  8
寸法線
 62
     0
 10
43.55133486870398
 20
47.96174219355999
 30
0.0
 11
30.5
 21
47.96174219355999
 31
0.0
  0
ENDBLK
  8
0
  0
BLOCK
  8
0
  2
*X12
 70
     1
 10
0.0
 20
0.0
 30
0.0
  0
TEXT
  5
1A073
  8
0
  6
CONTINUOUS
 10
73.84143553719757
 20
27.15676217863815
 30
0.0
 40
2.0
  1
（
  0
TEXT
  5
1A074
  8
0
  6
CONTINUOUS
 10
75.55572125148328
 20
27.15676217863815
 30
0.0
 40
2.5
  1
1：1）
  0
ENDBLK
  8
0
  0
BLOCK
  8
0
  2
*U13
 70
     1
 10
0.0
 20
0.0
 30
0.0
  0
SOLID
  5
1A076
  8
寸法線
  6
CONTINUOUS
 62
     0
 10
198.2906303248816
 20
11.85546137063682
 30
0.0
 11
198.2895761848212
 21
11.92613309372478
 31
0.0
 12
198.2906303248816
 22
11.99680481681846
 32
0.0
 13
198.2906303248816
 23
11.99680481681846
 33
0.0
  0
SOLID
  5
1A077
  8
寸法線
  6
CONTINUOUS
 62
     0
 10
198.2906303248816
 20
11.85546137063682
 30
0.0
 11
198.2906303248816
 21
11.99680481681274
 31
0.0
 12
198.2937922636175
 22
11.78482192462794
 32
0.0
 13
198.2937922636175
 23
11.78482192462794
 33
0.0
  0
SOLID
  5
1A078
  8
寸法線
  6
CONTINUOUS
 62
     0
 10
198.2937922636175
 20
11.78482192462794
 30
0.0
 11
198.2906303248816
 21
11.99680481681274
 31
0.0
 12
198.2937922636175
 22
12.06744426282099
 32
0.0
 13
198.2937922636175
 23
12.06744426282099
 33
0.0
  0
SOLID
  5
1A079
  8
寸法線
  6
CONTINUOUS
 62
     0
 10
198.2937922636175
 20
11.78482192462794
 30
0.0
 11
198.2937922636175
 21
12.06744426282163
 31
0.0
 12
198.2990605569133
 22
11.71424701803567
 32
0.0
 13
198.2990605569133
 23
11.71424701803567
 33
0.0
  0
SOLID
  5
1A07A
  8
寸法線
  6
CONTINUOUS
 62
     0
 10
198.2990605569133
 20
11.71424701803567
 30
0.0
 11
198.2937922636175
 21
12.06744426282163
 31
0.0
 12
198.2990605569133
 22
12.13801916941427
 32
0.0
 13
198.2990605569133
 23
12.13801916941427
 33
0.0
  0
SOLID
  5
1A07B
  8
寸法線
  6
CONTINUOUS
 62
     0
 10
198.2990605569133
 20
11.71424701803567
 30
0.0
 11
198.2990605569133
 21
12.13801916941389
 31
0.0
 12
198.3064327986422
 22
11.64376888372123
 32
0.0
 13
198.3064327986422
 23
11.64376888372123
 33
0.0
  0
SOLID
  5
1A07C
  8
寸法線
  6
CONTINUOUS
 62
     0
 10
198.3064327986422
 20
11.64376888372123
 30
0.0
 11
198.2990605569133
 21
12.13801916941389
 31
0.0
 12
198.3064327986422
 22
12.20849730372807
 32
0.0
 13
198.3064327986422
 23
12.20849730372807
 33
0.0
  0
SOLID
  5
1A07D
  8
寸法線
  6
CONTINUOUS
 62
     0
 10
198.3064327986422
 20
11.64376888372123
 30
0.0
 11
198.3064327986422
 21
12.20849730372834
 31
0.0
 12
198.3159056217655
 22
11.57341971034811
 32
0.0
 13
198.3159056217655
 23
11.57341971034811
 33
0.0
  0
SOLID
  5
1A07E
  8
寸法線
  6
CONTINUOUS
 62
     0
 10
198.3159056217655
 20
11.57341971034811
 30
0.0
 11
198.3064327986422
 21
12.20849730372834
 31
0.0
 12
198.3159056217655
 22
12.27884647710167
 32
0.0
 13
198.3159056217655
 23
12.27884647710167
 33
0.0
  0
SOLID
  5
1A07F
  8
寸法線
  6
CONTINUOUS
 62
     0
 10
198.3159056217655
 20
11.57341971034811
 30
0.0
 11
198.3159056217655
 21
12.27884647710146
 31
0.0
 12
198.3274746998702
 22
11.503231627681
 32
0.0
 13
198.3274746998702
 23
11.503231627681
 33
0.0
  0
SOLID
  5
1A080
  8
寸法線
  6
CONTINUOUS
 62
     0
 10
198.3274746998702
 20
11.503231627681
 30
0.0
 11
198.3159056217655
 21
12.27884647710146
 31
0.0
 12
198.3274746998702
 22
12.3490345597684
 32
0.0
 13
198.3274746998702
 23
12.3490345597684
 33
0.0
  0
SOLID
  5
1A081
  8
寸法線
  6
CONTINUOUS
 62
     0
 10
198.3274746998702
 20
11.503231627681
 30
0.0
 11
198.3274746998702
 21
12.34903455976857
 31
0.0
 12
198.3411347491451
 22
11.43323669191147
 32
0.0
 13
198.3411347491451
 23
11.43323669191147
 33
0.0
  0
SOLID
  5
1A082
  8
寸法線
  6
CONTINUOUS
 62
     0
 10
198.3411347491451
 20
11.43323669191147
 30
0.0
 11
198.3274746998702
 21
12.34903455976857
 31
0.0
 12
198.3411347491451
 22
12.41902949553825
 32
0.0
 13
198.3411347491451
 23
12.41902949553825
 33
0.0
  0
SOLID
  5
1A083
  8
寸法線
  6
CONTINUOUS
 62
     0
 10
198.3411347491451
 20
11.43323669191147
 30
0.0
 11
198.3411347491451
 21
12.4190294955381
 31
0.0
 12
198.3568795307936
 22
11.36346687101736
 32
0.0
 13
198.3568795307936
 23
11.36346687101736
 33
0.0
  0
SOLID
  5
1A084
  8
寸法線
  6
CONTINUOUS
 62
     0
 10
198.3568795307936
 20
11.36346687101736
 30
0.0
 11
198.3411347491451
 21
12.4190294955381
 31
0.0
 12
198.3568795307936
 22
12.48879931643209
 32
0.0
 13
198.3568795307936
 23
12.48879931643209
 33
0.0
  0
SOLID
  5
1A085
  8
寸法線
  6
CONTINUOUS
 62
     0
 10
198.3568795307936
 20
11.36346687101736
 30
0.0
 11
198.3568795307936
 21
12.48879931643221
 31
0.0
 12
198.3747018538838
 22
11.29395403016237
 32
0.0
 13
198.3747018538838
 23
11.29395403016237
 33
0.0
  0
SOLID
  5
1A086
  8
寸法線
  6
CONTINUOUS
 62
     0
 10
198.3747018538838
 20
11.29395403016237
 30
0.0
 11
198.3568795307936
 21
12.48879931643221
 31
0.0
 12
198.3747018538838
 22
12.5583121572872
 32
0.0
 13
198.3747018538838
 23
12.5583121572872
 33
0.0
  0
SOLID
  5
1A087
  8
寸法線
  6
CONTINUOUS
 62
     0
 10
198.3747018538838
 20
11.29395403016237
 30
0.0
 11
198.3747018538838
 21
12.5583121572872
 31
0.0
 12
198.394593578632
 22
11.22472991714271
 32
0.0
 13
198.394593578632
 23
11.22472991714271
 33
0.0
  0
SOLID
  5
1A088
  8
寸法線
  6
CONTINUOUS
 62
     0
 10
198.394593578632
 20
11.22472991714271
 30
0.0
 11
198.3747018538838
 21
12.5583121572872
 31
0.0
 12
198.394593578632
 22
12.62753627030686
 32
0.0
 13
198.394593578632
 23
12.62753627030686
 33
0.0
  0
SOLID
  5
1A089
  8
寸法線
  6
CONTINUOUS
 62
     0
 10
198.394593578632
 20
11.22472991714271
 30
0.0
 11
198.394593578632
 21
12.62753627030686
 31
0.0
 12
198.4165456201208
 22
11.15582614788724
 32
0.0
 13
198.4165456201208
 23
11.15582614788724
 33
0.0
  0
SOLID
  5
1A08A
  8
寸法線
  6
CONTINUOUS
 62
     0
 10
198.4165456201208
 20
11.15582614788724
 30
0.0
 11
198.394593578632
 21
12.62753627030686
 31
0.0
 12
198.4165456201208
 22
12.69644003956243
 32
0.0
 13
198.4165456201208
 23
12.69644003956243
 33
0.0
  0
SOLID
  5
1A08B
  8
寸法線
  6
CONTINUOUS
 62
     0
 10
198.4165456201208
 20
11.15582614788724
 30
0.0
 11
198.4165456201208
 21
12.69644003956234
 31
0.0
 12
198.440547952448
 22
11.08727419201791
 32
0.0
 13
198.440547952448
 23
11.08727419201791
 33
0.0
  0
SOLID
  5
1A08C
  8
寸法線
  6
CONTINUOUS
 62
     0
 10
198.440547952448
 20
11.08727419201791
 30
0.0
 11
198.4165456201208
 21
12.69644003956234
 31
0.0
 12
198.440547952448
 22
12.76499199543158
 32
0.0
 13
198.440547952448
 23
12.76499199543158
 33
0.0
  0
SOLID
  5
1A08D
  8
寸法線
  6
CONTINUOUS
 62
     0
 10
198.440547952448
 20
11.08727419201791
 30
0.0
 11
198.440547952448
 21
12.76499199543166
 31
0.0
 12
198.4665896133058
 22
11.01910535847704
 32
0.0
 13
198.4665896133058
 23
11.01910535847704
 33
0.0
  0
SOLID
  5
1A08E
  8
寸法線
  6
CONTINUOUS
 62
     0
 10
198.4665896133058
 20
11.01910535847704
 30
0.0
 11
198.440547952448
 21
12.76499199543166
 31
0.0
 12
198.4665896133058
 22
12.83316082897254
 32
0.0
 13
198.4665896133058
 23
12.83316082897254
 33
0.0
  0
SOLID
  5
1A08F
  8
寸法線
  6
CONTINUOUS
 62
     0
 10
198.4665896133058
 20
11.01910535847704
 30
0.0
 11
198.4665896133058
 21
12.83316082897254
 31
0.0
 12
198.4946587089876
 22
10.95135078122788
 32
0.0
 13
198.4946587089876
 23
10.95135078122788
 33
0.0
  0
SOLID
  5
1A090
  8
寸法線
  6
CONTINUOUS
 62
     0
 10
198.4946587089876
 20
10.95135078122788
 30
0.0
 11
198.4665896133058
 21
12.83316082897254
 31
0.0
 12
198.4946587089876
 22
12.90091540622169
 32
0.0
 13
198.4946587089876
 23
12.90091540622169
 33
0.0
  0
SOLID
  5
1A091
  8
寸法線
  6
CONTINUOUS
 62
     0
 10
198.4946587089876
 20
10.95135078122788
 30
0.0
 11
198.4946587089876
 21
12.90091540622169
 31
0.0
 12
198.5247424198198
 22
10.88404140503523
 32
0.0
 13
198.5247424198198
 23
10.88404140503523
 33
0.0
  0
SOLID
  5
1A092
  8
寸法線
  6
CONTINUOUS
 62
     0
 10
198.5247424198198
 20
10.88404140503523
 30
0.0
 11
198.4946587089876
 21
12.90091540622169
 31
0.0
 12
198.5247424198198
 22
12.96822478241435
 32
0.0
 13
198.5247424198198
 23
12.96822478241435
 33
0.0
  0
SOLID
  5
1A093
  8
寸法線
  6
CONTINUOUS
 62
     0
 10
198.5247424198198
 20
10.88404140503523
 30
0.0
 11
198.5247424198198
 21
12.96822478241435
 31
0.0
 12
198.5568270060169
 22
10.81720797133233
 32
0.0
 13
198.5568270060169
 23
10.81720797133233
 33
0.0
  0
SOLID
  5
1A094
  8
寸法線
  6
CONTINUOUS
 62
     0
 10
198.5568270060169
 20
10.81720797133233
 30
0.0
 11
198.5247424198198
 21
12.96822478241435
 31
0.0
 12
198.5568270060169
 22
13.03505821611724
 32
0.0
 13
198.5568270060169
 23
13.03505821611724
 33
0.0
  0
SOLID
  5
1A095
  8
寸法線
  6
CONTINUOUS
 62
     0
 10
198.5568270060169
 20
10.81720797133233
 30
0.0
 11
198.5568270060169
 21
13.03505821611724
 31
0.0
 12
198.5908978139568
 22
10.75088100418073
 32
0.0
 13
198.5908978139568
 23
10.75088100418073
 33
0.0
  0
SOLID
  5
1A096
  8
寸法線
  6
CONTINUOUS
 62
     0
 10
198.5908978139568
 20
10.75088100418073
 30
0.0
 11
198.5568270060169
 21
13.03505821611724
 31
0.0
 12
198.5908978139568
 22
13.10138518326879
 32
0.0
 13
198.5908978139568
 23
13.10138518326879
 33
0.0
  0
SOLID
  5
1A097
  8
寸法線
  6
CONTINUOUS
 62
     0
 10
198.5908978139568
 20
10.75088100418073
 30
0.0
 11
198.5908978139568
 21
13.10138518326885
 31
0.0
 12
198.6269392828732
 22
10.68509079632934
 32
0.0
 13
198.6269392828732
 23
10.68509079632934
 33
0.0
  0
SOLID
  5
1A098
  8
寸法線
  6
CONTINUOUS
 62
     0
 10
198.6269392828732
 20
10.68509079632934
 30
0.0
 11
198.5908978139568
 21
13.10138518326885
 31
0.0
 12
198.6269392828732
 22
13.16717539112029
 32
0.0
 13
198.6269392828732
 23
13.16717539112029
 33
0.0
  0
SOLID
  5
1A099
  8
寸法線
  6
CONTINUOUS
 62
     0
 10
198.6269392828732
 20
10.68509079632934
 30
0.0
 11
198.6269392828732
 21
13.16717539112024
 31
0.0
 12
198.6649349519627
 22
10.61986739537923
 32
0.0
 13
198.6649349519627
 23
10.61986739537923
 33
0.0
  0
SOLID
  5
1A09A
  8
寸法線
  6
CONTINUOUS
 62
     0
 10
198.6649349519627
 20
10.61986739537923
 30
0.0
 11
198.6269392828732
 21
13.16717539112024
 31
0.0
 12
198.6649349519627
 22
13.23239879207035
 32
0.0
 13
198.6649349519627
 23
13.23239879207035
 33
0.0
  0
SOLID
  5
1A09B
  8
寸法線
  6
CONTINUOUS
 62
     0
 10
198.6649349519627
 20
10.61986739537923
 30
0.0
 11
198.6649349519627
 21
13.23239879207035
 31
0.0
 12
198.7048674679027
 22
10.55524059006029
 32
0.0
 13
198.7048674679027
 23
10.55524059006029
 33
0.0
  0
SOLID
  5
1A09C
  8
寸法線
  6
CONTINUOUS
 62
     0
 10
198.7048674679027
 20
10.55524059006029
 30
0.0
 11
198.6649349519627
 21
13.23239879207035
 31
0.0
 12
198.7048674679027
 22
13.29702559738924
 32
0.0
 13
198.7048674679027
 23
13.29702559738924
 33
0.0
  0
SOLID
  5
1A09D
  8
寸法線
  6
CONTINUOUS
 62
     0
 10
198.7048674679027
 20
10.55524059006029
 30
0.0
 11
198.7048674679027
 21
13.29702559738929
 31
0.0
 12
198.7467185927767
 22
10.49123989662619
 32
0.0
 13
198.7467185927767
 23
10.49123989662619
 33
0.0
  0
SOLID
  5
1A09E
  8
寸法線
  6
CONTINUOUS
 62
     0
 10
198.7467185927767
 20
10.49123989662619
 30
0.0
 11
198.7048674679027
 21
13.29702559738929
 31
0.0
 12
198.7467185927767
 22
13.36102629082343
 32
0.0
 13
198.7467185927767
 23
13.36102629082343
 33
0.0
  0
SOLID
  5
1A09F
  8
寸法線
  6
CONTINUOUS
 62
     0
 10
198.7467185927767
 20
10.49123989662619
 30
0.0
 11
198.7467185927767
 21
13.36102629082339
 31
0.0
 12
198.7904692124044
 22
10.42789454537375
 32
0.0
 13
198.7904692124044
 23
10.42789454537375
 33
0.0
  0
SOLID
  5
1A0A0
  8
寸法線
  6
CONTINUOUS
 62
     0
 10
198.7904692124044
 20
10.42789454537375
 30
0.0
 11
198.7467185927767
 21
13.36102629082339
 31
0.0
 12
198.7904692124044
 22
13.42437164207583
 32
0.0
 13
198.7904692124044
 23
13.42437164207583
 33
0.0
  0
SOLID
  5
1A0A1
  8
寸法線
  6
CONTINUOUS
 62
     0
 10
198.7904692124044
 20
10.42789454537375
 30
0.0
 11
198.7904692124044
 21
13.42437164207583
 31
0.0
 12
198.8360993450709
 22
10.36523346729294
 32
0.0
 13
198.8360993450709
 23
10.36523346729294
 33
0.0
  0
SOLID
  5
1A0A2
  8
寸法線
  6
CONTINUOUS
 62
     0
 10
198.8360993450709
 20
10.36523346729294
 30
0.0
 11
198.7904692124044
 21
13.42437164207583
 31
0.0
 12
198.8360993450709
 22
13.48703272015665
 32
0.0
 13
198.8360993450709
 23
13.48703272015665
 33
0.0
  0
SOLID
  5
1A0A3
  8
寸法線
  6
CONTINUOUS
 62
     0
 10
198.8360993450709
 20
10.36523346729294
 30
0.0
 11
198.8360993450709
 21
13.48703272015665
 31
0.0
 12
198.8835881506534
 22
10.30328528085354
 32
0.0
 13
198.8835881506534
 23
10.30328528085354
 33
0.0
  0
SOLID
  5
1A0A4
  8
寸法線
  6
CONTINUOUS
 62
     0
 10
198.8835881506534
 20
10.30328528085354
 30
0.0
 11
198.8360993450709
 21
13.48703272015665
 31
0.0
 12
198.8835881506534
 22
13.54898090659604
 32
0.0
 13
198.8835881506534
 23
13.54898090659604
 33
0.0
  0
SOLID
  5
1A0A5
  8
寸法線
  6
CONTINUOUS
 62
     0
 10
198.8835881506534
 20
10.30328528085354
 30
0.0
 11
198.8835881506534
 21
13.54898090659604
 31
0.0
 12
198.9329139401386
 22
10.2420782789346
 32
0.0
 13
198.9329139401386
 23
10.2420782789346
 33
0.0
  0
SOLID
  5
1A0A6
  8
寸法線
  6
CONTINUOUS
 62
     0
 10
198.9329139401386
 20
10.2420782789346
 30
0.0
 11
198.8835881506534
 21
13.54898090659604
 31
0.0
 12
198.9329139401386
 22
13.61018790851495
 32
0.0
 13
198.9329139401386
 23
13.61018790851495
 33
0.0
  0
SOLID
  5
1A0A7
  8
寸法線
  6
CONTINUOUS
 62
     0
 10
198.9329139401386
 20
10.2420782789346
 30
0.0
 11
198.9329139401386
 21
13.61018790851498
 31
0.0
 12
198.984054185529
 22
10.18164041590251
 32
0.0
 13
198.984054185529
 23
10.18164041590251
 33
0.0
  0
SOLID
  5
1A0A8
  8
寸法線
  6
CONTINUOUS
 62
     0
 10
198.984054185529
 20
10.18164041590251
 30
0.0
 11
198.9329139401386
 21
13.61018790851498
 31
0.0
 12
198.984054185529
 22
13.67062577154711
 32
0.0
 13
198.984054185529
 23
13.67062577154711
 33
0.0
  0
SOLID
  5
1A0A9
  8
寸法線
  6
CONTINUOUS
 62
     0
 10
198.984054185529
 20
10.18164041590251
 30
0.0
 11
198.984054185529
 21
13.67062577154708
 31
0.0
 12
199.0369855301315
 22
10.12199929484375
 32
0.0
 13
199.0369855301315
 23
10.12199929484375
 33
0.0
  0
SOLID
  5
1A0AA
  8
寸法線
  6
CONTINUOUS
 62
     0
 10
199.0369855301315
 20
10.12199929484375
 30
0.0
 11
198.984054185529
 21
13.67062577154708
 31
0.0
 12
199.0369855301315
 22
13.73026689260581
 32
0.0
 13
199.0369855301315
 23
13.73026689260581
 33
0.0
  0
SOLID
  5
1A0AB
  8
寸法線
  6
CONTINUOUS
 62
     0
 10
199.0369855301315
 20
10.12199929484375
 30
0.0
 11
199.0369855301315
 21
13.73026689260584
 31
0.0
 12
199.0916837992249
 22
10.06318215495805
 32
0.0
 13
199.0916837992249
 23
10.06318215495805
 33
0.0
  0
SOLID
  5
1A0AC
  8
寸法線
  6
CONTINUOUS
 62
     0
 10
199.0916837992249
 20
10.06318215495805
 30
0.0
 11
199.0369855301315
 21
13.73026689260584
 31
0.0
 12
199.0916837992249
 22
13.78908403249157
 32
0.0
 13
199.0916837992249
 23
13.78908403249157
 33
0.0
  0
SOLID
  5
1A0AD
  8
寸法線
  6
CONTINUOUS
 62
     0
 10
199.0916837992249
 20
10.06318215495805
 30
0.0
 11
199.0916837992249
 21
13.78908403249154
 31
0.0
 12
199.1481240111013
 22
10.00521585911776
 32
0.0
 13
199.1481240111013
 23
10.00521585911776
 33
0.0
  0
SOLID
  5
1A0AE
  8
寸法線
  6
CONTINUOUS
 62
     0
 10
199.1481240111013
 20
10.00521585911776
 30
0.0
 11
199.0916837992249
 21
13.78908403249154
 31
0.0
 12
199.1481240111013
 22
13.84705032833183
 32
0.0
 13
199.1481240111013
 23
13.84705032833183
 33
0.0
  0
SOLID
  5
1A0AF
  8
寸法線
  6
CONTINUOUS
 62
     0
 10
199.1481240111013
 20
10.00521585911776
 30
0.0
 11
199.1481240111013
 21
13.84705032833183
 31
0.0
 12
199.206280388475
 22
9.94812688159904
 32
0.0
 13
199.206280388475
 23
9.94812688159904
 33
0.0
  0
SOLID
  5
1A0B0
  8
寸法線
  6
CONTINUOUS
 62
     0
 10
199.206280388475
 20
9.94812688159904
 30
0.0
 11
199.1481240111013
 21
13.84705032833183
 31
0.0
 12
199.206280388475
 22
13.90413930585052
 32
0.0
 13
199.206280388475
 23
13.90413930585052
 33
0.0
  0
SOLID
  5
1A0B1
  8
寸法線
  6
CONTINUOUS
 62
     0
 10
199.206280388475
 20
9.94812688159904
 30
0.0
 11
199.206280388475
 21
13.90413930585055
 31
0.0
 12
199.2661263702563
 22
9.891941295990616
 32
0.0
 13
199.2661263702563
 23
9.891941295990616
 33
0.0
  0
SOLID
  5
1A0B2
  8
寸法線
  6
CONTINUOUS
 62
     0
 10
199.2661263702563
 20
9.891941295990616
 30
0.0
 11
199.206280388475
 21
13.90413930585055
 31
0.0
 12
199.2661263702563
 22
13.96032489145897
 32
0.0
 13
199.2661263702563
 23
13.96032489145897
 33
0.0
  0
SOLID
  5
1A0B3
  8
寸法線
  6
CONTINUOUS
 62
     0
 10
199.2661263702563
 20
9.891941295990616
 30
0.0
 11
199.2661263702563
 21
13.96032489145897
 31
0.0
 12
199.3276346236816
 22
9.836684763285461
 32
0.0
 13
199.3276346236816
 23
9.836684763285461
 33
0.0
  0
SOLID
  5
1A0B4
  8
寸法線
  6
CONTINUOUS
 62
     0
 10
199.3276346236816
 20
9.836684763285461
 30
0.0
 11
199.2661263702563
 21
13.96032489145897
 31
0.0
 12
199.3276346236816
 22
14.01558142416413
 32
0.0
 13
199.3276346236816
 23
14.01558142416413
 33
0.0
  0
SOLID
  5
1A0B5
  8
寸法線
  6
CONTINUOUS
 62
     0
 10
199.3276346236816
 20
9.836684763285461
 30
0.0
 11
199.3276346236816
 21
14.01558142416413
 31
0.0
 12
199.3907770567975
 22
9.782382520160958
 32
0.0
 13
199.3907770567975
 23
9.782382520160958
 33
0.0
  0
SOLID
  5
1A0B6
  8
寸法線
  6
CONTINUOUS
 62
     0
 10
199.3907770567975
 20
9.782382520160958
 30
0.0
 11
199.3276346236816
 21
14.01558142416413
 31
0.0
 12
199.3907770567975
 22
14.06988366728863
 32
0.0
 13
199.3907770567975
 23
14.06988366728863
 33
0.0
  0
SOLID
  5
1A0B7
  8
寸法線
  6
CONTINUOUS
 62
     0
 10
199.3907770567975
 20
9.782382520160958
 30
0.0
 11
199.3907770567975
 21
14.06988366728863
 31
0.0
 12
199.4555248312905
 22
9.729059367452843
 32
0.0
 13
199.4555248312905
 23
9.729059367452843
 33
0.0
  0
SOLID
  5
1A0B8
  8
寸法線
  6
CONTINUOUS
 62
     0
 10
199.4555248312905
 20
9.729059367452843
 30
0.0
 11
199.3907770567975
 21
14.06988366728863
 31
0.0
 12
199.4555248312905
 22
14.12320681999677
 32
0.0
 13
199.4555248312905
 23
14.12320681999677
 33
0.0
  0
SOLID
  5
1A0B9
  8
寸法線
  6
CONTINUOUS
 62
     0
 10
199.4555248312905
 20
9.729059367452843
 30
0.0
 11
199.4555248312905
 21
14.12320681999675
 31
0.0
 12
199.521848375658
 22
9.6767396588282
 32
0.0
 13
199.521848375658
 23
9.6767396588282
 33
0.0
  0
SOLID
  5
1A0BA
  8
寸法線
  6
CONTINUOUS
 62
     0
 10
199.521848375658
 20
9.6767396588282
 30
0.0
 11
199.4555248312905
 21
14.12320681999675
 31
0.0
 12
199.521848375658
 22
14.17552652862136
 32
0.0
 13
199.521848375658
 23
14.17552652862136
 33
0.0
  0
SOLID
  5
1A0BB
  8
寸法線
  6
CONTINUOUS
 62
     0
 10
199.521848375658
 20
9.6767396588282
 30
0.0
 11
199.521848375658
 21
14.17552652862139
 31
0.0
 12
199.5897173987144
 22
9.625447289662706
 32
0.0
 13
199.5897173987144
 23
9.625447289662706
 33
0.0
  0
SOLID
  5
1A0BC
  8
寸法線
  6
CONTINUOUS
 62
     0
 10
199.5897173987144
 20
9.625447289662706
 30
0.0
 11
199.521848375658
 21
14.17552652862139
 31
0.0
 12
199.5897173987144
 22
14.2268188977869
 32
0.0
 13
199.5897173987144
 23
14.2268188977869
 33
0.0
  0
SOLID
  5
1A0BD
  8
寸法線
  6
CONTINUOUS
 62
     0
 10
199.5897173987144
 20
9.625447289662706
 30
0.0
 11
199.5897173987144
 21
14.22681889778688
 31
0.0
 12
199.6591009034254
 22
9.575205686127156
 32
0.0
 13
199.6591009034254
 23
9.575205686127156
 33
0.0
  0
SOLID
  5
1A0BE
  8
寸法線
  6
CONTINUOUS
 62
     0
 10
199.6591009034254
 20
9.575205686127156
 30
0.0
 11
199.5897173987144
 21
14.22681889778688
 31
0.0
 12
199.6591009034254
 22
14.27706050132241
 32
0.0
 13
199.6591009034254
 23
14.27706050132241
 33
0.0
  0
SOLID
  5
1A0BF
  8
寸法線
  6
CONTINUOUS
 62
     0
 10
199.6591009034254
 20
9.575205686127156
 30
0.0
 11
199.6591009034254
 21
14.27706050132243
 31
0.0
 12
199.7156119464588
 22
9.53599764319543
 32
0.0
 13
199.7156119464588
 23
9.53599764319543
 33
0.0
  0
SOLID
  5
1A0C0
  8
寸法線
  6
CONTINUOUS
 62
     0
 10
199.7156119464588
 20
9.53599764319543
 30
0.0
 11
199.6591009034254
 21
14.27706050132243
 31
0.0
 12
199.7156119464588
 22
14.31626854425418
 32
0.0
 13
199.7156119464588
 23
14.31626854425418
 33
0.0
  0
SOLID
  5
1A0C1
  8
寸法線
  6
CONTINUOUS
 62
     0
 10
199.7156119464588
 20
9.53599764319543
 30
0.0
 11
199.7156119464588
 21
11.92613309372478
 31
0.0
 12
199.7299672010649
 22
9.52603779448831
 32
0.0
 13
199.7299672010649
 23
9.52603779448831
 33
0.0
  0
SOLID
  5
1A0C2
  8
寸法線
  6
CONTINUOUS
 62
     0
 10
199.7299672010649
 20
9.52603779448831
 30
0.0
 11
199.7156119464588
 21
11.92613309372478
 31
0.0
 12
199.7299672010649
 22
11.78038174775092
 32
0.0
 13
199.7299672010649
 23
11.78038174775092
 33
0.0
  0
SOLID
  5
1A0C3
  8
寸法線
  6
CONTINUOUS
 62
     0
 10
199.7156119464588
 20
11.92613309372478
 30
0.0
 11
199.7156119464588
 21
14.31626854425418
 31
0.0
 12
199.7299672010649
 22
12.07188443969864
 32
0.0
 13
199.7299672010649
 23
12.07188443969864
 33
0.0
  0
SOLID
  5
1A0C4
  8
寸法線
  6
CONTINUOUS
 62
     0
 10
199.7299672010649
 20
12.07188443969864
 30
0.0
 11
199.7156119464588
 21
14.31626854425418
 31
0.0
 12
199.7299672010649
 22
14.3262283929613
 32
0.0
 13
199.7299672010649
 23
14.3262283929613
 33
0.0
  0
SOLID
  5
1A0C5
  8
寸法線
  6
CONTINUOUS
 62
     0
 10
199.7299672010649
 20
9.52603779448831
 30
0.0
 11
199.7299672010649
 21
11.78038174775092
 31
0.0
 12
199.7769090674459
 22
9.494833720328845
 32
0.0
 13
199.7769090674459
 23
9.494833720328845
 33
0.0
  0
SOLID
  5
1A0C6
  8
寸法線
  6
CONTINUOUS
 62
     0
 10
199.7769090674459
 20
9.494833720328845
 30
0.0
 11
199.7299672010649
 21
11.78038174775092
 31
0.0
 12
199.7769090674459
 22
11.30377298007196
 32
0.0
 13
199.7769090674459
 23
11.30377298007196
 33
0.0
  0
SOLID
  5
1A0C7
  8
寸法線
  6
CONTINUOUS
 62
     0
 10
199.7299672010649
 20
12.07188443969864
 30
0.0
 11
199.7299672010649
 21
14.32622839296128
 31
0.0
 12
199.7769090674459
 22
12.54849320737759
 32
0.0
 13
199.7769090674459
 23
12.54849320737759
 33
0.0
  0
SOLID
  5
1A0C8
  8
寸法線
  6
CONTINUOUS
 62
     0
 10
199.7769090674459
 20
12.54849320737759
 30
0.0
 11
199.7299672010649
 21
14.32622839296128
 31
0.0
 12
199.7769090674459
 22
14.35743246712073
 32
0.0
 13
199.7769090674459
 23
14.35743246712073
 33
0.0
  0
SOLID
  5
1A0C9
  8
寸法線
  6
CONTINUOUS
 62
     0
 10
199.7769090674459
 20
9.494833720328845
 30
0.0
 11
199.7769090674459
 21
11.30377298007196
 31
0.0
 12
199.8022839256882
 22
9.477966070628904
 32
0.0
 13
199.8022839256882
 23
9.477966070628904
 33
0.0
  0
SOLID
  5
1A0CA
  8
寸法線
  6
CONTINUOUS
 62
     0
 10
199.8022839256882
 20
9.477966070628904
 30
0.0
 11
199.7769090674459
 21
11.30377298007196
 31
0.0
 12
199.8022839256882
 22
11.2201232828329
 32
0.0
 13
199.8022839256882
 23
11.2201232828329
 33
0.0
  0
SOLID
  5
1A0CB
  8
寸法線
  6
CONTINUOUS
 62
     0
 10
199.7769090674459
 20
12.54849320737759
 30
0.0
 11
199.7769090674459
 21
14.35743246712073
 31
0.0
 12
199.8022839256882
 22
12.63214290461666
 32
0.0
 13
199.8022839256882
 23
12.63214290461666
 33
0.0
  0
SOLID
  5
1A0CC
  8
寸法線
  6
CONTINUOUS
 62
     0
 10
199.8022839256882
 20
12.63214290461666
 30
0.0
 11
199.7769090674459
 21
14.35743246712073
 31
0.0
 12
199.8022839256882
 22
14.37430011682067
 32
0.0
 13
199.8022839256882
 23
14.37430011682067
 33
0.0
  0
SOLID
  5
1A0CD
  8
寸法線
  6
CONTINUOUS
 62
     0
 10
199.8022839256882
 20
9.477966070628904
 30
0.0
 11
199.8022839256882
 21
11.2201232828329
 31
0.0
 12
199.8760180489135
 22
9.431012469791636
 32
0.0
 13
199.8760180489135
 23
9.431012469791636
 33
0.0
  0
SOLID
  5
1A0CE
  8
寸法線
  6
CONTINUOUS
 62
     0
 10
199.8760180489135
 20
9.431012469791636
 30
0.0
 11
199.8022839256882
 21
11.2201232828329
 31
0.0
 12
199.8760180489135
 22
10.97705445363547
 32
0.0
 13
199.8760180489135
 23
10.97705445363547
 33
0.0
  0
SOLID
  5
1A0CF
  8
寸法線
  6
CONTINUOUS
 62
     0
 10
199.8022839256882
 20
12.63214290461666
 30
0.0
 11
199.8022839256882
 21
14.37430011682069
 31
0.0
 12
199.8760180489135
 22
12.87521173381409
 32
0.0
 13
199.8760180489135
 23
12.87521173381409
 33
0.0
  0
SOLID
  5
1A0D0
  8
寸法線
  6
CONTINUOUS
 62
     0
 10
199.8760180489135
 20
12.87521173381409
 30
0.0
 11
199.8022839256882
 21
14.37430011682069
 31
0.0
 12
199.8760180489135
 22
14.42125371765795
 32
0.0
 13
199.8760180489135
 23
14.42125371765795
 33
0.0
  0
SOLID
  5
1A0D1
  8
寸法線
  6
CONTINUOUS
 62
     0
 10
199.8760180489135
 20
9.431012469791636
 30
0.0
 11
199.8760180489135
 21
10.97705445363547
 31
0.0
 12
199.9511358950073
 22
9.385198436551807
 32
0.0
 13
199.9511358950073
 23
9.385198436551807
 33
0.0
  0
SOLID
  5
1A0D2
  8
寸法線
  6
CONTINUOUS
 62
     0
 10
199.9511358950073
 20
9.385198436551807
 30
0.0
 11
199.8760180489135
 21
10.97705445363547
 31
0.0
 12
199.9511358950073
 22
10.72942410145728
 32
0.0
 13
199.9511358950073
 23
10.72942410145728
 33
0.0
  0
SOLID
  5
1A0D3
  8
寸法線
  6
CONTINUOUS
 62
     0
 10
199.8760180489135
 20
12.87521173381409
 30
0.0
 11
199.8760180489135
 21
14.42125371765795
 31
0.0
 12
199.9511358950073
 22
13.12284208599227
 32
0.0
 13
199.9511358950073
 23
13.12284208599227
 33
0.0
  0
SOLID
  5
1A0D4
  8
寸法線
  6
CONTINUOUS
 62
     0
 10
199.9511358950073
 20
13.12284208599227
 30
0.0
 11
199.8760180489135
 21
14.42125371765795
 31
0.0
 12
199.9511358950073
 22
14.46706775089778
 32
0.0
 13
199.9511358950073
 23
14.46706775089778
 33
0.0
  0
SOLID
  5
1A0D5
  8
寸法線
  6
CONTINUOUS
 62
     0
 10
199.9511358950073
 20
9.385198436551807
 30
0.0
 11
199.9511358950073
 21
10.72942410145728
 31
0.0
 12
199.9584448164238
 22
9.380930345598411
 32
0.0
 13
199.9584448164238
 23
9.380930345598411
 33
0.0
  0
SOLID
  5
1A0D6
  8
寸法線
  6
CONTINUOUS
 62
     0
 10
199.9584448164238
 20
9.380930345598411
 30
0.0
 11
199.9511358950073
 21
10.72942410145728
 31
0.0
 12
199.9584448164238
 22
10.70532981656325
 32
0.0
 13
199.9584448164238
 23
10.70532981656325
 33
0.0
  0
SOLID
  5
1A0D7
  8
寸法線
  6
CONTINUOUS
 62
     0
 10
199.9511358950073
 20
13.12284208599227
 30
0.0
 11
199.9511358950073
 21
14.46706775089778
 31
0.0
 12
199.9584448164238
 22
13.1469363708863
 32
0.0
 13
199.9584448164238
 23
13.1469363708863
 33
0.0
  0
SOLID
  5
1A0D8
  8
寸法線
  6
CONTINUOUS
 62
     0
 10
199.9584448164238
 20
13.1469363708863
 30
0.0
 11
199.9511358950073
 21
14.46706775089778
 31
0.0
 12
199.9584448164238
 22
14.47133584185118
 32
0.0
 13
199.9584448164238
 23
14.47133584185118
 33
0.0
  0
SOLID
  5
1A0D9
  8
寸法線
  6
CONTINUOUS
 62
     0
 10
199.9584448164238
 20
9.380930345598411
 30
0.0
 11
199.9584448164238
 21
10.70532981656325
 31
0.0
 12
200.0276031562641
 22
9.340544895023179
 32
0.0
 13
200.0276031562641
 23
9.340544895023179
 33
0.0
  0
SOLID
  5
1A0DA
  8
寸法線
  6
CONTINUOUS
 62
     0
 10
200.0276031562641
 20
9.340544895023179
 30
0.0
 11
199.9584448164238
 21
10.70532981656325
 31
0.0
 12
200.0276031562641
 22
10.57594366314429
 32
0.0
 13
200.0276031562641
 23
10.57594366314429
 33
0.0
  0
SOLID
  5
1A0DB
  8
寸法線
  6
CONTINUOUS
 62
     0
 10
199.9584448164238
 20
13.1469363708863
 30
0.0
 11
199.9584448164238
 21
14.47133584185118
 31
0.0
 12
200.0276031562641
 22
13.27632252430527
 32
0.0
 13
200.0276031562641
 23
13.27632252430527
 33
0.0
  0
SOLID
  5
1A0DC
  8
寸法線
  6
CONTINUOUS
 62
     0
 10
200.0276031562641
 20
13.27632252430527
 30
0.0
 11
199.9584448164238
 21
14.47133584185118
 31
0.0
 12
200.0276031562641
 22
14.51172129242641
 32
0.0
 13
200.0276031562641
 23
14.51172129242641
 33
0.0
  0
SOLID
  5
1A0DD
  8
寸法線
  6
CONTINUOUS
 62
     0
 10
200.0276031562641
 20
9.340544895023179
 30
0.0
 11
200.0276031562641
 21
10.57594366314429
 31
0.0
 12
200.1053849086756
 22
9.297072239301553
 32
0.0
 13
200.1053849086756
 23
9.297072239301553
 33
0.0
  0
SOLID
  5
1A0DE
  8
寸法線
  6
CONTINUOUS
 62
     0
 10
200.1053849086756
 20
9.297072239301553
 30
0.0
 11
200.0276031562641
 21
10.57594366314429
 31
0.0
 12
200.1053849086756
 22
10.43042423954397
 32
0.0
 13
200.1053849086756
 23
10.43042423954397
 33
0.0
  0
SOLID
  5
1A0DF
  8
寸法線
  6
CONTINUOUS
 62
     0
 10
200.0276031562641
 20
13.27632252430527
 30
0.0
 11
200.0276031562641
 21
14.51172129242641
 31
0.0
 12
200.1053849086756
 22
13.42184194790559
 32
0.0
 13
200.1053849086756
 23
13.42184194790559
 33
0.0
  0
SOLID
  5
1A0E0
  8
寸法線
  6
CONTINUOUS
 62
     0
 10
200.1053849086756
 20
13.42184194790559
 30
0.0
 11
200.0276031562641
 21
14.51172129242641
 31
0.0
 12
200.1053849086756
 22
14.55519394814804
 32
0.0
 13
200.1053849086756
 23
14.55519394814804
 33
0.0
  0
SOLID
  5
1A0E1
  8
寸法線
  6
CONTINUOUS
 62
     0
 10
200.1053849086756
 20
9.297072239301553
 30
0.0
 11
200.1053849086756
 21
10.43042423954397
 31
0.0
 12
200.1844456278813
 22
9.254800324150404
 32
0.0
 13
200.1844456278813
 23
9.254800324150404
 33
0.0
  0
SOLID
  5
1A0E2
  8
寸法線
  6
CONTINUOUS
 62
     0
 10
200.1844456278813
 20
9.254800324150404
 30
0.0
 11
200.1053849086756
 21
10.43042423954397
 31
0.0
 12
200.1844456278813
 22
10.28251203736867
 32
0.0
 13
200.1844456278813
 23
10.28251203736867
 33
0.0
  0
SOLID
  5
1A0E3
  8
寸法線
  6
CONTINUOUS
 62
     0
 10
200.1053849086756
 20
13.42184194790559
 30
0.0
 11
200.1053849086756
 21
14.55519394814804
 31
0.0
 12
200.1844456278813
 22
13.56975415008089
 32
0.0
 13
200.1844456278813
 23
13.56975415008089
 33
0.0
  0
SOLID
  5
1A0E4
  8
寸法線
  6
CONTINUOUS
 62
     0
 10
200.1844456278813
 20
13.56975415008089
 30
0.0
 11
200.1053849086756
 21
14.55519394814804
 31
0.0
 12
200.1844456278813
 22
14.59746586329918
 32
0.0
 13
200.1844456278813
 23
14.59746586329918
 33
0.0
  0
SOLID
  5
1A0E5
  8
寸法線
  6
CONTINUOUS
 62
     0
 10
200.1844456278813
 20
9.254800324150404
 30
0.0
 11
200.1844456278813
 21
10.28251203736867
 31
0.0
 12
200.2532428763655
 22
9.219630588678811
 32
0.0
 13
200.2532428763655
 23
9.219630588678811
 33
0.0
  0
SOLID
  5
1A0E6
  8
寸法線
  6
CONTINUOUS
 62
     0
 10
200.2532428763655
 20
9.219630588678811
 30
0.0
 11
200.1844456278813
 21
10.28251203736867
 31
0.0
 12
200.2532428763655
 22
10.15380143836149
 32
0.0
 13
200.2532428763655
 23
10.15380143836149
 33
0.0
  0
SOLID
  5
1A0E7
  8
寸法線
  6
CONTINUOUS
 62
     0
 10
200.1844456278813
 20
13.56975415008089
 30
0.0
 11
200.1844456278813
 21
14.59746586329918
 31
0.0
 12
200.2532428763655
 22
13.69846474908806
 32
0.0
 13
200.2532428763655
 23
13.69846474908806
 33
0.0
  0
SOLID
  5
1A0E8
  8
寸法線
  6
CONTINUOUS
 62
     0
 10
200.2532428763655
 20
13.69846474908806
 30
0.0
 11
200.1844456278813
 21
14.59746586329918
 31
0.0
 12
200.2532428763655
 22
14.63263559877078
 32
0.0
 13
200.2532428763655
 23
14.63263559877078
 33
0.0
  0
SOLID
  5
1A0E9
  8
寸法線
  6
CONTINUOUS
 62
     0
 10
200.2532428763655
 20
9.219630588678811
 30
0.0
 11
200.2532428763655
 21
10.15380143836149
 31
0.0
 12
200.2647492053929
 22
9.21374845593285
 32
0.0
 13
200.2647492053929
 23
9.21374845593285
 33
0.0
  0
SOLID
  5
1A0EA
  8
寸法線
  6
CONTINUOUS
 62
     0
 10
200.2647492053929
 20
9.21374845593285
 30
0.0
 11
200.2532428763655
 21
10.15380143836149
 31
0.0
 12
200.2647492053929
 22
10.13978093587509
 32
0.0
 13
200.2647492053929
 23
10.13978093587509
 33
0.0
  0
SOLID
  5
1A0EB
  8
寸法線
  6
CONTINUOUS
 62
     0
 10
200.2532428763655
 20
13.69846474908806
 30
0.0
 11
200.2532428763655
 21
14.63263559877078
 31
0.0
 12
200.2647492053929
 22
13.71248525157447
 32
0.0
 13
200.2647492053929
 23
13.71248525157447
 33
0.0
  0
SOLID
  5
1A0EC
  8
寸法線
  6
CONTINUOUS
 62
     0
 10
200.2647492053929
 20
13.71248525157447
 30
0.0
 11
200.2532428763655
 21
14.63263559877078
 31
0.0
 12
200.2647492053929
 22
14.63851773151674
 32
0.0
 13
200.2647492053929
 23
14.63851773151674
 33
0.0
  0
SOLID
  5
1A0ED
  8
寸法線
  6
CONTINUOUS
 62
     0
 10
200.2647492053929
 20
9.21374845593285
 30
0.0
 11
200.2647492053929
 21
10.13978093587509
 31
0.0
 12
200.3462589650858
 22
9.173935383794078
 32
0.0
 13
200.3462589650858
 23
9.173935383794078
 33
0.0
  0
SOLID
  5
1A0EE
  8
寸法線
  6
CONTINUOUS
 62
     0
 10
200.3462589650858
 20
9.173935383794078
 30
0.0
 11
200.2647492053929
 21
10.13978093587509
 31
0.0
 12
200.3462589650858
 22
10.04046100631948
 32
0.0
 13
200.3462589650858
 23
10.04046100631948
 33
0.0
  0
SOLID
  5
1A0EF
  8
寸法線
  6
CONTINUOUS
 62
     0
 10
200.2647492053929
 20
13.71248525157447
 30
0.0
 11
200.2647492053929
 21
14.63851773151674
 31
0.0
 12
200.3462589650858
 22
13.81180518113008
 32
0.0
 13
200.3462589650858
 23
13.81180518113008
 33
0.0
  0
SOLID
  5
1A0F0
  8
寸法線
  6
CONTINUOUS
 62
     0
 10
200.3462589650858
 20
13.81180518113008
 30
0.0
 11
200.2647492053929
 21
14.63851773151674
 31
0.0
 12
200.3462589650858
 22
14.67833080365551
 32
0.0
 13
200.3462589650858
 23
14.67833080365551
 33
0.0
  0
SOLID
  5
1A0F1
  8
寸法線
  6
CONTINUOUS
 62
     0
 10
200.3462589650858
 20
9.173935383794078
 30
0.0
 11
200.3462589650858
 21
10.04046100631948
 31
0.0
 12
200.4031617239106
 22
9.14739955716071
 32
0.0
 13
200.4031617239106
 23
9.14739955716071
 33
0.0
  0
SOLID
  5
1A0F2
  8
寸法線
  6
CONTINUOUS
 62
     0
 10
200.4031617239106
 20
9.14739955716071
 30
0.0
 11
200.3462589650858
 21
10.04046100631948
 31
0.0
 12
200.4031617239106
 22
9.971124794075703
 32
0.0
 13
200.4031617239106
 23
9.971124794075703
 33
0.0
  0
SOLID
  5
1A0F3
  8
寸法線
  6
CONTINUOUS
 62
     0
 10
200.3462589650858
 20
13.81180518113008
 30
0.0
 11
200.3462589650858
 21
14.67833080365551
 31
0.0
 12
200.4031617239106
 22
13.88114139337386
 32
0.0
 13
200.4031617239106
 23
13.88114139337386
 33
0.0
  0
SOLID
  5
1A0F4
  8
寸法線
  6
CONTINUOUS
 62
     0
 10
200.4031617239106
 20
13.88114139337386
 30
0.0
 11
200.3462589650858
 21
14.67833080365551
 31
0.0
 12
200.4031617239106
 22
14.70486663028888
 32
0.0
 13
200.4031617239106
 23
14.70486663028888
 33
0.0
  0
SOLID
  5
1A0F5
  8
寸法線
  6
CONTINUOUS
 62
     0
 10
200.4031617239106
 20
9.14739955716071
 30
0.0
 11
200.4031617239106
 21
9.971124794075703
 31
0.0
 12
200.4257636423432
 22
9.136859460309621
 32
0.0
 13
200.4257636423432
 23
9.136859460309621
 33
0.0
  0
SOLID
  5
1A0F6
  8
寸法線
  6
CONTINUOUS
 62
     0
 10
200.4257636423432
 20
9.136859460309621
 30
0.0
 11
200.4031617239106
 21
9.971124794075703
 31
0.0
 12
200.4257636423432
 22
9.943584276780564
 32
0.0
 13
200.4257636423432
 23
9.943584276780564
 33
0.0
  0
SOLID
  5
1A0F7
  8
寸法線
  6
CONTINUOUS
 62
     0
 10
200.4257636423432
 20
11.69665196479218
 30
0.0
 11
200.4031617239106
 21
11.92613309372478
 31
0.0
 12
200.4257636423432
 22
12.15561422265738
 32
0.0
 13
200.4257636423432
 23
12.15561422265738
 33
0.0
  0
SOLID
  5
1A0F8
  8
寸法線
  6
CONTINUOUS
 62
     0
 10
200.4031617239106
 20
13.88114139337386
 30
0.0
 11
200.4031617239106
 21
14.70486663028888
 31
0.0
 12
200.4257636423432
 22
13.90868191066899
 32
0.0
 13
200.4257636423432
 23
13.90868191066899
 33
0.0
  0
SOLID
  5
1A0F9
  8
寸法線
  6
CONTINUOUS
 62
     0
 10
200.4257636423432
 20
13.90868191066899
 30
0.0
 11
200.4031617239106
 21
14.70486663028888
 31
0.0
 12
200.4257636423432
 22
14.71540672713997
 32
0.0
 13
200.4257636423432
 23
14.71540672713997
 33
0.0
  0
SOLID
  5
1A0FA
  8
寸法線
  6
CONTINUOUS
 62
     0
 10
200.4257636423432
 20
9.136859460309621
 30
0.0
 11
200.4257636423432
 21
9.943584276780564
 31
0.0
 12
200.4289376799497
 22
9.135379291098264
 32
0.0
 13
200.4289376799497
 23
9.135379291098264
 33
0.0
  0
SOLID
  5
1A0FB
  8
寸法線
  6
CONTINUOUS
 62
     0
 10
200.4289376799497
 20
9.135379291098264
 30
0.0
 11
200.4257636423432
 21
9.943584276780564
 31
0.0
 12
200.4289376799497
 22
9.939716700766697
 32
0.0
 13
200.4289376799497
 23
9.939716700766697
 33
0.0
  0
SOLID
  5
1A0FC
  8
寸法線
  6
CONTINUOUS
 62
     0
 10
200.4257636423432
 20
11.69665196479218
 30
0.0
 11
200.4257636423432
 21
12.15561422265738
 31
0.0
 12
200.4289376799497
 22
11.68618856506499
 32
0.0
 13
200.4289376799497
 23
11.68618856506499
 33
0.0
  0
SOLID
  5
1A0FD
  8
寸法線
  6
CONTINUOUS
 62
     0
 10
200.4289376799497
 20
11.68618856506499
 30
0.0
 11
200.4257636423432
 21
12.15561422265738
 31
0.0
 12
200.4289376799497
 22
12.16607762238456
 32
0.0
 13
200.4289376799497
 23
12.16607762238456
 33
0.0
  0
SOLID
  5
1A0FE
  8
寸法線
  6
CONTINUOUS
 62
     0
 10
200.4257636423432
 20
13.90868191066899
 30
0.0
 11
200.4257636423432
 21
14.71540672713997
 31
0.0
 12
200.4289376799497
 22
13.91254948668286
 32
0.0
 13
200.4289376799497
 23
13.91254948668286
 33
0.0
  0
SOLID
  5
1A0FF
  8
寸法線
  6
CONTINUOUS
 62
     0
 10
200.4289376799497
 20
13.91254948668286
 30
0.0
 11
200.4257636423432
 21
14.71540672713997
 31
0.0
 12
200.4289376799497
 22
14.71688689635132
 32
0.0
 13
200.4289376799497
 23
14.71688689635132
 33
0.0
  0
SOLID
  5
1A100
  8
寸法線
  6
CONTINUOUS
 62
     0
 10
200.4289376799497
 20
9.135379291098264
 30
0.0
 11
200.4289376799497
 21
9.939716700766697
 31
0.0
 12
200.4927008185908
 22
9.107015273871413
 32
0.0
 13
200.4927008185908
 23
9.107015273871413
 33
0.0
  0
SOLID
  5
1A101
  8
寸法線
  6
CONTINUOUS
 62
     0
 10
200.4927008185908
 20
9.107015273871413
 30
0.0
 11
200.4289376799497
 21
9.939716700766697
 31
0.0
 12
200.4927008185908
 22
9.862021091529973
 32
0.0
 13
200.4927008185908
 23
9.862021091529973
 33
0.0
  0
SOLID
  5
1A102
  8
寸法線
  6
CONTINUOUS
 62
     0
 10
200.4289376799497
 20
11.68618856506499
 30
0.0
 11
200.4289376799497
 21
12.16607762238456
 31
0.0
 12
200.4927008185908
 22
11.47598966694996
 32
0.0
 13
200.4927008185908
 23
11.47598966694996
 33
0.0
  0
SOLID
  5
1A103
  8
寸法線
  6
CONTINUOUS
 62
     0
 10
200.4927008185908
 20
11.47598966694996
 30
0.0
 11
200.4289376799497
 21
12.16607762238456
 31
0.0
 12
200.4927008185908
 22
12.3762765204996
 32
0.0
 13
200.4927008185908
 23
12.3762765204996
 33
0.0
  0
SOLID
  5
1A104
  8
寸法線
  6
CONTINUOUS
 62
     0
 10
200.4289376799497
 20
13.91254948668286
 30
0.0
 11
200.4289376799497
 21
14.71688689635132
 31
0.0
 12
200.4927008185908
 22
13.99024509591958
 32
0.0
 13
200.4927008185908
 23
13.99024509591958
 33
0.0
  0
SOLID
  5
1A105
  8
寸法線
  6
CONTINUOUS
 62
     0
 10
200.4927008185908
 20
13.99024509591958
 30
0.0
 11
200.4289376799497
 21
14.71688689635132
 31
0.0
 12
200.4927008185908
 22
14.74525091357818
 32
0.0
 13
200.4927008185908
 23
14.74525091357818
 33
0.0
  0
SOLID
  5
1A106
  8
寸法線
  6
CONTINUOUS
 62
     0
 10
200.4927008185908
 20
9.107015273871413
 30
0.0
 11
200.4927008185908
 21
9.862021091529973
 31
0.0
 12
200.512747589091
 22
9.098097787123889
 32
0.0
 13
200.512747589091
 23
9.098097787123889
 33
0.0
  0
SOLID
  5
1A107
  8
寸法線
  6
CONTINUOUS
 62
     0
 10
200.512747589091
 20
9.098097787123889
 30
0.0
 11
200.4927008185908
 21
9.862021091529973
 31
0.0
 12
200.512747589091
 22
9.83759403099874
 32
0.0
 13
200.512747589091
 23
9.83759403099874
 33
0.0
  0
SOLID
  5
1A108
  8
寸法線
  6
CONTINUOUS
 62
     0
 10
200.4927008185908
 20
11.47598966694996
 30
0.0
 11
200.4927008185908
 21
12.3762765204996
 31
0.0
 12
200.512747589091
 22
11.43848479726261
 32
0.0
 13
200.512747589091
 23
11.43848479726261
 33
0.0
  0
SOLID
  5
1A109
  8
寸法線
  6
CONTINUOUS
 62
     0
 10
200.512747589091
 20
11.43848479726261
 30
0.0
 11
200.4927008185908
 21
12.3762765204996
 31
0.0
 12
200.512747589091
 22
12.41378139018695
 32
0.0
 13
200.512747589091
 23
12.41378139018695
 33
0.0
  0
SOLID
  5
1A10A
  8
寸法線
  6
CONTINUOUS
 62
     0
 10
200.4927008185908
 20
13.99024509591958
 30
0.0
 11
200.4927008185908
 21
14.74525091357818
 31
0.0
 12
200.512747589091
 22
14.01467215645082
 32
0.0
 13
200.512747589091
 23
14.01467215645082
 33
0.0
  0
SOLID
  5
1A10B
  8
寸法線
  6
CONTINUOUS
 62
     0
 10
200.512747589091
 20
14.01467215645082
 30
0.0
 11
200.4927008185908
 21
14.74525091357818
 31
0.0
 12
200.512747589091
 22
14.7541684003257
 32
0.0
 13
200.512747589091
 23
14.7541684003257
 33
0.0
  0
SOLID
  5
1A10C
  8
寸法線
  6
CONTINUOUS
 62
     0
 10
200.512747589091
 20
9.098097787123889
 30
0.0
 11
200.512747589091
 21
9.83759403099874
 31
0.0
 12
200.5976504149789
 22
9.062107899021267
 32
0.0
 13
200.5976504149789
 23
9.062107899021267
 33
0.0
  0
SOLID
  5
1A10D
  8
寸法線
  6
CONTINUOUS
 62
     0
 10
200.5976504149789
 20
9.062107899021267
 30
0.0
 11
200.512747589091
 21
9.83759403099874
 31
0.0
 12
200.5976504149789
 22
9.734139638321999
 32
0.0
 13
200.5976504149789
 23
9.734139638321999
 33
0.0
  0
SOLID
  5
1A10E
  8
寸法線
  6
CONTINUOUS
 62
     0
 10
200.512747589091
 20
11.43848479726261
 30
0.0
 11
200.512747589091
 21
12.41378139018695
 31
0.0
 12
200.5976504149789
 22
11.27964278223735
 32
0.0
 13
200.5976504149789
 23
11.27964278223735
 33
0.0
  0
SOLID
  5
1A10F
  8
寸法線
  6
CONTINUOUS
 62
     0
 10
200.5976504149789
 20
11.27964278223735
 30
0.0
 11
200.512747589091
 21
12.41378139018695
 31
0.0
 12
200.5976504149789
 22
12.5726234052122
 32
0.0
 13
200.5976504149789
 23
12.5726234052122
 33
0.0
  0
SOLID
  5
1A110
  8
寸法線
  6
CONTINUOUS
 62
     0
 10
200.512747589091
 20
14.01467215645082
 30
0.0
 11
200.512747589091
 21
14.7541684003257
 31
0.0
 12
200.5976504149789
 22
14.11812654912756
 32
0.0
 13
200.5976504149789
 23
14.11812654912756
 33
0.0
  0
SOLID
  5
1A111
  8
寸法線
  6
CONTINUOUS
 62
     0
 10
200.5976504149789
 20
14.11812654912756
 30
0.0
 11
200.512747589091
 21
14.7541684003257
 31
0.0
 12
200.5976504149789
 22
14.79015828842832
 32
0.0
 13
200.5976504149789
 23
14.79015828842832
 33
0.0
  0
SOLID
  5
1A112
  8
寸法線
  6
CONTINUOUS
 62
     0
 10
200.5976504149789
 20
9.062107899021267
 30
0.0
 11
200.5976504149789
 21
9.734139638321999
 31
0.0
 12
200.6014008945091
 22
9.060594659102371
 32
0.0
 13
200.6014008945091
 23
9.060594659102371
 33
0.0
  0
SOLID
  5
1A113
  8
寸法線
  6
CONTINUOUS
 62
     0
 10
200.6014008945091
 20
9.060594659102371
 30
0.0
 11
200.5976504149789
 21
9.734139638321999
 31
0.0
 12
200.6014008945091
 22
9.729569665791878
 32
0.0
 13
200.6014008945091
 23
9.729569665791878
 33
0.0
  0
SOLID
  5
1A114
  8
寸法線
  6
CONTINUOUS
 62
     0
 10
200.5976504149789
 20
11.27964278223735
 30
0.0
 11
200.5976504149789
 21
12.5726234052122
 31
0.0
 12
200.6014008945091
 22
11.27262612855535
 32
0.0
 13
200.6014008945091
 23
11.27262612855535
 33
0.0
  0
SOLID
  5
1A115
  8
寸法線
  6
CONTINUOUS
 62
     0
 10
200.6014008945091
 20
11.27262612855535
 30
0.0
 11
200.5976504149789
 21
12.5726234052122
 31
0.0
 12
200.6014008945091
 22
12.5796400588942
 32
0.0
 13
200.6014008945091
 23
12.5796400588942
 33
0.0
  0
SOLID
  5
1A116
  8
寸法線
  6
CONTINUOUS
 62
     0
 10
200.5976504149789
 20
14.11812654912756
 30
0.0
 11
200.5976504149789
 21
14.79015828842832
 31
0.0
 12
200.6014008945091
 22
14.12269652165768
 32
0.0
 13
200.6014008945091
 23
14.12269652165768
 33
0.0
  0
SOLID
  5
1A117
  8
寸法線
  6
CONTINUOUS
 62
     0
 10
200.6014008945091
 20
14.12269652165768
 30
0.0
 11
200.5976504149789
 21
14.79015828842832
 31
0.0
 12
200.6014008945091
 22
14.79167152834722
 32
0.0
 13
200.6014008945091
 23
14.79167152834722
 33
0.0
  0
SOLID
  5
1A118
  8
寸法線
  6
CONTINUOUS
 62
     0
 10
200.6014008945091
 20
9.060594659102371
 30
0.0
 11
200.6014008945091
 21
9.729569665791878
 31
0.0
 12
200.6499743231522
 22
9.040996298244824
 32
0.0
 13
200.6499743231522
 23
9.040996298244824
 33
0.0
  0
SOLID
  5
1A119
  8
寸法線
  6
CONTINUOUS
 62
     0
 10
200.6499743231522
 20
9.040996298244824
 30
0.0
 11
200.6014008945091
 21
9.729569665791878
 31
0.0
 12
200.6499743231522
 22
9.670382771740304
 32
0.0
 13
200.6499743231522
 23
9.670382771740304
 33
0.0
  0
SOLID
  5
1A11A
  8
寸法線
  6
CONTINUOUS
 62
     0
 10
200.6014008945091
 20
11.27262612855535
 30
0.0
 11
200.6014008945091
 21
12.5796400588942
 31
0.0
 12
200.6499743231522
 22
11.21343923450378
 32
0.0
 13
200.6499743231522
 23
11.21343923450378
 33
0.0
  0
SOLID
  5
1A11B
  8
寸法線
  6
CONTINUOUS
 62
     0
 10
200.6499743231522
 20
11.21343923450378
 30
0.0
 11
200.6014008945091
 21
12.5796400588942
 31
0.0
 12
200.6499743231522
 22
12.63882695294578
 32
0.0
 13
200.6499743231522
 23
12.63882695294578
 33
0.0
  0
SOLID
  5
1A11C
  8
寸法線
  6
CONTINUOUS
 62
     0
 10
200.6014008945091
 20
14.12269652165768
 30
0.0
 11
200.6014008945091
 21
14.79167152834722
 31
0.0
 12
200.6499743231522
 22
14.18188341570925
 32
0.0
 13
200.6499743231522
 23
14.18188341570925
 33
0.0
  0
SOLID
  5
1A11D
  8
寸法線
  6
CONTINUOUS
 62
     0
 10
200.6499743231522
 20
14.18188341570925
 30
0.0
 11
200.6014008945091
 21
14.79167152834722
 31
0.0
 12
200.6499743231522
 22
14.81126988920476
 32
0.0
 13
200.6499743231522
 23
14.81126988920476
 33
0.0
  0
SOLID
  5
1A11E
  8
寸法線
  6
CONTINUOUS
 62
     0
 10
200.6499743231522
 20
9.040996298244824
 30
0.0
 11
200.6499743231522
 21
9.670382771740304
 31
0.0
 12
200.6836073809272
 22
9.027426064035929
 32
0.0
 13
200.6836073809272
 23
9.027426064035929
 33
0.0
  0
SOLID
  5
1A11F
  8
寸法線
  6
CONTINUOUS
 62
     0
 10
200.6836073809272
 20
9.027426064035929
 30
0.0
 11
200.6499743231522
 21
9.670382771740304
 31
0.0
 12
200.6836073809272
 22
9.642780834553665
 32
0.0
 13
200.6836073809272
 23
9.642780834553665
 33
0.0
  0
SOLID
  5
1A120
  8
寸法線
  6
CONTINUOUS
 62
     0
 10
200.6499743231522
 20
11.21343923450378
 30
0.0
 11
200.6499743231522
 21
12.63882695294578
 31
0.0
 12
200.6836073809272
 22
11.17245723502866
 32
0.0
 13
200.6836073809272
 23
11.17245723502866
 33
0.0
  0
SOLID
  5
1A121
  8
寸法線
  6
CONTINUOUS
 62
     0
 10
200.6836073809272
 20
11.17245723502866
 30
0.0
 11
200.6499743231522
 21
12.63882695294578
 31
0.0
 12
200.6836073809272
 22
12.6798089524209
 32
0.0
 13
200.6836073809272
 23
12.6798089524209
 33
0.0
  0
SOLID
  5
1A122
  8
寸法線
  6
CONTINUOUS
 62
     0
 10
200.6499743231522
 20
14.18188341570925
 30
0.0
 11
200.6499743231522
 21
14.81126988920476
 31
0.0
 12
200.6836073809272
 22
14.20948535289589
 32
0.0
 13
200.6836073809272
 23
14.20948535289589
 33
0.0
  0
SOLID
  5
1A123
  8
寸法線
  6
CONTINUOUS
 62
     0
 10
200.6836073809272
 20
14.20948535289589
 30
0.0
 11
200.6499743231522
 21
14.81126988920476
 31
0.0
 12
200.6836073809272
 22
14.82484012341366
 32
0.0
 13
200.6836073809272
 23
14.82484012341366
 33
0.0
  0
SOLID
  5
1A124
  8
寸法線
  6
CONTINUOUS
 62
     0
 10
200.6836073809272
 20
9.027426064035929
 30
0.0
 11
200.6836073809272
 21
9.642780834553665
 31
0.0
 12
200.7476865871402
 22
9.002848565700086
 32
0.0
 13
200.7476865871402
 23
9.002848565700086
 33
0.0
  0
SOLID
  5
1A125
  8
寸法線
  6
CONTINUOUS
 62
     0
 10
200.7476865871402
 20
9.002848565700086
 30
0.0
 11
200.6836073809272
 21
9.642780834553665
 31
0.0
 12
200.7476865871402
 22
9.590192389081547
 32
0.0
 13
200.7476865871402
 23
9.590192389081547
 33
0.0
  0
SOLID
  5
1A126
  8
寸法線
  6
CONTINUOUS
 62
     0
 10
200.6836073809272
 20
11.17245723502866
 30
0.0
 11
200.6836073809272
 21
12.6798089524209
 31
0.0
 12
200.7476865871402
 22
11.09437649634128
 32
0.0
 13
200.7476865871402
 23
11.09437649634128
 33
0.0
  0
SOLID
  5
1A127
  8
寸法線
  6
CONTINUOUS
 62
     0
 10
200.7476865871402
 20
11.09437649634128
 30
0.0
 11
200.6836073809272
 21
12.6798089524209
 31
0.0
 12
200.7476865871402
 22
12.75788969110828
 32
0.0
 13
200.7476865871402
 23
12.75788969110828
 33
0.0
  0
SOLID
  5
1A128
  8
寸法線
  6
CONTINUOUS
 62
     0
 10
200.6836073809272
 20
14.20948535289589
 30
0.0
 11
200.6836073809272
 21
14.82484012341366
 31
0.0
 12
200.7476865871402
 22
14.26207379836801
 32
0.0
 13
200.7476865871402
 23
14.26207379836801
 33
0.0
  0
SOLID
  5
1A129
  8
寸法線
  6
CONTINUOUS
 62
     0
 10
200.7476865871402
 20
14.26207379836801
 30
0.0
 11
200.6836073809272
 21
14.82484012341366
 31
0.0
 12
200.7476865871402
 22
14.8494176217495
 32
0.0
 13
200.7476865871402
 23
14.8494176217495
 33
0.0
  0
SOLID
  5
1A12A
  8
寸法線
  6
CONTINUOUS
 62
     0
 10
200.7476865871402
 20
9.002848565700086
 30
0.0
 11
200.7476865871402
 21
9.590192389081547
 31
0.0
 12
200.7705792288045
 22
8.994068122001423
 32
0.0
 13
200.7705792288045
 23
8.994068122001423
 33
0.0
  0
SOLID
  5
1A12B
  8
寸法線
  6
CONTINUOUS
 62
     0
 10
200.7705792288045
 20
8.994068122001423
 30
0.0
 11
200.7476865871402
 21
9.590192389081547
 31
0.0
 12
200.7705792288045
 22
9.571404883601593
 32
0.0
 13
200.7705792288045
 23
9.571404883601593
 33
0.0
  0
SOLID
  5
1A12C
  8
寸法線
  6
CONTINUOUS
 62
     0
 10
200.7476865871402
 20
11.09437649634128
 30
0.0
 11
200.7476865871402
 21
12.75788969110828
 31
0.0
 12
200.7705792288045
 22
11.07558899086133
 32
0.0
 13
200.7705792288045
 23
11.07558899086133
 33
0.0
  0
SOLID
  5
1A12D
  8
寸法線
  6
CONTINUOUS
 62
     0
 10
200.7705792288045
 20
11.07558899086133
 30
0.0
 11
200.7476865871402
 21
12.75788969110828
 31
0.0
 12
200.7705792288045
 22
12.77667719658823
 32
0.0
 13
200.7705792288045
 23
12.77667719658823
 33
0.0
  0
SOLID
  5
1A12E
  8
寸法線
  6
CONTINUOUS
 62
     0
 10
200.7476865871402
 20
14.26207379836801
 30
0.0
 11
200.7476865871402
 21
14.8494176217495
 31
0.0
 12
200.7705792288045
 22
14.28086130384797
 32
0.0
 13
200.7705792288045
 23
14.28086130384797
 33
0.0
  0
SOLID
  5
1A12F
  8
寸法線
  6
CONTINUOUS
 62
     0
 10
200.7705792288045
 20
14.28086130384797
 30
0.0
 11
200.7476865871402
 21
14.8494176217495
 31
0.0
 12
200.7705792288045
 22
14.85819806544817
 32
0.0
 13
200.7705792288045
 23
14.85819806544817
 33
0.0
  0
SOLID
  5
1A130
  8
寸法線
  6
CONTINUOUS
 62
     0
 10
200.7705792288045
 20
8.994068122001423
 30
0.0
 11
200.7705792288045
 21
9.571404883601593
 31
0.0
 12
200.8421391060472
 22
8.968015360914563
 32
0.0
 13
200.8421391060472
 23
8.968015360914563
 33
0.0
  0
SOLID
  5
1A131
  8
寸法線
  6
CONTINUOUS
 62
     0
 10
200.8421391060472
 20
8.968015360914563
 30
0.0
 11
200.7705792288045
 21
9.571404883601593
 31
0.0
 12
200.8421391060472
 22
9.512677210074166
 32
0.0
 13
200.8421391060472
 23
9.512677210074166
 33
0.0
  0
SOLID
  5
1A132
  8
寸法線
  6
CONTINUOUS
 62
     0
 10
200.7705792288045
 20
11.07558899086133
 30
0.0
 11
200.7705792288045
 21
12.77667719658823
 31
0.0
 12
200.8421391060472
 22
11.01686131733391
 32
0.0
 13
200.8421391060472
 23
11.01686131733391
 33
0.0
  0
SOLID
  5
1A133
  8
寸法線
  6
CONTINUOUS
 62
     0
 10
200.8421391060472
 20
11.01686131733391
 30
0.0
 11
200.7705792288045
 21
12.77667719658823
 31
0.0
 12
200.8421391060472
 22
12.83540487011565
 32
0.0
 13
200.8421391060472
 23
12.83540487011565
 33
0.0
  0
SOLID
  5
1A134
  8
寸法線
  6
CONTINUOUS
 62
     0
 10
200.7705792288045
 20
14.28086130384797
 30
0.0
 11
200.7705792288045
 21
14.85819806544817
 31
0.0
 12
200.8421391060472
 22
14.33958897737539
 32
0.0
 13
200.8421391060472
 23
14.33958897737539
 33
0.0
  0
SOLID
  5
1A135
  8
寸法線
  6
CONTINUOUS
 62
     0
 10
200.8421391060472
 20
14.33958897737539
 30
0.0
 11
200.7705792288045
 21
14.85819806544817
 31
0.0
 12
200.8421391060472
 22
14.88425082653502
 32
0.0
 13
200.8421391060472
 23
14.88425082653502
 33
0.0
  0
SOLID
  5
1A136
  8
寸法線
  6
CONTINUOUS
 62
     0
 10
200.8421391060472
 20
8.968015360914563
 30
0.0
 11
200.8421391060472
 21
9.512677210074166
 31
0.0
 12
200.8546931090941
 22
8.963444832642777
 32
0.0
 13
200.8546931090941
 23
8.963444832642777
 33
0.0
  0
SOLID
  5
1A137
  8
寸法線
  6
CONTINUOUS
 62
     0
 10
200.8546931090941
 20
8.963444832642777
 30
0.0
 11
200.8421391060472
 21
9.512677210074166
 31
0.0
 12
200.8546931090941
 22
9.502374406033612
 32
0.0
 13
200.8546931090941
 23
9.502374406033612
 33
0.0
  0
SOLID
  5
1A138
  8
寸法線
  6
CONTINUOUS
 62
     0
 10
200.8421391060472
 20
11.01686131733391
 30
0.0
 11
200.8421391060472
 21
11.92613309372478
 31
0.0
 12
200.8546931090941
 22
11.00655851329335
 32
0.0
 13
200.8546931090941
 23
11.00655851329335
 33
0.0
  0
SOLID
  5
1A139
  8
寸法線
  6
CONTINUOUS
 62
     0
 10
200.8546931090941
 20
11.00655851329335
 30
0.0
 11
200.8421391060472
 21
11.92613309372478
 31
0.0
 12
200.8546931090941
 22
11.79065382482055
 32
0.0
 13
200.8546931090941
 23
11.79065382482055
 33
0.0
  0
SOLID
  5
1A13A
  8
寸法線
  6
CONTINUOUS
 62
     0
 10
200.8421391060472
 20
11.92613309372478
 30
0.0
 11
200.8421391060472
 21
12.83540487011565
 31
0.0
 12
200.8546931090941
 22
12.06161236262901
 32
0.0
 13
200.8546931090941
 23
12.06161236262901
 33
0.0
  0
SOLID
  5
1A13B
  8
寸法線
  6
CONTINUOUS
 62
     0
 10
200.8546931090941
 20
12.06161236262901
 30
0.0
 11
200.8421391060472
 21
12.83540487011565
 31
0.0
 12
200.8546931090941
 22
12.8457076741562
 32
0.0
 13
200.8546931090941
 23
12.8457076741562
 33
0.0
  0
SOLID
  5
1A13C
  8
寸法線
  6
CONTINUOUS
 62
     0
 10
200.8421391060472
 20
14.33958897737539
 30
0.0
 11
200.8421391060472
 21
14.88425082653502
 31
0.0
 12
200.8546931090941
 22
14.34989178141595
 32
0.0
 13
200.8546931090941
 23
14.34989178141595
 33
0.0
  0
SOLID
  5
1A13D
  8
寸法線
  6
CONTINUOUS
 62
     0
 10
200.8546931090941
 20
14.34989178141595
 30
0.0
 11
200.8421391060472
 21
14.88425082653502
 31
0.0
 12
200.8546931090941
 22
14.8888213548068
 32
0.0
 13
200.8546931090941
 23
14.8888213548068
 33
0.0
  0
SOLID
  5
1A13E
  8
寸法線
  6
CONTINUOUS
 62
     0
 10
200.8546931090941
 20
8.963444832642777
 30
0.0
 11
200.8546931090941
 21
9.502374406033612
 31
0.0
 12
200.8585262369642
 22
8.962049308104971
 32
0.0
 13
200.8585262369642
 23
8.962049308104971
 33
0.0
  0
SOLID
  5
1A13F
  8
寸法線
  6
CONTINUOUS
 62
     0
 10
200.8585262369642
 20
8.962049308104971
 30
0.0
 11
200.8546931090941
 21
9.502374406033612
 31
0.0
 12
200.8585262369642
 22
9.499228639288102
 32
0.0
 13
200.8585262369642
 23
9.499228639288102
 33
0.0
  0
SOLID
  5
1A140
  8
寸法線
  6
CONTINUOUS
 62
     0
 10
200.8546931090941
 20
11.00655851329335
 30
0.0
 11
200.8546931090941
 21
11.79065382482055
 31
0.0
 12
200.8585262369642
 22
11.00341274654784
 32
0.0
 13
200.8585262369642
 23
11.00341274654784
 33
0.0
  0
SOLID
  5
1A141
  8
寸法線
  6
CONTINUOUS
 62
     0
 10
200.8585262369642
 20
11.00341274654784
 30
0.0
 11
200.8546931090941
 21
11.79065382482055
 31
0.0
 12
200.8585262369642
 22
11.77718177776723
 32
0.0
 13
200.8585262369642
 23
11.77718177776723
 33
0.0
  0
SOLID
  5
1A142
  8
寸法線
  6
CONTINUOUS
 62
     0
 10
200.8546931090941
 20
12.06161236262901
 30
0.0
 11
200.8546931090941
 21
12.8457076741562
 31
0.0
 12
200.8585262369642
 22
12.07508440968233
 32
0.0
 13
200.8585262369642
 23
12.07508440968233
 33
0.0
  0
SOLID
  5
1A143
  8
寸法線
  6
CONTINUOUS
 62
     0
 10
200.8585262369642
 20
12.07508440968233
 30
0.0
 11
200.8546931090941
 21
12.8457076741562
 31
0.0
 12
200.8585262369642
 22
12.84885344090171
 32
0.0
 13
200.8585262369642
 23
12.84885344090171
 33
0.0
  0
SOLID
  5
1A144
  8
寸法線
  6
CONTINUOUS
 62
     0
 10
200.8546931090941
 20
14.34989178141595
 30
0.0
 11
200.8546931090941
 21
14.8888213548068
 31
0.0
 12
200.8585262369642
 22
14.35303754816146
 32
0.0
 13
200.8585262369642
 23
14.35303754816146
 33
0.0
  0
SOLID
  5
1A145
  8
寸法線
  6
CONTINUOUS
 62
     0
 10
200.8585262369642
 20
14.35303754816146
 30
0.0
 11
200.8546931090941
 21
14.8888213548068
 31
0.0
 12
200.8585262369642
 22
14.8902168793446
 32
0.0
 13
200.8585262369642
 23
14.8902168793446
 33
0.0
  0
SOLID
  5
1A146
  8
寸法線
  6
CONTINUOUS
 62
     0
 10
200.8585262369642
 20
8.962049308104971
 30
0.0
 11
200.8585262369642
 21
9.499228639288102
 31
0.0
 12
200.8919276067178
 22
8.950525545544904
 32
0.0
 13
200.8919276067178
 23
8.950525545544904
 33
0.0
  0
SOLID
  5
1A147
  8
寸法線
  6
CONTINUOUS
 62
     0
 10
200.8919276067178
 20
8.950525545544904
 30
0.0
 11
200.8585262369642
 21
9.499228639288102
 31
0.0
 12
200.8919276067178
 22
9.471816843546657
 32
0.0
 13
200.8919276067178
 23
9.471816843546657
 33
0.0
  0
SOLID
  5
1A148
  8
寸法線
  6
CONTINUOUS
 62
     0
 10
200.8585262369642
 20
11.00341274654784
 30
0.0
 11
200.8585262369642
 21
11.77718177776723
 31
0.0
 12
200.8919276067178
 22
10.9760009508064
 32
0.0
 13
200.8919276067178
 23
10.9760009508064
 33
0.0
  0
SOLID
  5
1A149
  8
寸法線
  6
CONTINUOUS
 62
     0
 10
200.8919276067178
 20
10.9760009508064
 30
0.0
 11
200.8585262369642
 21
11.77718177776723
 31
0.0
 12
200.8919276067178
 22
11.65978813992938
 32
0.0
 13
200.8919276067178
 23
11.65978813992938
 33
0.0
  0
SOLID
  5
1A14A
  8
寸法線
  6
CONTINUOUS
 62
     0
 10
200.8585262369642
 20
12.07508440968233
 30
0.0
 11
200.8585262369642
 21
12.84885344090171
 31
0.0
 12
200.8919276067178
 22
12.19247804752018
 32
0.0
 13
200.8919276067178
 23
12.19247804752018
 33
0.0
  0
SOLID
  5
1A14B
  8
寸法線
  6
CONTINUOUS
 62
     0
 10
200.8919276067178
 20
12.19247804752018
 30
0.0
 11
200.8585262369642
 21
12.84885344090171
 31
0.0
 12
200.8919276067178
 22
12.87626523664315
 32
0.0
 13
200.8919276067178
 23
12.87626523664315
 33
0.0
  0
SOLID
  5
1A14C
  8
寸法線
  6
CONTINUOUS
 62
     0
 10
200.8585262369642
 20
14.35303754816146
 30
0.0
 11
200.8585262369642
 21
14.89021687934462
 31
0.0
 12
200.8919276067178
 22
14.3804493439029
 32
0.0
 13
200.8919276067178
 23
14.3804493439029
 33
0.0
  0
SOLID
  5
1A14D
  8
寸法線
  6
CONTINUOUS
 62
     0
 10
200.8919276067178
 20
14.3804493439029
 30
0.0
 11
200.8585262369642
 21
14.89021687934462
 31
0.0
 12
200.8919276067178
 22
14.90174064190469
 32
0.0
 13
200.8919276067178
 23
14.90174064190469
 33
0.0
  0
SOLID
  5
1A14E
  8
寸法線
  6
CONTINUOUS
 62
     0
 10
200.8919276067178
 20
8.950525545544904
 30
0.0
 11
200.8919276067178
 21
9.471816843546657
 31
0.0
 12
200.9259362193542
 22
8.938792278918118
 32
0.0
 13
200.9259362193542
 23
8.938792278918118
 33
0.0
  0
SOLID
  5
1A14F
  8
寸法線
  6
CONTINUOUS
 62
     0
 10
200.9259362193542
 20
8.938792278918118
 30
0.0
 11
200.8919276067178
 21
9.471816843546657
 31
0.0
 12
200.9259362193542
 22
9.443906696450435
 32
0.0
 13
200.9259362193542
 23
9.443906696450435
 33
0.0
  0
SOLID
  5
1A150
  8
寸法線
  6
CONTINUOUS
 62
     0
 10
200.8919276067178
 20
10.9760009508064
 30
0.0
 11
200.8919276067178
 21
11.65978813992938
 31
0.0
 12
200.9259362193542
 22
10.94809080371018
 32
0.0
 13
200.9259362193542
 23
10.94809080371018
 33
0.0
  0
SOLID
  5
1A151
  8
寸法線
  6
CONTINUOUS
 62
     0
 10
200.9259362193542
 20
10.94809080371018
 30
0.0
 11
200.8919276067178
 21
11.65978813992938
 31
0.0
 12
200.9259362193542
 22
11.59148963874023
 32
0.0
 13
200.9259362193542
 23
11.59148963874023
 33
0.0
  0
SOLID
  5
1A152
  8
寸法線
  6
CONTINUOUS
 62
     0
 10
200.8919276067178
 20
12.19247804752018
 30
0.0
 11
200.8919276067178
 21
12.87626523664315
 31
0.0
 12
200.9259362193542
 22
12.26077654870933
 32
0.0
 13
200.9259362193542
 23
12.26077654870933
 33
0.0
  0
SOLID
  5
1A153
  8
寸法線
  6
CONTINUOUS
 62
     0
 10
200.9259362193542
 20
12.26077654870933
 30
0.0
 11
200.8919276067178
 21
12.87626523664315
 31
0.0
 12
200.9259362193542
 22
12.90417538373937
 32
0.0
 13
200.9259362193542
 23
12.90417538373937
 33
0.0
  0
SOLID
  5
1A154
  8
寸法線
  6
CONTINUOUS
 62
     0
 10
200.8919276067178
 20
14.3804493439029
 30
0.0
 11
200.8919276067178
 21
14.90174064190469
 31
0.0
 12
200.9259362193542
 22
14.40835949099912
 32
0.0
 13
200.9259362193542
 23
14.40835949099912
 33
0.0
  0
SOLID
  5
1A155
  8
寸法線
  6
CONTINUOUS
 62
     0
 10
200.9259362193542
 20
14.40835949099912
 30
0.0
 11
200.8919276067178
 21
14.90174064190469
 31
0.0
 12
200.9259362193542
 22
14.91347390853148
 32
0.0
 13
200.9259362193542
 23
14.91347390853148
 33
0.0
  0
SOLID
  5
1A156
  8
寸法線
  6
CONTINUOUS
 62
     0
 10
200.9259362193542
 20
8.938792278918118
 30
0.0
 11
200.9259362193542
 21
9.443906696450435
 31
0.0
 12
200.947408238386
 22
8.931384245929294
 32
0.0
 13
200.947408238386
 23
8.931384245929294
 33
0.0
  0
SOLID
  5
1A157
  8
寸法線
  6
CONTINUOUS
 62
     0
 10
200.947408238386
 20
8.931384245929294
 30
0.0
 11
200.9259362193542
 21
9.443906696450435
 31
0.0
 12
200.947408238386
 22
9.426285065834822
 32
0.0
 13
200.947408238386
 23
9.426285065834822
 33
0.0
  0
SOLID
  5
1A158
  8
寸法線
  6
CONTINUOUS
 62
     0
 10
200.9259362193542
 20
10.94809080371018
 30
0.0
 11
200.9259362193542
 21
11.59148963874023
 31
0.0
 12
200.947408238386
 22
10.93661377042637
 32
0.0
 13
200.947408238386
 23
10.93661377042637
 33
0.0
  0
SOLID
  5
1A159
  8
寸法線
  6
CONTINUOUS
 62
     0
 10
200.947408238386
 20
10.93661377042637
 30
0.0
 11
200.9259362193542
 21
11.59148963874023
 31
0.0
 12
200.947408238386
 22
11.54836801149098
 32
0.0
 13
200.947408238386
 23
11.54836801149098
 33
0.0
  0
SOLID
  5
1A15A
  8
寸法線
  6
CONTINUOUS
 62
     0
 10
200.9259362193542
 20
12.26077654870933
 30
0.0
 11
200.9259362193542
 21
12.90417538373937
 31
0.0
 12
200.947408238386
 22
12.30389817595858
 32
0.0
 13
200.947408238386
 23
12.30389817595858
 33
0.0
  0
SOLID
  5
1A15B
  8
寸法線
  6
CONTINUOUS
 62
     0
 10
200.947408238386
 20
12.30389817595858
 30
0.0
 11
200.9259362193542
 21
12.90417538373937
 31
0.0
 12
200.947408238386
 22
12.91565241702318
 32
0.0
 13
200.947408238386
 23
12.91565241702318
 33
0.0
  0
SOLID
  5
1A15C
  8
寸法線
  6
CONTINUOUS
 62
     0
 10
200.9259362193542
 20
14.40835949099912
 30
0.0
 11
200.9259362193542
 21
14.91347390853148
 31
0.0
 12
200.947408238386
 22
14.42598112161474
 32
0.0
 13
200.947408238386
 23
14.42598112161474
 33
0.0
  0
SOLID
  5
1A15D
  8
寸法線
  6
CONTINUOUS
 62
     0
 10
200.947408238386
 20
14.42598112161474
 30
0.0
 11
200.9259362193542
 21
14.91347390853148
 31
0.0
 12
200.947408238386
 22
14.9208819415203
 32
0.0
 13
200.947408238386
 23
14.9208819415203
 33
0.0
  0
SOLID
  5
1A15E
  8
寸法線
  6
CONTINUOUS
 62
     0
 10
200.947408238386
 20
8.931384245929294
 30
0.0
 11
200.947408238386
 21
9.426285065834822
 31
0.0
 12
200.9525746227596
 22
8.929698266780255
 32
0.0
 13
200.9525746227596
 23
8.929698266780255
 33
0.0
  0
SOLID
  5
1A15F
  8
寸法線
  6
CONTINUOUS
 62
     0
 10
200.9525746227596
 20
8.929698266780255
 30
0.0
 11
200.947408238386
 21
9.426285065834822
 31
0.0
 12
200.9525746227596
 22
9.422045123754085
 32
0.0
 13
200.9525746227596
 23
9.422045123754085
 33
0.0
  0
SOLID
  5
1A160
  8
寸法線
  6
CONTINUOUS
 62
     0
 10
200.947408238386
 20
10.93661377042637
 30
0.0
 11
200.947408238386
 21
11.54836801149098
 31
0.0
 12
200.9525746227596
 22
10.93385228044605
 32
0.0
 13
200.9525746227596
 23
10.93385228044605
 33
0.0
  0
SOLID
  5
1A161
  8
寸法線
  6
CONTINUOUS
 62
     0
 10
200.9525746227596
 20
10.93385228044605
 30
0.0
 11
200.947408238386
 21
11.54836801149098
 31
0.0
 12
200.9525746227596
 22
11.53799251299415
 32
0.0
 13
200.9525746227596
 23
11.53799251299415
 33
0.0
  0
SOLID
  5
1A162
  8
寸法線
  6
CONTINUOUS
 62
     0
 10
200.947408238386
 20
12.30389817595858
 30
0.0
 11
200.947408238386
 21
12.91565241702318
 31
0.0
 12
200.9525746227596
 22
12.31427367445541
 32
0.0
 13
200.9525746227596
 23
12.31427367445541
 33
0.0
  0
SOLID
  5
1A163
  8
寸法線
  6
CONTINUOUS
 62
     0
 10
200.9525746227596
 20
12.31427367445541
 30
0.0
 11
200.947408238386
 21
12.91565241702318
 31
0.0
 12
200.9525746227596
 22
12.91841390700351
 32
0.0
 13
200.9525746227596
 23
12.91841390700351
 33
0.0
  0
SOLID
  5
1A164
  8
寸法線
  6
CONTINUOUS
 62
     0
 10
200.947408238386
 20
14.42598112161474
 30
0.0
 11
200.947408238386
 21
14.92088194152029
 31
0.0
 12
200.9525746227596
 22
14.43022106369548
 32
0.0
 13
200.9525746227596
 23
14.43022106369548
 33
0.0
  0
SOLID
  5
1A165
  8
寸法線
  6
CONTINUOUS
 62
     0
 10
200.9525746227596
 20
14.43022106369548
 30
0.0
 11
200.947408238386
 21
14.92088194152029
 31
0.0
 12
200.9525746227596
 22
14.92256792066933
 32
0.0
 13
200.9525746227596
 23
14.92256792066933
 33
0.0
  0
SOLID
  5
1A166
  8
寸法線
  6
CONTINUOUS
 62
     0
 10
200.9525746227596
 20
8.929698266780255
 30
0.0
 11
200.9525746227596
 21
9.422045123754085
 31
0.0
 12
201.0345688958264
 22
8.902940552926088
 32
0.0
 13
201.0345688958264
 23
8.902940552926088
 33
0.0
  0
SOLID
  5
1A167
  8
寸法線
  6
CONTINUOUS
 62
     0
 10
201.0345688958264
 20
8.902940552926088
 30
0.0
 11
200.9525746227596
 21
9.422045123754085
 31
0.0
 12
201.0345688958264
 22
9.354754162878786
 32
0.0
 13
201.0345688958264
 23
9.354754162878786
 33
0.0
  0
SOLID
  5
1A168
  8
寸法線
  6
CONTINUOUS
 62
     0
 10
200.9525746227596
 20
10.93385228044605
 30
0.0
 11
200.9525746227596
 21
11.53799251299415
 31
0.0
 12
201.0345688958264
 22
10.89002542840768
 32
0.0
 13
201.0345688958264
 23
10.89002542840768
 33
0.0
  0
SOLID
  5
1A169
  8
寸法線
  6
CONTINUOUS
 62
     0
 10
201.0345688958264
 20
10.89002542840768
 30
0.0
 11
200.9525746227596
 21
11.53799251299415
 31
0.0
 12
201.0345688958264
 22
11.42941454801238
 32
0.0
 13
201.0345688958264
 23
11.42941454801238
 33
0.0
  0
SOLID
  5
1A16A
  8
寸法線
  6
CONTINUOUS
 62
     0
 10
200.9525746227596
 20
12.31427367445541
 30
0.0
 11
200.9525746227596
 21
12.91841390700351
 31
0.0
 12
201.0345688958264
 22
12.42285163943717
 32
0.0
 13
201.0345688958264
 23
12.42285163943717
 33
0.0
  0
SOLID
  5
1A16B
  8
寸法線
  6
CONTINUOUS
 62
     0
 10
201.0345688958264
 20
12.42285163943717
 30
0.0
 11
200.9525746227596
 21
12.91841390700351
 31
0.0
 12
201.0345688958264
 22
12.96224075904188
 32
0.0
 13
201.0345688958264
 23
12.96224075904188
 33
0.0
  0
SOLID
  5
1A16C
  8
寸法線
  6
CONTINUOUS
 62
     0
 10
200.9525746227596
 20
14.43022106369548
 30
0.0
 11
200.9525746227596
 21
14.92256792066933
 31
0.0
 12
201.0345688958264
 22
14.49751202457077
 32
0.0
 13
201.0345688958264
 23
14.49751202457077
 33
0.0
  0
SOLID
  5
1A16D
  8
寸法線
  6
CONTINUOUS
 62
     0
 10
201.0345688958264
 20
14.49751202457077
 30
0.0
 11
200.9525746227596
 21
14.92256792066933
 31
0.0
 12
201.0345688958264
 22
14.94932563452349
 32
0.0
 13
201.0345688958264
 23
14.94932563452349
 33
0.0
  0
SOLID
  5
1A16E
  8
寸法線
  6
CONTINUOUS
 62
     0
 10
201.0345688958264
 20
8.902940552926088
 30
0.0
 11
201.0345688958264
 21
9.354754162878786
 31
0.0
 12
201.0371846390209
 22
8.90208694077373
 32
0.0
 13
201.0371846390209
 23
8.90208694077373
 33
0.0
  0
SOLID
  5
1A16F
  8
寸法線
  6
CONTINUOUS
 62
     0
 10
201.0371846390209
 20
8.90208694077373
 30
0.0
 11
201.0345688958264
 21
9.354754162878786
 31
0.0
 12
201.0371846390209
 22
9.35260747791683
 32
0.0
 13
201.0371846390209
 23
9.35260747791683
 33
0.0
  0
SOLID
  5
1A170
  8
寸法線
  6
CONTINUOUS
 62
     0
 10
201.0345688958264
 20
10.89002542840768
 30
0.0
 11
201.0345688958264
 21
11.42941454801238
 31
0.0
 12
201.0371846390209
 22
10.88862728454144
 32
0.0
 13
201.0371846390209
 23
10.88862728454144
 33
0.0
  0
SOLID
  5
1A171
  8
寸法線
  6
CONTINUOUS
 62
     0
 10
201.0371846390209
 20
10.88862728454144
 30
0.0
 11
201.0345688958264
 21
11.42941454801238
 31
0.0
 12
201.0371846390209
 22
11.42702998301736
 32
0.0
 13
201.0371846390209
 23
11.42702998301736
 33
0.0
  0
SOLID
  5
1A172
  8
寸法線
  6
CONTINUOUS
 62
     0
 10
201.0345688958264
 20
12.42285163943717
 30
0.0
 11
201.0345688958264
 21
12.96224075904188
 31
0.0
 12
201.0371846390209
 22
12.42523620443219
 32
0.0
 13
201.0371846390209
 23
12.42523620443219
 33
0.0
  0
SOLID
  5
1A173
  8
寸法線
  6
CONTINUOUS
 62
     0
 10
201.0371846390209
 20
12.42523620443219
 30
0.0
 11
201.0345688958264
 21
12.96224075904188
 31
0.0
 12
201.0371846390209
 22
12.96363890290811
 32
0.0
 13
201.0371846390209
 23
12.96363890290811
 33
0.0
  0
SOLID
  5
1A174
  8
寸法線
  6
CONTINUOUS
 62
     0
 10
201.0345688958264
 20
14.49751202457077
 30
0.0
 11
201.0345688958264
 21
14.94932563452349
 31
0.0
 12
201.0371846390209
 22
14.49965870953273
 32
0.0
 13
201.0371846390209
 23
14.49965870953273
 33
0.0
  0
SOLID
  5
1A175
  8
寸法線
  6
CONTINUOUS
 62
     0
 10
201.0371846390209
 20
14.49965870953273
 30
0.0
 11
201.0345688958264
 21
14.94932563452349
 31
0.0
 12
201.0371846390209
 22
14.95017924667585
 32
0.0
 13
201.0371846390209
 23
14.95017924667585
 33
0.0
  0
SOLID
  5
1A176
  8
寸法線
  6
CONTINUOUS
 62
     0
 10
201.0371846390209
 20
8.90208694077373
 30
0.0
 11
201.0371846390209
 21
9.35260747791683
 31
0.0
 12
201.1278144363313
 22
8.874170773257767
 32
0.0
 13
201.1278144363313
 23
8.874170773257767
 33
0.0
  0
SOLID
  5
1A177
  8
寸法線
  6
CONTINUOUS
 62
     0
 10
201.1278144363313
 20
8.874170773257767
 30
0.0
 11
201.0371846390209
 21
9.35260747791683
 31
0.0
 12
201.1278144363313
 22
9.27822952544705
 32
0.0
 13
201.1278144363313
 23
9.27822952544705
 33
0.0
  0
SOLID
  5
1A178
  8
寸法線
  6
CONTINUOUS
 62
     0
 10
201.0371846390209
 20
10.88862728454144
 30
0.0
 11
201.0371846390209
 21
11.42702998301736
 31
0.0
 12
201.1278144363313
 22
10.84018464863005
 32
0.0
 13
201.1278144363313
 23
10.84018464863005
 33
0.0
  0
SOLID
  5
1A179
  8
寸法線
  6
CONTINUOUS
 62
     0
 10
201.1278144363313
 20
10.84018464863005
 30
0.0
 11
201.0371846390209
 21
11.42702998301736
 31
0.0
 12
201.1278144363313
 22
11.34441000616748
 32
0.0
 13
201.1278144363313
 23
11.34441000616748
 33
0.0
  0
SOLID
  5
1A17A
  8
寸法線
  6
CONTINUOUS
 62
     0
 10
201.0371846390209
 20
12.42523620443219
 30
0.0
 11
201.0371846390209
 21
12.96363890290811
 31
0.0
 12
201.1278144363313
 22
12.50785618128208
 32
0.0
 13
201.1278144363313
 23
12.50785618128208
 33
0.0
  0
SOLID
  5
1A17B
  8
寸法線
  6
CONTINUOUS
 62
     0
 10
201.1278144363313
 20
12.50785618128208
 30
0.0
 11
201.0371846390209
 21
12.96363890290811
 31
0.0
 12
201.1278144363313
 22
13.01208153881951
 32
0.0
 13
201.1278144363313
 23
13.01208153881951
 33
0.0
  0
SOLID
  5
1A17C
  8
寸法線
  6
CONTINUOUS
 62
     0
 10
201.0371846390209
 20
14.49965870953273
 30
0.0
 11
201.0371846390209
 21
14.95017924667586
 31
0.0
 12
201.1278144363313
 22
14.57403666200251
 32
0.0
 13
201.1278144363313
 23
14.57403666200251
 33
0.0
  0
SOLID
  5
1A17D
  8
寸法線
  6
CONTINUOUS
 62
     0
 10
201.1278144363313
 20
14.57403666200251
 30
0.0
 11
201.0371846390209
 21
14.95017924667586
 31
0.0
 12
201.1278144363313
 22
14.97809541419183
 32
0.0
 13
201.1278144363313
 23
14.97809541419183
 33
0.0
  0
SOLID
  5
1A17E
  8
寸法線
  6
CONTINUOUS
 62
     0
 10
201.1278144363313
 20
8.874170773257767
 30
0.0
 11
201.1278144363313
 21
9.27822952544705
 31
0.0
 12
201.1292997577488
 22
8.873739962513987
 32
0.0
 13
201.1292997577488
 23
8.873739962513987
 33
0.0
  0
SOLID
  5
1A17F
  8
寸法線
  6
CONTINUOUS
 62
     0
 10
201.1292997577488
 20
8.873739962513987
 30
0.0
 11
201.1278144363313
 21
9.27822952544705
 31
0.0
 12
201.1292997577488
 22
9.277010553662118
 32
0.0
 13
201.1292997577488
 23
9.277010553662118
 33
0.0
  0
SOLID
  5
1A180
  8
寸法線
  6
CONTINUOUS
 62
     0
 10
201.1278144363313
 20
10.84018464863005
 30
0.0
 11
201.1278144363313
 21
11.34441000616748
 31
0.0
 12
201.1292997577488
 22
10.83939072779191
 32
0.0
 13
201.1292997577488
 23
10.83939072779191
 33
0.0
  0
SOLID
  5
1A181
  8
寸法線
  6
CONTINUOUS
 62
     0
 10
201.1292997577488
 20
10.83939072779191
 30
0.0
 11
201.1278144363313
 21
11.34441000616748
 31
0.0
 12
201.1292997577488
 22
11.34305595678446
 32
0.0
 13
201.1292997577488
 23
11.34305595678446
 33
0.0
  0
SOLID
  5
1A182
  8
寸法線
  6
CONTINUOUS
 62
     0
 10
201.1278144363313
 20
12.50785618128208
 30
0.0
 11
201.1278144363313
 21
13.01208153881951
 31
0.0
 12
201.1292997577488
 22
12.5092102306651
 32
0.0
 13
201.1292997577488
 23
12.5092102306651
 33
0.0
  0
SOLID
  5
1A183
  8
寸法線
  6
CONTINUOUS
 62
     0
 10
201.1292997577488
 20
12.5092102306651
 30
0.0
 11
201.1278144363313
 21
13.01208153881951
 31
0.0
 12
201.1292997577488
 22
13.01287545965765
 32
0.0
 13
201.1292997577488
 23
13.01287545965765
 33
0.0
  0
SOLID
  5
1A184
  8
寸法線
  6
CONTINUOUS
 62
     0
 10
201.1278144363313
 20
14.57403666200251
 30
0.0
 11
201.1278144363313
 21
14.97809541419182
 31
0.0
 12
201.1292997577488
 22
14.57525563378744
 32
0.0
 13
201.1292997577488
 23
14.57525563378744
 33
0.0
  0
SOLID
  5
1A185
  8
寸法線
  6
CONTINUOUS
 62
     0
 10
201.1292997577488
 20
14.57525563378744
 30
0.0
 11
201.1278144363313
 21
14.97809541419182
 31
0.0
 12
201.1292997577488
 22
14.9785262249356
 32
0.0
 13
201.1292997577488
 23
14.9785262249356
 33
0.0
  0
SOLID
  5
1A186
  8
寸法線
  6
CONTINUOUS
 62
     0
 10
201.1292997577488
 20
8.873739962513987
 30
0.0
 11
201.1292997577488
 21
9.277010553662118
 31
0.0
 12
201.1333929897734
 22
8.872552739121028
 32
0.0
 13
201.1333929897734
 23
8.872552739121028
 33
0.0
  0
SOLID
  5
1A187
  8
寸法線
  6
CONTINUOUS
 62
     0
 10
201.1333929897734
 20
8.872552739121028
 30
0.0
 11
201.1292997577488
 21
9.277010553662118
 31
0.0
 12
201.1333929897734
 22
9.273651324953622
 32
0.0
 13
201.1333929897734
 23
9.273651324953622
 33
0.0
  0
SOLID
  5
1A188
  8
寸法線
  6
CONTINUOUS
 62
     0
 10
201.1292997577488
 20
10.83939072779191
 30
0.0
 11
201.1292997577488
 21
11.34305595678446
 31
0.0
 12
201.1333929897734
 22
10.83814905943203
 32
0.0
 13
201.1333929897734
 23
10.83814905943203
 33
0.0
  0
SOLID
  5
1A189
  8
寸法線
  6
CONTINUOUS
 62
     0
 10
201.1333929897734
 20
10.83814905943203
 30
0.0
 11
201.1292997577488
 21
11.34305595678446
 31
0.0
 12
201.1333929897734
 22
11.33932448275333
 32
0.0
 13
201.1333929897734
 23
11.33932448275333
 33
0.0
  0
SOLID
  5
1A18A
  8
寸法線
  6
CONTINUOUS
 62
     0
 10
201.1292997577488
 20
12.5092102306651
 30
0.0
 11
201.1292997577488
 21
13.01287545965765
 31
0.0
 12
201.1333929897734
 22
12.51294170469623
 32
0.0
 13
201.1333929897734
 23
12.51294170469623
 33
0.0
  0
SOLID
  5
1A18B
  8
寸法線
  6
CONTINUOUS
 62
     0
 10
201.1333929897734
 20
12.51294170469623
 30
0.0
 11
201.1292997577488
 21
13.01287545965765
 31
0.0
 12
201.1333929897734
 22
13.01411712801753
 32
0.0
 13
201.1333929897734
 23
13.01411712801753
 33
0.0
  0
SOLID
  5
1A18C
  8
寸法線
  6
CONTINUOUS
 62
     0
 10
201.1292997577488
 20
14.57525563378744
 30
0.0
 11
201.1292997577488
 21
14.9785262249356
 31
0.0
 12
201.1333929897734
 22
14.57861486249594
 32
0.0
 13
201.1333929897734
 23
14.57861486249594
 33
0.0
  0
SOLID
  5
1A18D
  8
寸法線
  6
CONTINUOUS
 62
     0
 10
201.1333929897734
 20
14.57861486249594
 30
0.0
 11
201.1292997577488
 21
14.9785262249356
 31
0.0
 12
201.1333929897734
 22
14.97971344832856
 32
0.0
 13
201.1333929897734
 23
14.97971344832856
 33
0.0
  0
SOLID
  5
1A18E
  8
寸法線
  6
CONTINUOUS
 62
     0
 10
201.1333929897734
 20
8.872552739121028
 30
0.0
 11
201.1333929897734
 21
9.273651324953622
 31
0.0
 12
201.13511820929
 22
8.872052347021132
 32
0.0
 13
201.13511820929
 23
8.872052347021132
 33
0.0
  0
SOLID
  5
1A18F
  8
寸法線
  6
CONTINUOUS
 62
     0
 10
201.13511820929
 20
8.872052347021132
 30
0.0
 11
201.1333929897734
 21
9.273651324953622
 31
0.0
 12
201.13511820929
 22
9.272729175910024
 32
0.0
 13
201.13511820929
 23
9.272729175910024
 33
0.0
  0
SOLID
  5
1A190
  8
寸法線
  6
CONTINUOUS
 62
     0
 10
201.1333929897734
 20
10.83814905943203
 30
0.0
 11
201.1333929897734
 21
11.33932448275333
 31
0.0
 12
201.13511820929
 22
10.83762571981316
 32
0.0
 13
201.13511820929
 23
10.83762571981316
 33
0.0
  0
SOLID
  5
1A191
  8
寸法線
  6
CONTINUOUS
 62
     0
 10
201.13511820929
 20
10.83762571981316
 30
0.0
 11
201.1333929897734
 21
11.33932448275333
 31
0.0
 12
201.13511820929
 22
11.33775173735662
 32
0.0
 13
201.13511820929
 23
11.33775173735662
 33
0.0
  0
SOLID
  5
1A192
  8
寸法線
  6
CONTINUOUS
 62
     0
 10
201.1333929897734
 20
12.51294170469623
 30
0.0
 11
201.1333929897734
 21
13.01411712801753
 31
0.0
 12
201.13511820929
 22
12.51451445009294
 32
0.0
 13
201.13511820929
 23
12.51451445009294
 33
0.0
  0
SOLID
  5
1A193
  8
寸法線
  6
CONTINUOUS
 62
     0
 10
201.13511820929
 20
12.51451445009294
 30
0.0
 11
201.1333929897734
 21
13.01411712801753
 31
0.0
 12
201.13511820929
 22
13.0146404676364
 32
0.0
 13
201.13511820929
 23
13.0146404676364
 33
0.0
  0
SOLID
  5
1A194
  8
寸法線
  6
CONTINUOUS
 62
     0
 10
201.1333929897734
 20
14.57861486249594
 30
0.0
 11
201.1333929897734
 21
14.97971344832856
 31
0.0
 12
201.13511820929
 22
14.57953701153954
 32
0.0
 13
201.13511820929
 23
14.57953701153954
 33
0.0
  0
SOLID
  5
1A195
  8
寸法線
  6
CONTINUOUS
 62
     0
 10
201.13511820929
 20
14.57953701153954
 30
0.0
 11
201.1333929897734
 21
14.97971344832856
 31
0.0
 12
201.13511820929
 22
14.98021384042846
 32
0.0
 13
201.13511820929
 23
14.98021384042846
 33
0.0
  0
SOLID
  5
1A196
  8
寸法線
  6
CONTINUOUS
 62
     0
 10
201.13511820929
 20
8.872052347021132
 30
0.0
 11
201.13511820929
 21
9.272729175910024
 31
0.0
 12
201.2192562380176
 22
8.847648493209864
 32
0.0
 13
201.2192562380176
 23
8.847648493209864
 33
0.0
  0
SOLID
  5
1A197
  8
寸法線
  6
CONTINUOUS
 62
     0
 10
201.2192562380176
 20
8.847648493209864
 30
0.0
 11
201.13511820929
 21
9.272729175910024
 31
0.0
 12
201.2192562380176
 22
9.227756462598169
 32
0.0
 13
201.2192562380176
 23
9.227756462598169
 33
0.0
  0
SOLID
  5
1A198
  8
寸法線
  6
CONTINUOUS
 62
     0
 10
201.13511820929
 20
10.83762571981316
 30
0.0
 11
201.13511820929
 21
11.33775173735662
 31
0.0
 12
201.2192562380176
 22
10.81210272783338
 32
0.0
 13
201.2192562380176
 23
10.81210272783338
 33
0.0
  0
SOLID
  5
1A199
  8
寸法線
  6
CONTINUOUS
 62
     0
 10
201.2192562380176
 20
10.81210272783338
 30
0.0
 11
201.13511820929
 21
11.33775173735662
 31
0.0
 12
201.2192562380176
 22
11.28565567556024
 32
0.0
 13
201.2192562380176
 23
11.28565567556024
 33
0.0
  0
SOLID
  5
1A19A
  8
寸法線
  6
CONTINUOUS
 62
     0
 10
201.13511820929
 20
12.51451445009294
 30
0.0
 11
201.13511820929
 21
13.0146404676364
 31
0.0
 12
201.2192562380176
 22
12.56661051188932
 32
0.0
 13
201.2192562380176
 23
12.56661051188932
 33
0.0
  0
SOLID
  5
1A19B
  8
寸法線
  6
CONTINUOUS
 62
     0
 10
201.2192562380176
 20
12.56661051188932
 30
0.0
 11
201.13511820929
 21
13.0146404676364
 31
0.0
 12
201.2192562380176
 22
13.04016345961618
 32
0.0
 13
201.2192562380176
 23
13.04016345961618
 33
0.0
  0
SOLID
  5
1A19C
  8
寸法線
  6
CONTINUOUS
 62
     0
 10
201.13511820929
 20
14.57953701153954
 30
0.0
 11
201.13511820929
 21
14.98021384042846
 31
0.0
 12
201.2192562380176
 22
14.62450972485139
 32
0.0
 13
201.2192562380176
 23
14.62450972485139
 33
0.0
  0
SOLID
  5
1A19D
  8
寸法線
  6
CONTINUOUS
 62
     0
 10
201.2192562380176
 20
14.62450972485139
 30
0.0
 11
201.13511820929
 21
14.98021384042846
 31
0.0
 12
201.2192562380176
 22
15.00461769423971
 32
0.0
 13
201.2192562380176
 23
15.00461769423971
 33
0.0
  0
SOLID
  5
1A19E
  8
寸法線
  6
CONTINUOUS
 62
     0
 10
201.2192562380176
 20
8.847648493209864
 30
0.0
 11
201.2192562380176
 21
9.227756462598169
 31
0.0
 12
201.2507984768762
 22
8.839057167630001
 32
0.0
 13
201.2507984768762
 23
8.839057167630001
 33
0.0
  0
SOLID
  5
1A19F
  8
寸法線
  6
CONTINUOUS
 62
     0
 10
201.2507984768762
 20
8.839057167630001
 30
0.0
 11
201.2192562380176
 21
9.227756462598169
 31
0.0
 12
201.2507984768762
 22
9.210896784675453
 32
0.0
 13
201.2507984768762
 23
9.210896784675453
 33
0.0
  0
SOLID
  5
1A1A0
  8
寸法線
  6
CONTINUOUS
 62
     0
 10
201.2192562380176
 20
10.81210272783338
 30
0.0
 11
201.2192562380176
 21
11.28565567556024
 31
0.0
 12
201.2507984768762
 22
10.80253449428209
 32
0.0
 13
201.2507984768762
 23
10.80253449428209
 33
0.0
  0
SOLID
  5
1A1A1
  8
寸法線
  6
CONTINUOUS
 62
     0
 10
201.2507984768762
 20
10.80253449428209
 30
0.0
 11
201.2192562380176
 21
11.28565567556024
 31
0.0
 12
201.2507984768762
 22
11.26612554810632
 32
0.0
 13
201.2507984768762
 23
11.26612554810632
 33
0.0
  0
SOLID
  5
1A1A2
  8
寸法線
  6
CONTINUOUS
 62
     0
 10
201.2192562380176
 20
12.56661051188932
 30
0.0
 11
201.2192562380176
 21
13.04016345961618
 31
0.0
 12
201.2507984768762
 22
12.58614063934323
 32
0.0
 13
201.2507984768762
 23
12.58614063934323
 33
0.0
  0
SOLID
  5
1A1A3
  8
寸法線
  6
CONTINUOUS
 62
     0
 10
201.2507984768762
 20
12.58614063934323
 30
0.0
 11
201.2192562380176
 21
13.04016345961618
 31
0.0
 12
201.2507984768762
 22
13.04973169316747
 32
0.0
 13
201.2507984768762
 23
13.04973169316747
 33
0.0
  0
SOLID
  5
1A1A4
  8
寸法線
  6
CONTINUOUS
 62
     0
 10
201.2192562380176
 20
14.62450972485139
 30
0.0
 11
201.2192562380176
 21
15.00461769423972
 31
0.0
 12
201.2507984768762
 22
14.64136940277411
 32
0.0
 13
201.2507984768762
 23
14.64136940277411
 33
0.0
  0
SOLID
  5
1A1A5
  8
寸法線
  6
CONTINUOUS
 62
     0
 10
201.2507984768762
 20
14.64136940277411
 30
0.0
 11
201.2192562380176
 21
15.00461769423972
 31
0.0
 12
201.2507984768762
 22
15.01320901981959
 32
0.0
 13
201.2507984768762
 23
15.01320901981959
 33
0.0
  0
SOLID
  5
1A1A6
  8
寸法線
  6
CONTINUOUS
 62
     0
 10
201.2507984768762
 20
8.839057167630001
 30
0.0
 11
201.2507984768762
 21
9.210896784675453
 31
0.0
 12
201.311468280923
 22
8.82253221384438
 32
0.0
 13
201.311468280923
 23
8.82253221384438
 33
0.0
  0
SOLID
  5
1A1A7
  8
寸法線
  6
CONTINUOUS
 62
     0
 10
201.311468280923
 20
8.82253221384438
 30
0.0
 11
201.2507984768762
 21
9.210896784675453
 31
0.0
 12
201.311468280923
 22
9.178468098796488
 32
0.0
 13
201.311468280923
 23
9.178468098796488
 33
0.0
  0
SOLID
  5
1A1A8
  8
寸法線
  6
CONTINUOUS
 62
     0
 10
201.2507984768762
 20
10.80253449428209
 30
0.0
 11
201.2507984768762
 21
11.26612554810632
 31
0.0
 12
201.311468280923
 22
10.78413051042939
 32
0.0
 13
201.311468280923
 23
10.78413051042939
 33
0.0
  0
SOLID
  5
1A1A9
  8
寸法線
  6
CONTINUOUS
 62
     0
 10
201.311468280923
 20
10.78413051042939
 30
0.0
 11
201.2507984768762
 21
11.26612554810632
 31
0.0
 12
201.311468280923
 22
11.24262194080307
 32
0.0
 13
201.311468280923
 23
11.24262194080307
 33
0.0
  0
SOLID
  5
1A1AA
  8
寸法線
  6
CONTINUOUS
 62
     0
 10
201.2507984768762
 20
12.58614063934323
 30
0.0
 11
201.2507984768762
 21
13.04973169316747
 31
0.0
 12
201.311468280923
 22
12.60964424664649
 32
0.0
 13
201.311468280923
 23
12.60964424664649
 33
0.0
  0
SOLID
  5
1A1AB
  8
寸法線
  6
CONTINUOUS
 62
     0
 10
201.311468280923
 20
12.60964424664649
 30
0.0
 11
201.2507984768762
 21
13.04973169316747
 31
0.0
 12
201.311468280923
 22
13.06813567702017
 32
0.0
 13
201.311468280923
 23
13.06813567702017
 33
0.0
  0
SOLID
  5
1A1AC
  8
寸法線
  6
CONTINUOUS
 62
     0
 10
201.2507984768762
 20
14.64136940277411
 30
0.0
 11
201.2507984768762
 21
15.01320901981959
 31
0.0
 12
201.311468280923
 22
14.67379808865307
 32
0.0
 13
201.311468280923
 23
14.67379808865307
 33
0.0
  0
SOLID
  5
1A1AD
  8
寸法線
  6
CONTINUOUS
 62
     0
 10
201.311468280923
 20
14.67379808865307
 30
0.0
 11
201.2507984768762
 21
15.01320901981959
 31
0.0
 12
201.311468280923
 22
15.02973397360522
 32
0.0
 13
201.311468280923
 23
15.02973397360522
 33
0.0
  0
SOLID
  5
1A1AE
  8
寸法線
  6
CONTINUOUS
 62
     0
 10
201.311468280923
 20
8.82253221384438
 30
0.0
 11
201.311468280923
 21
9.178468098796488
 31
0.0
 12
201.349962055591
 22
8.812716688778632
 32
0.0
 13
201.349962055591
 23
8.812716688778632
 33
0.0
  0
SOLID
  5
1A1AF
  8
寸法線
  6
CONTINUOUS
 62
     0
 10
201.349962055591
 20
8.812716688778632
 30
0.0
 11
201.311468280923
 21
9.178468098796488
 31
0.0
 12
201.349962055591
 22
9.157892747571623
 32
0.0
 13
201.349962055591
 23
9.157892747571623
 33
0.0
  0
SOLID
  5
1A1B0
  8
寸法線
  6
CONTINUOUS
 62
     0
 10
201.311468280923
 20
10.78413051042939
 30
0.0
 11
201.311468280923
 21
11.24262194080307
 31
0.0
 12
201.349962055591
 22
10.7724535515443
 32
0.0
 13
201.349962055591
 23
10.7724535515443
 33
0.0
  0
SOLID
  5
1A1B1
  8
寸法線
  6
CONTINUOUS
 62
     0
 10
201.349962055591
 20
10.7724535515443
 30
0.0
 11
201.311468280923
 21
11.24262194080307
 31
0.0
 12
201.349962055591
 22
11.22770937304991
 32
0.0
 13
201.349962055591
 23
11.22770937304991
 33
0.0
  0
SOLID
  5
1A1B2
  8
寸法線
  6
CONTINUOUS
 62
     0
 10
201.311468280923
 20
12.60964424664649
 30
0.0
 11
201.311468280923
 21
13.06813567702017
 31
0.0
 12
201.349962055591
 22
12.62455681439964
 32
0.0
 13
201.349962055591
 23
12.62455681439964
 33
0.0
  0
SOLID
  5
1A1B3
  8
寸法線
  6
CONTINUOUS
 62
     0
 10
201.349962055591
 20
12.62455681439964
 30
0.0
 11
201.311468280923
 21
13.06813567702017
 31
0.0
 12
201.349962055591
 22
13.07981263590526
 32
0.0
 13
201.349962055591
 23
13.07981263590526
 33
0.0
  0
SOLID
  5
1A1B4
  8
寸法線
  6
CONTINUOUS
 62
     0
 10
201.311468280923
 20
14.67379808865307
 30
0.0
 11
201.311468280923
 21
15.02973397360521
 31
0.0
 12
201.349962055591
 22
14.69437343987794
 32
0.0
 13
201.349962055591
 23
14.69437343987794
 33
0.0
  0
SOLID
  5
1A1B5
  8
寸法線
  6
CONTINUOUS
 62
     0
 10
201.349962055591
 20
14.69437343987794
 30
0.0
 11
201.311468280923
 21
15.02973397360521
 31
0.0
 12
201.349962055591
 22
15.03954949867095
 32
0.0
 13
201.349962055591
 23
15.03954949867095
 33
0.0
  0
SOLID
  5
1A1B6
  8
寸法線
  6
CONTINUOUS
 62
     0
 10
201.349962055591
 20
8.812716688778632
 30
0.0
 11
201.349962055591
 21
9.157892747571623
 31
0.0
 12
201.3776703458154
 22
8.80565135368039
 32
0.0
 13
201.3776703458154
 23
8.80565135368039
 33
0.0
  0
SOLID
  5
1A1B7
  8
寸法線
  6
CONTINUOUS
 62
     0
 10
201.3776703458154
 20
8.80565135368039
 30
0.0
 11
201.349962055591
 21
9.157892747571623
 31
0.0
 12
201.3776703458154
 22
9.143082357888549
 32
0.0
 13
201.3776703458154
 23
9.143082357888549
 33
0.0
  0
SOLID
  5
1A1B8
  8
寸法線
  6
CONTINUOUS
 62
     0
 10
201.349962055591
 20
10.7724535515443
 30
0.0
 11
201.349962055591
 21
11.22770937304991
 31
0.0
 12
201.3776703458154
 22
10.76972452315547
 32
0.0
 13
201.3776703458154
 23
10.76972452315547
 33
0.0
  0
SOLID
  5
1A1B9
  8
寸法線
  6
CONTINUOUS
 62
     0
 10
201.3776703458154
 20
10.76972452315547
 30
0.0
 11
201.349962055591
 21
11.22770937304991
 31
0.0
 12
201.3776703458154
 22
11.21697512423026
 32
0.0
 13
201.3776703458154
 23
11.21697512423026
 33
0.0
  0
SOLID
  5
1A1BA
  8
寸法線
  6
CONTINUOUS
 62
     0
 10
201.349962055591
 20
12.62455681439964
 30
0.0
 11
201.349962055591
 21
13.07981263590526
 31
0.0
 12
201.3776703458154
 22
12.6352910632193
 32
0.0
 13
201.3776703458154
 23
12.6352910632193
 33
0.0
  0
SOLID
  5
1A1BB
  8
寸法線
  6
CONTINUOUS
 62
     0
 10
201.3776703458154
 20
12.6352910632193
 30
0.0
 11
201.349962055591
 21
13.07981263590526
 31
0.0
 12
201.3776703458154
 22
13.08254166429409
 32
0.0
 13
201.3776703458154
 23
13.08254166429409
 33
0.0
  0
SOLID
  5
1A1BC
  8
寸法線
  6
CONTINUOUS
 62
     0
 10
201.349962055591
 20
14.69437343987794
 30
0.0
 11
201.349962055591
 21
15.03954949867095
 31
0.0
 12
201.3776703458154
 22
14.70918382956101
 32
0.0
 13
201.3776703458154
 23
14.70918382956101
 33
0.0
  0
SOLID
  5
1A1BD
  8
寸法線
  6
CONTINUOUS
 62
     0
 10
201.3776703458154
 20
14.70918382956101
 30
0.0
 11
201.349962055591
 21
15.03954949867095
 31
0.0
 12
201.3776703458154
 22
15.04661483376919
 32
0.0
 13
201.3776703458154
 23
15.04661483376919
 33
0.0
  0
SOLID
  5
1A1BE
  8
寸法線
  6
CONTINUOUS
 62
     0
 10
201.3776703458154
 20
8.80565135368039
 30
0.0
 11
201.3776703458154
 21
9.143082357888549
 31
0.0
 12
201.4044084501069
 22
8.798833406229223
 32
0.0
 13
201.4044084501069
 23
8.798833406229223
 33
0.0
  0
SOLID
  5
1A1BF
  8
寸法線
  6
CONTINUOUS
 62
     0
 10
201.4044084501069
 20
8.798833406229223
 30
0.0
 11
201.3776703458154
 21
9.143082357888549
 31
0.0
 12
201.4044084501069
 22
9.128790543390515
 32
0.0
 13
201.4044084501069
 23
9.128790543390515
 33
0.0
  0
SOLID
  5
1A1C0
  8
寸法線
  6
CONTINUOUS
 62
     0
 10
201.3776703458154
 20
10.76972452315547
 30
0.0
 11
201.3776703458154
 21
11.21697512423026
 31
0.0
 12
201.4044084501069
 22
10.76709104974069
 32
0.0
 13
201.4044084501069
 23
10.76709104974069
 33
0.0
  0
SOLID
  5
1A1C1
  8
寸法線
  6
CONTINUOUS
 62
     0
 10
201.4044084501069
 20
10.76709104974069
 30
0.0
 11
201.3776703458154
 21
11.21697512423026
 31
0.0
 12
201.4044084501069
 22
11.21197690630092
 32
0.0
 13
201.4044084501069
 23
11.21197690630092
 33
0.0
  0
SOLID
  5
1A1C2
  8
寸法線
  6
CONTINUOUS
 62
     0
 10
201.3776703458154
 20
12.6352910632193
 30
0.0
 11
201.3776703458154
 21
13.08254166429409
 31
0.0
 12
201.4044084501069
 22
12.64028928114863
 32
0.0
 13
201.4044084501069
 23
12.64028928114863
 33
0.0
  0
SOLID
  5
1A1C3
  8
寸法線
  6
CONTINUOUS
 62
     0
 10
201.4044084501069
 20
12.64028928114863
 30
0.0
 11
201.3776703458154
 21
13.08254166429409
 31
0.0
 12
201.4044084501069
 22
13.08517513770887
 32
0.0
 13
201.4044084501069
 23
13.08517513770887
 33
0.0
  0
SOLID
  5
1A1C4
  8
寸法線
  6
CONTINUOUS
 62
     0
 10
201.3776703458154
 20
14.70918382956101
 30
0.0
 11
201.3776703458154
 21
15.04661483376919
 31
0.0
 12
201.4044084501069
 22
14.72347564405904
 32
0.0
 13
201.4044084501069
 23
14.72347564405904
 33
0.0
  0
SOLID
  5
1A1C5
  8
寸法線
  6
CONTINUOUS
 62
     0
 10
201.4044084501069
 20
14.72347564405904
 30
0.0
 11
201.3776703458154
 21
15.04661483376919
 31
0.0
 12
201.4044084501069
 22
15.05343278122036
 32
0.0
 13
201.4044084501069
 23
15.05343278122036
 33
0.0
  0
SOLID
  5
1A1C6
  8
寸法線
  6
CONTINUOUS
 62
     0
 10
201.4044084501069
 20
8.798833406229223
 30
0.0
 11
201.4044084501069
 21
9.128790543390515
 31
0.0
 12
201.4980342980805
 22
8.776562894046826
 32
0.0
 13
201.4980342980805
 23
8.776562894046826
 33
0.0
  0
SOLID
  5
1A1C7
  8
寸法線
  6
CONTINUOUS
 62
     0
 10
201.4980342980805
 20
8.776562894046826
 30
0.0
 11
201.4044084501069
 21
9.128790543390515
 31
0.0
 12
201.4980342980805
 22
9.078746485035797
 32
0.0
 13
201.4980342980805
 23
9.078746485035797
 33
0.0
  0
SOLID
  5
1A1C8
  8
寸法線
  6
CONTINUOUS
 62
     0
 10
201.4044084501069
 20
10.76709104974069
 30
0.0
 11
201.4044084501069
 21
11.21197690630092
 31
0.0
 12
201.4980342980805
 22
10.75786970858327
 32
0.0
 13
201.4980342980805
 23
10.75786970858327
 33
0.0
  0
SOLID
  5
1A1C9
  8
寸法線
  6
CONTINUOUS
 62
     0
 10
201.4980342980805
 20
10.75786970858327
 30
0.0
 11
201.4044084501069
 21
11.21197690630092
 31
0.0
 12
201.4980342980805
 22
11.19447520210795
 32
0.0
 13
201.4980342980805
 23
11.19447520210795
 33
0.0
  0
SOLID
  5
1A1CA
  8
寸法線
  6
CONTINUOUS
 62
     0
 10
201.4044084501069
 20
12.64028928114863
 30
0.0
 11
201.4044084501069
 21
13.08517513770887
 31
0.0
 12
201.4980342980805
 22
12.6577909853416
 32
0.0
 13
201.4980342980805
 23
12.6577909853416
 33
0.0
  0
SOLID
  5
1A1CB
  8
寸法線
  6
CONTINUOUS
 62
     0
 10
201.4980342980805
 20
12.6577909853416
 30
0.0
 11
201.4044084501069
 21
13.08517513770887
 31
0.0
 12
201.4980342980805
 22
13.09439647886629
 32
0.0
 13
201.4980342980805
 23
13.09439647886629
 33
0.0
  0
SOLID
  5
1A1CC
  8
寸法線
  6
CONTINUOUS
 62
     0
 10
201.4044084501069
 20
14.72347564405904
 30
0.0
 11
201.4044084501069
 21
15.05343278122036
 31
0.0
 12
201.4980342980805
 22
14.77351970241376
 32
0.0
 13
201.4980342980805
 23
14.77351970241376
 33
0.0
  0
SOLID
  5
1A1CD
  8
寸法線
  6
CONTINUOUS
 62
     0
 10
201.4980342980805
 20
14.77351970241376
 30
0.0
 11
201.4044084501069
 21
15.05343278122036
 31
0.0
 12
201.4980342980805
 22
15.07570329340276
 32
0.0
 13
201.4980342980805
 23
15.07570329340276
 33
0.0
  0
SOLID
  5
1A1CE
  8
寸法線
  6
CONTINUOUS
 62
     0
 10
201.4980342980805
 20
8.776562894046826
 30
0.0
 11
201.4980342980805
 21
9.078746485035797
 31
0.0
 12
201.511413346777
 22
8.77360631615474
 32
0.0
 13
201.511413346777
 23
8.77360631615474
 33
0.0
  0
SOLID
  5
1A1CF
  8
寸法線
  6
CONTINUOUS
 62
     0
 10
201.511413346777
 20
8.77360631615474
 30
0.0
 11
201.4980342980805
 21
9.078746485035797
 31
0.0
 12
201.511413346777
 22
9.071595234519108
 32
0.0
 13
201.511413346777
 23
9.071595234519108
 33
0.0
  0
SOLID
  5
1A1D0
  8
寸法線
  6
CONTINUOUS
 62
     0
 10
201.4980342980805
 20
10.75786970858327
 30
0.0
 11
201.4980342980805
 21
11.19447520210795
 31
0.0
 12
201.511413346777
 22
10.75655198730157
 32
0.0
 13
201.511413346777
 23
10.75655198730157
 33
0.0
  0
SOLID
  5
1A1D1
  8
寸法線
  6
CONTINUOUS
 62
     0
 10
201.511413346777
 20
10.75655198730157
 30
0.0
 11
201.4980342980805
 21
11.19447520210795
 31
0.0
 12
201.511413346777
 22
11.1919742244641
 32
0.0
 13
201.511413346777
 23
11.1919742244641
 33
0.0
  0
SOLID
  5
1A1D2
  8
寸法線
  6
CONTINUOUS
 62
     0
 10
201.4980342980805
 20
12.6577909853416
 30
0.0
 11
201.4980342980805
 21
13.09439647886629
 31
0.0
 12
201.511413346777
 22
12.66029196298546
 32
0.0
 13
201.511413346777
 23
12.66029196298546
 33
0.0
  0
SOLID
  5
1A1D3
  8
寸法線
  6
CONTINUOUS
 62
     0
 10
201.511413346777
 20
12.66029196298546
 30
0.0
 11
201.4980342980805
 21
13.09439647886629
 31
0.0
 12
201.511413346777
 22
13.09571420014799
 32
0.0
 13
201.511413346777
 23
13.09571420014799
 33
0.0
  0
SOLID
  5
1A1D4
  8
寸法線
  6
CONTINUOUS
 62
     0
 10
201.4980342980805
 20
14.77351970241376
 30
0.0
 11
201.4980342980805
 21
15.07570329340276
 31
0.0
 12
201.511413346777
 22
14.78067095293045
 32
0.0
 13
201.511413346777
 23
14.78067095293045
 33
0.0
  0
SOLID
  5
1A1D5
  8
寸法線
  6
CONTINUOUS
 62
     0
 10
201.511413346777
 20
14.78067095293045
 30
0.0
 11
201.4980342980805
 21
15.07570329340276
 31
0.0
 12
201.511413346777
 22
15.07865987129485
 32
0.0
 13
201.511413346777
 23
15.07865987129485
 33
0.0
  0
SOLID
  5
1A1D6
  8
寸法線
  6
CONTINUOUS
 62
     0
 10
201.511413346777
 20
8.77360631615474
 30
0.0
 11
201.511413346777
 21
9.071595234519108
 31
0.0
 12
201.5794431845237
 22
8.758572697633186
 32
0.0
 13
201.5794431845237
 23
8.758572697633186
 33
0.0
  0
SOLID
  5
1A1D7
  8
寸法線
  6
CONTINUOUS
 62
     0
 10
201.5794431845237
 20
8.758572697633186
 30
0.0
 11
201.511413346777
 21
9.071595234519108
 31
0.0
 12
201.5794431845237
 22
9.035232528666583
 32
0.0
 13
201.5794431845237
 23
9.035232528666583
 33
0.0
  0
SOLID
  5
1A1D8
  8
寸法線
  6
CONTINUOUS
 62
     0
 10
201.511413346777
 20
10.75655198730157
 30
0.0
 11
201.511413346777
 21
11.1919742244641
 31
0.0
 12
201.5794431845237
 22
10.74985163311174
 32
0.0
 13
201.5794431845237
 23
10.74985163311174
 33
0.0
  0
SOLID
  5
1A1D9
  8
寸法線
  6
CONTINUOUS
 62
     0
 10
201.5794431845237
 20
10.74985163311174
 30
0.0
 11
201.511413346777
 21
11.1919742244641
 31
0.0
 12
201.5794431845237
 22
11.1919742244641
 32
0.0
 13
201.5794431845237
 23
11.1919742244641
 33
0.0
  0
SOLID
  5
1A1DA
  8
寸法線
  6
CONTINUOUS
 62
     0
 10
201.511413346777
 20
12.66029196298546
 30
0.0
 11
201.511413346777
 21
13.09571420014799
 31
0.0
 12
201.5794431845237
 22
12.66029196298546
 32
0.0
 13
201.5794431845237
 23
12.66029196298546
 33
0.0
  0
SOLID
  5
1A1DB
  8
寸法線
  6
CONTINUOUS
 62
     0
 10
201.5794431845237
 20
12.66029196298546
 30
0.0
 11
201.511413346777
 21
13.09571420014799
 31
0.0
 12
201.5794431845237
 22
13.10241455433782
 32
0.0
 13
201.5794431845237
 23
13.10241455433782
 33
0.0
  0
SOLID
  5
1A1DC
  8
寸法線
  6
CONTINUOUS
 62
     0
 10
201.511413346777
 20
14.78067095293045
 30
0.0
 11
201.511413346777
 21
15.07865987129485
 31
0.0
 12
201.5794431845237
 22
14.81703365878298
 32
0.0
 13
201.5794431845237
 23
14.81703365878298
 33
0.0
  0
SOLID
  5
1A1DD
  8
寸法線
  6
CONTINUOUS
 62
     0
 10
201.5794431845237
 20
14.81703365878298
 30
0.0
 11
201.511413346777
 21
15.07865987129485
 31
0.0
 12
201.5794431845237
 22
15.0936934898164
 32
0.0
 13
201.5794431845237
 23
15.0936934898164
 33
0.0
  0
SOLID
  5
1A1DE
  8
寸法線
  6
CONTINUOUS
 62
     0
 10
201.5794431845237
 20
8.758572697633186
 30
0.0
 11
201.5794431845237
 21
9.035232528666583
 31
0.0
 12
201.5923030641925
 22
8.755730848650757
 32
0.0
 13
201.5923030641925
 23
8.755730848650757
 33
0.0
  0
SOLID
  5
1A1DF
  8
寸法線
  6
CONTINUOUS
 62
     0
 10
201.5923030641925
 20
8.755730848650757
 30
0.0
 11
201.5794431845237
 21
9.035232528666583
 31
0.0
 12
201.5923030641925
 22
9.028358779776571
 32
0.0
 13
201.5923030641925
 23
9.028358779776571
 33
0.0
  0
SOLID
  5
1A1E0
  8
寸法線
  6
CONTINUOUS
 62
     0
 10
201.5794431845237
 20
10.74985163311174
 30
0.0
 11
201.5794431845237
 21
11.1919742244641
 31
0.0
 12
201.5923030641925
 22
10.75111822070733
 32
0.0
 13
201.5923030641925
 23
10.75111822070733
 33
0.0
  0
SOLID
  5
1A1E1
  8
寸法線
  6
CONTINUOUS
 62
     0
 10
201.5923030641925
 20
10.75111822070733
 30
0.0
 11
201.5794431845237
 21
11.1919742244641
 31
0.0
 12
201.5923030641925
 22
11.1919742244641
 32
0.0
 13
201.5923030641925
 23
11.1919742244641
 33
0.0
  0
SOLID
  5
1A1E2
  8
寸法線
  6
CONTINUOUS
 62
     0
 10
201.5794431845237
 20
12.66029196298546
 30
0.0
 11
201.5794431845237
 21
13.10241455433782
 31
0.0
 12
201.5923030641925
 22
12.66029196298546
 32
0.0
 13
201.5923030641925
 23
12.66029196298546
 33
0.0
  0
SOLID
  5
1A1E3
  8
寸法線
  6
CONTINUOUS
 62
     0
 10
201.5923030641925
 20
12.66029196298546
 30
0.0
 11
201.5794431845237
 21
13.10241455433782
 31
0.0
 12
201.5923030641925
 22
13.10114796674223
 32
0.0
 13
201.5923030641925
 23
13.10114796674223
 33
0.0
  0
SOLID
  5
1A1E4
  8
寸法線
  6
CONTINUOUS
 62
     0
 10
201.5794431845237
 20
14.81703365878298
 30
0.0
 11
201.5794431845237
 21
15.0936934898164
 31
0.0
 12
201.5923030641925
 22
14.82390740767299
 32
0.0
 13
201.5923030641925
 23
14.82390740767299
 33
0.0
  0
SOLID
  5
1A1E5
  8
寸法線
  6
CONTINUOUS
 62
     0
 10
201.5923030641925
 20
14.82390740767299
 30
0.0
 11
201.5794431845237
 21
15.0936934898164
 31
0.0
 12
201.5923030641925
 22
15.09653533879884
 32
0.0
 13
201.5923030641925
 23
15.09653533879884
 33
0.0
  0
SOLID
  5
1A1E6
  8
寸法線
  6
CONTINUOUS
 62
     0
 10
201.5923030641925
 20
8.755730848650757
 30
0.0
 11
201.5923030641925
 21
9.028358779776571
 31
0.0
 12
201.6474730222702
 22
8.744458228698878
 32
0.0
 13
201.6474730222702
 23
8.744458228698878
 33
0.0
  0
SOLID
  5
1A1E7
  8
寸法線
  6
CONTINUOUS
 62
     0
 10
201.6474730222702
 20
8.744458228698878
 30
0.0
 11
201.5923030641925
 21
9.028358779776571
 31
0.0
 12
201.6474730222702
 22
8.998869822814116
 32
0.0
 13
201.6474730222702
 23
8.998869822814116
 33
0.0
  0
SOLID
  5
1A1E8
  8
寸法線
  6
CONTINUOUS
 62
     0
 10
201.5923030641925
 20
10.75111822070733
 30
0.0
 11
201.5923030641925
 21
11.1919742244641
 31
0.0
 12
201.6474730222702
 22
10.75655198730156
 32
0.0
 13
201.6474730222702
 23
10.75655198730156
 33
0.0
  0
SOLID
  5
1A1E9
  8
寸法線
  6
CONTINUOUS
 62
     0
 10
201.6474730222702
 20
10.75655198730156
 30
0.0
 11
201.5923030641925
 21
11.1919742244641
 31
0.0
 12
201.6474730222702
 22
11.1919742244641
 32
0.0
 13
201.6474730222702
 23
11.1919742244641
 33
0.0
  0
SOLID
  5
1A1EA
  8
寸法線
  6
CONTINUOUS
 62
     0
 10
201.5923030641925
 20
12.66029196298546
 30
0.0
 11
201.5923030641925
 21
13.10114796674223
 31
0.0
 12
201.6474730222702
 22
12.66029196298546
 32
0.0
 13
201.6474730222702
 23
12.66029196298546
 33
0.0
  0
SOLID
  5
1A1EB
  8
寸法線
  6
CONTINUOUS
 62
     0
 10
201.6474730222702
 20
12.66029196298546
 30
0.0
 11
201.5923030641925
 21
13.10114796674223
 31
0.0
 12
201.6474730222702
 22
13.095714200148
 32
0.0
 13
201.6474730222702
 23
13.095714200148
 33
0.0
  0
SOLID
  5
1A1EC
  8
寸法線
  6
CONTINUOUS
 62
     0
 10
201.5923030641925
 20
14.82390740767299
 30
0.0
 11
201.5923030641925
 21
15.09653533879883
 31
0.0
 12
201.6474730222702
 22
14.85339636463544
 32
0.0
 13
201.6474730222702
 23
14.85339636463544
 33
0.0
  0
SOLID
  5
1A1ED
  8
寸法線
  6
CONTINUOUS
 62
     0
 10
201.6474730222702
 20
14.85339636463544
 30
0.0
 11
201.5923030641925
 21
15.09653533879883
 31
0.0
 12
201.6474730222702
 22
15.1078079587507
 32
0.0
 13
201.6474730222702
 23
15.1078079587507
 33
0.0
  0
SOLID
  5
1A1EE
  8
寸法線
  6
CONTINUOUS
 62
     0
 10
201.6474730222702
 20
8.744458228698878
 30
0.0
 11
201.6474730222702
 21
8.998869822814116
 31
0.0
 12
201.6849213679751
 22
8.736806583062972
 32
0.0
 13
201.6849213679751
 23
8.736806583062972
 33
0.0
  0
SOLID
  5
1A1EF
  8
寸法線
  6
CONTINUOUS
 62
     0
 10
201.6849213679751
 20
8.736806583062972
 30
0.0
 11
201.6474730222702
 21
8.998869822814116
 31
0.0
 12
201.6849213679751
 22
8.978853265011903
 32
0.0
 13
201.6849213679751
 23
8.978853265011903
 33
0.0
  0
SOLID
  5
1A1F0
  8
寸法線
  6
CONTINUOUS
 62
     0
 10
201.6474730222702
 20
10.75655198730156
 30
0.0
 11
201.6474730222702
 21
11.1919742244641
 31
0.0
 12
201.6849213679751
 22
10.76024032742344
 32
0.0
 13
201.6849213679751
 23
10.76024032742344
 33
0.0
  0
SOLID
  5
1A1F1
  8
寸法線
  6
CONTINUOUS
 62
     0
 10
201.6849213679751
 20
10.76024032742344
 30
0.0
 11
201.6474730222702
 21
11.1919742244641
 31
0.0
 12
201.6849213679751
 22
11.19897453349445
 32
0.0
 13
201.6849213679751
 23
11.19897453349445
 33
0.0
  0
SOLID
  5
1A1F2
  8
寸法線
  6
CONTINUOUS
 62
     0
 10
201.6474730222702
 20
12.66029196298546
 30
0.0
 11
201.6474730222702
 21
13.095714200148
 31
0.0
 12
201.6849213679751
 22
12.65329165395511
 32
0.0
 13
201.6849213679751
 23
12.65329165395511
 33
0.0
  0
SOLID
  5
1A1F3
  8
寸法線
  6
CONTINUOUS
 62
     0
 10
201.6849213679751
 20
12.65329165395511
 30
0.0
 11
201.6474730222702
 21
13.095714200148
 31
0.0
 12
201.6849213679751
 22
13.09202586002612
 32
0.0
 13
201.6849213679751
 23
13.09202586002612
 33
0.0
  0
SOLID
  5
1A1F4
  8
寸法線
  6
CONTINUOUS
 62
     0
 10
201.6474730222702
 20
14.85339636463544
 30
0.0
 11
201.6474730222702
 21
15.1078079587507
 31
0.0
 12
201.6849213679751
 22
14.87341292243766
 32
0.0
 13
201.6849213679751
 23
14.87341292243766
 33
0.0
  0
SOLID
  5
1A1F5
  8
寸法線
  6
CONTINUOUS
 62
     0
 10
201.6849213679751
 20
14.87341292243766
 30
0.0
 11
201.6474730222702
 21
15.1078079587507
 31
0.0
 12
201.6849213679751
 22
15.11545960438661
 32
0.0
 13
201.6849213679751
 23
15.11545960438661
 33
0.0
  0
SOLID
  5
1A1F6
  8
寸法線
  6
CONTINUOUS
 62
     0
 10
201.6849213679751
 20
8.736806583062972
 30
0.0
 11
201.6849213679751
 21
8.978853265011903
 31
0.0
 12
201.6871716941593
 22
8.73634678442028
 32
0.0
 13
201.6871716941593
 23
8.73634678442028
 33
0.0
  0
SOLID
  5
1A1F7
  8
寸法線
  6
CONTINUOUS
 62
     0
 10
201.6871716941593
 20
8.73634678442028
 30
0.0
 11
201.6849213679751
 21
8.978853265011903
 31
0.0
 12
201.6871716941593
 22
8.97817063602691
 32
0.0
 13
201.6871716941593
 23
8.97817063602691
 33
0.0
  0
SOLID
  5
1A1F8
  8
寸法線
  6
CONTINUOUS
 62
     0
 10
201.6849213679751
 20
10.76024032742344
 30
0.0
 11
201.6849213679751
 21
11.19897453349445
 31
0.0
 12
201.6871716941593
 22
10.76046196520733
 32
0.0
 13
201.6871716941593
 23
10.76046196520733
 33
0.0
  0
SOLID
  5
1A1F9
  8
寸法線
  6
CONTINUOUS
 62
     0
 10
201.6871716941593
 20
10.76046196520733
 30
0.0
 11
201.6849213679751
 21
11.19897453349445
 31
0.0
 12
201.6871716941593
 22
11.19939519236232
 32
0.0
 13
201.6871716941593
 23
11.19939519236232
 33
0.0
  0
SOLID
  5
1A1FA
  8
寸法線
  6
CONTINUOUS
 62
     0
 10
201.6849213679751
 20
12.65329165395511
 30
0.0
 11
201.6849213679751
 21
13.09202586002612
 31
0.0
 12
201.6871716941593
 22
12.65287099508723
 32
0.0
 13
201.6871716941593
 23
12.65287099508723
 33
0.0
  0
SOLID
  5
1A1FB
  8
寸法線
  6
CONTINUOUS
 62
     0
 10
201.6871716941593
 20
12.65287099508723
 30
0.0
 11
201.6849213679751
 21
13.09202586002612
 31
0.0
 12
201.6871716941593
 22
13.09180422224223
 32
0.0
 13
201.6871716941593
 23
13.09180422224223
 33
0.0
  0
SOLID
  5
1A1FC
  8
寸法線
  6
CONTINUOUS
 62
     0
 10
201.6849213679751
 20
14.87341292243766
 30
0.0
 11
201.6849213679751
 21
15.11545960438661
 31
0.0
 12
201.6871716941593
 22
14.87409555142265
 32
0.0
 13
201.6871716941593
 23
14.87409555142265
 33
0.0
  0
SOLID
  5
1A1FD
  8
寸法線
  6
CONTINUOUS
 62
     0
 10
201.6871716941593
 20
14.87409555142265
 30
0.0
 11
201.6849213679751
 21
15.11545960438661
 31
0.0
 12
201.6871716941593
 22
15.1159194030293
 32
0.0
 13
201.6871716941593
 23
15.1159194030293
 33
0.0
  0
SOLID
  5
1A1FE
  8
寸法線
  6
CONTINUOUS
 62
     0
 10
201.6871716941593
 20
8.73634678442028
 30
0.0
 11
201.6871716941593
 21
8.97817063602691
 31
0.0
 12
201.7812160232318
 22
8.718678967886452
 32
0.0
 13
201.7812160232318
 23
8.718678967886452
 33
0.0
  0
SOLID
  5
1A1FF
  8
寸法線
  6
CONTINUOUS
 62
     0
 10
201.7812160232318
 20
8.718678967886452
 30
0.0
 11
201.6871716941593
 21
8.97817063602691
 31
0.0
 12
201.7812160232318
 22
8.949642600690686
 32
0.0
 13
201.7812160232318
 23
8.949642600690686
 33
0.0
  0
SOLID
  5
1A200
  8
寸法線
  6
CONTINUOUS
 62
     0
 10
201.6871716941593
 20
10.76046196520733
 30
0.0
 11
201.6871716941593
 21
11.19939519236232
 31
0.0
 12
201.7812160232318
 22
10.76972452315546
 32
0.0
 13
201.7812160232318
 23
10.76972452315546
 33
0.0
  0
SOLID
  5
1A201
  8
寸法線
  6
CONTINUOUS
 62
     0
 10
201.7812160232318
 20
10.76972452315546
 30
0.0
 11
201.6871716941593
 21
11.19939519236232
 31
0.0
 12
201.7812160232318
 22
11.21697512423026
 32
0.0
 13
201.7812160232318
 23
11.21697512423026
 33
0.0
  0
SOLID
  5
1A202
  8
寸法線
  6
CONTINUOUS
 62
     0
 10
201.6871716941593
 20
12.65287099508723
 30
0.0
 11
201.6871716941593
 21
13.09180422224223
 31
0.0
 12
201.7812160232318
 22
12.6352910632193
 32
0.0
 13
201.7812160232318
 23
12.6352910632193
 33
0.0
  0
SOLID
  5
1A203
  8
寸法線
  6
CONTINUOUS
 62
     0
 10
201.7812160232318
 20
12.6352910632193
 30
0.0
 11
201.6871716941593
 21
13.09180422224223
 31
0.0
 12
201.7812160232318
 22
13.0825416642941
 32
0.0
 13
201.7812160232318
 23
13.0825416642941
 33
0.0
  0
SOLID
  5
1A204
  8
寸法線
  6
CONTINUOUS
 62
     0
 10
201.6871716941593
 20
14.87409555142265
 30
0.0
 11
201.6871716941593
 21
15.11591940302931
 31
0.0
 12
201.7812160232318
 22
14.90262358675887
 32
0.0
 13
201.7812160232318
 23
14.90262358675887
 33
0.0
  0
SOLID
  5
1A205
  8
寸法線
  6
CONTINUOUS
 62
     0
 10
201.7812160232318
 20
14.90262358675887
 30
0.0
 11
201.6871716941593
 21
15.11591940302931
 31
0.0
 12
201.7812160232318
 22
15.13358721956313
 32
0.0
 13
201.7812160232318
 23
15.13358721956313
 33
0.0
  0
SOLID
  5
1A206
  8
寸法線
  6
CONTINUOUS
 62
     0
 10
201.7812160232318
 20
8.718678967886452
 30
0.0
 11
201.7812160232318
 21
8.949642600690686
 31
0.0
 12
201.7825968597281
 22
8.718419554414954
 32
0.0
 13
201.7825968597281
 23
8.718419554414954
 33
0.0
  0
SOLID
  5
1A207
  8
寸法線
  6
CONTINUOUS
 62
     0
 10
201.7825968597281
 20
8.718419554414954
 30
0.0
 11
201.7812160232318
 21
8.949642600690686
 31
0.0
 12
201.7825968597281
 22
8.949223728518934
 32
0.0
 13
201.7825968597281
 23
8.949223728518934
 33
0.0
  0
SOLID
  5
1A208
  8
寸法線
  6
CONTINUOUS
 62
     0
 10
201.7812160232318
 20
10.76972452315546
 30
0.0
 11
201.7812160232318
 21
11.21697512423026
 31
0.0
 12
201.7825968597281
 22
10.76986052367979
 32
0.0
 13
201.7825968597281
 23
10.76986052367979
 33
0.0
  0
SOLID
  5
1A209
  8
寸法線
  6
CONTINUOUS
 62
     0
 10
201.7825968597281
 20
10.76986052367979
 30
0.0
 11
201.7812160232318
 21
11.21697512423026
 31
0.0
 12
201.7825968597281
 22
11.21751006313881
 32
0.0
 13
201.7825968597281
 23
11.21751006313881
 33
0.0
  0
SOLID
  5
1A20A
  8
寸法線
  6
CONTINUOUS
 62
     0
 10
201.7812160232318
 20
12.6352910632193
 30
0.0
 11
201.7812160232318
 21
13.0825416642941
 31
0.0
 12
201.7825968597281
 22
12.63475612431075
 32
0.0
 13
201.7825968597281
 23
12.63475612431075
 33
0.0
  0
SOLID
  5
1A20B
  8
寸法線
  6
CONTINUOUS
 62
     0
 10
201.7825968597281
 20
12.63475612431075
 30
0.0
 11
201.7812160232318
 21
13.0825416642941
 31
0.0
 12
201.7825968597281
 22
13.08240566376977
 32
0.0
 13
201.7825968597281
 23
13.08240566376977
 33
0.0
  0
SOLID
  5
1A20C
  8
寸法線
  6
CONTINUOUS
 62
     0
 10
201.7812160232318
 20
14.90262358675887
 30
0.0
 11
201.7812160232318
 21
15.13358721956313
 31
0.0
 12
201.7825968597281
 22
14.90304245893063
 32
0.0
 13
201.7825968597281
 23
14.90304245893063
 33
0.0
  0
SOLID
  5
1A20D
  8
寸法線
  6
CONTINUOUS
 62
     0
 10
201.7825968597281
 20
14.90304245893063
 30
0.0
 11
201.7812160232318
 21
15.13358721956313
 31
0.0
 12
201.7825968597281
 22
15.13384663303463
 32
0.0
 13
201.7825968597281
 23
15.13384663303463
 33
0.0
  0
SOLID
  5
1A20E
  8
寸法線
  6
CONTINUOUS
 62
     0
 10
201.7825968597281
 20
8.718419554414954
 30
0.0
 11
201.7825968597281
 21
8.949223728518934
 31
0.0
 12
201.8089243134563
 22
8.71390197550798
 32
0.0
 13
201.8089243134563
 23
8.71390197550798
 33
0.0
  0
SOLID
  5
1A20F
  8
寸法線
  6
CONTINUOUS
 62
     0
 10
201.8089243134563
 20
8.71390197550798
 30
0.0
 11
201.7825968597281
 21
8.949223728518934
 31
0.0
 12
201.8089243134563
 22
8.941237382742663
 32
0.0
 13
201.8089243134563
 23
8.941237382742663
 33
0.0
  0
SOLID
  5
1A210
  8
寸法線
  6
CONTINUOUS
 62
     0
 10
201.7825968597281
 20
10.76986052367979
 30
0.0
 11
201.7825968597281
 21
11.21751006313881
 31
0.0
 12
201.8089243134563
 22
10.7724535515443
 32
0.0
 13
201.8089243134563
 23
10.7724535515443
 33
0.0
  0
SOLID
  5
1A211
  8
寸法線
  6
CONTINUOUS
 62
     0
 10
201.8089243134563
 20
10.7724535515443
 30
0.0
 11
201.7825968597281
 21
11.21751006313881
 31
0.0
 12
201.8089243134563
 22
11.22770937304996
 32
0.0
 13
201.8089243134563
 23
11.22770937304996
 33
0.0
  0
SOLID
  5
1A212
  8
寸法線
  6
CONTINUOUS
 62
     0
 10
201.7825968597281
 20
12.63475612431075
 30
0.0
 11
201.7825968597281
 21
13.08240566376977
 31
0.0
 12
201.8089243134563
 22
12.6245568143996
 32
0.0
 13
201.8089243134563
 23
12.6245568143996
 33
0.0
  0
SOLID
  5
1A213
  8
寸法線
  6
CONTINUOUS
 62
     0
 10
201.8089243134563
 20
12.6245568143996
 30
0.0
 11
201.7825968597281
 21
13.08240566376977
 31
0.0
 12
201.8089243134563
 22
13.07981263590526
 32
0.0
 13
201.8089243134563
 23
13.07981263590526
 33
0.0
  0
SOLID
  5
1A214
  8
寸法線
  6
CONTINUOUS
 62
     0
 10
201.7825968597281
 20
14.90304245893063
 30
0.0
 11
201.7825968597281
 21
15.13384663303463
 31
0.0
 12
201.8089243134563
 22
14.9110288047069
 32
0.0
 13
201.8089243134563
 23
14.9110288047069
 33
0.0
  0
SOLID
  5
1A215
  8
寸法線
  6
CONTINUOUS
 62
     0
 10
201.8089243134563
 20
14.9110288047069
 30
0.0
 11
201.7825968597281
 21
15.13384663303463
 31
0.0
 12
201.8089243134563
 22
15.1383642119416
 32
0.0
 13
201.8089243134563
 23
15.1383642119416
 33
0.0
  0
SOLID
  5
1A216
  8
寸法線
  6
CONTINUOUS
 62
     0
 10
201.8089243134563
 20
8.71390197550798
 30
0.0
 11
201.8089243134563
 21
8.941237382742663
 31
0.0
 12
201.8785349784663
 22
8.701957346331294
 32
0.0
 13
201.8785349784663
 23
8.701957346331294
 33
0.0
  0
SOLID
  5
1A217
  8
寸法線
  6
CONTINUOUS
 62
     0
 10
201.8785349784663
 20
8.701957346331294
 30
0.0
 11
201.8089243134563
 21
8.941237382742663
 31
0.0
 12
201.8785349784663
 22
8.920121218368179
 32
0.0
 13
201.8785349784663
 23
8.920121218368179
 33
0.0
  0
SOLID
  5
1A218
  8
寸法線
  6
CONTINUOUS
 62
     0
 10
201.8089243134563
 20
10.7724535515443
 30
0.0
 11
201.8089243134563
 21
11.22770937304996
 31
0.0
 12
201.8785349784663
 22
10.79356971591878
 32
0.0
 13
201.8785349784663
 23
10.79356971591878
 33
0.0
  0
SOLID
  5
1A219
  8
寸法線
  6
CONTINUOUS
 62
     0
 10
201.8785349784663
 20
10.79356971591878
 30
0.0
 11
201.8089243134563
 21
11.22770937304996
 31
0.0
 12
201.8785349784663
 22
11.25467668834327
 32
0.0
 13
201.8785349784663
 23
11.25467668834327
 33
0.0
  0
SOLID
  5
1A21A
  8
寸法線
  6
CONTINUOUS
 62
     0
 10
201.8089243134563
 20
12.6245568143996
 30
0.0
 11
201.8089243134563
 21
13.07981263590526
 31
0.0
 12
201.8785349784663
 22
12.59758949910628
 32
0.0
 13
201.8785349784663
 23
12.59758949910628
 33
0.0
  0
SOLID
  5
1A21B
  8
寸法線
  6
CONTINUOUS
 62
     0
 10
201.8785349784663
 20
12.59758949910628
 30
0.0
 11
201.8089243134563
 21
13.07981263590526
 31
0.0
 12
201.8785349784663
 22
13.05869647153077
 32
0.0
 13
201.8785349784663
 23
13.05869647153077
 33
0.0
  0
SOLID
  5
1A21C
  8
寸法線
  6
CONTINUOUS
 62
     0
 10
201.8089243134563
 20
14.9110288047069
 30
0.0
 11
201.8089243134563
 21
15.1383642119416
 31
0.0
 12
201.8785349784663
 22
14.93214496908138
 32
0.0
 13
201.8785349784663
 23
14.93214496908138
 33
0.0
  0
SOLID
  5
1A21D
  8
寸法線
  6
CONTINUOUS
 62
     0
 10
201.8785349784663
 20
14.93214496908138
 30
0.0
 11
201.8089243134563
 21
15.1383642119416
 31
0.0
 12
201.8785349784663
 22
15.15030884111829
 32
0.0
 13
201.8785349784663
 23
15.15030884111829
 33
0.0
  0
SOLID
  5
1A21E
  8
寸法線
  6
CONTINUOUS
 62
     0
 10
201.8785349784663
 20
8.701957346331294
 30
0.0
 11
201.8785349784663
 21
8.920121218368179
 31
0.0
 12
201.908087892171
 22
8.69736237729932
 32
0.0
 13
201.908087892171
 23
8.69736237729932
 33
0.0
  0
SOLID
  5
1A21F
  8
寸法線
  6
CONTINUOUS
 62
     0
 10
201.908087892171
 20
8.69736237729932
 30
0.0
 11
201.8785349784663
 21
8.920121218368179
 31
0.0
 12
201.908087892171
 22
8.911156440004909
 32
0.0
 13
201.908087892171
 23
8.911156440004909
 33
0.0
  0
SOLID
  5
1A220
  8
寸法線
  6
CONTINUOUS
 62
     0
 10
201.8785349784663
 20
10.79356971591878
 30
0.0
 11
201.8785349784663
 21
11.25467668834327
 31
0.0
 12
201.908087892171
 22
10.80253449428205
 32
0.0
 13
201.908087892171
 23
10.80253449428205
 33
0.0
  0
SOLID
  5
1A221
  8
寸法線
  6
CONTINUOUS
 62
     0
 10
201.908087892171
 20
10.80253449428205
 30
0.0
 11
201.8785349784663
 21
11.25467668834327
 31
0.0
 12
201.908087892171
 22
11.26612554810632
 32
0.0
 13
201.908087892171
 23
11.26612554810632
 33
0.0
  0
SOLID
  5
1A222
  8
寸法線
  6
CONTINUOUS
 62
     0
 10
201.8785349784663
 20
12.59758949910628
 30
0.0
 11
201.8785349784663
 21
13.05869647153077
 31
0.0
 12
201.908087892171
 22
12.58614063934323
 32
0.0
 13
201.908087892171
 23
12.58614063934323
 33
0.0
  0
SOLID
  5
1A223
  8
寸法線
  6
CONTINUOUS
 62
     0
 10
201.908087892171
 20
12.58614063934323
 30
0.0
 11
201.8785349784663
 21
13.05869647153077
 31
0.0
 12
201.908087892171
 22
13.04973169316751
 32
0.0
 13
201.908087892171
 23
13.04973169316751
 33
0.0
  0
SOLID
  5
1A224
  8
寸法線
  6
CONTINUOUS
 62
     0
 10
201.8785349784663
 20
14.93214496908138
 30
0.0
 11
201.8785349784663
 21
15.15030884111829
 31
0.0
 12
201.908087892171
 22
14.94110974744465
 32
0.0
 13
201.908087892171
 23
14.94110974744465
 33
0.0
  0
SOLID
  5
1A225
  8
寸法線
  6
CONTINUOUS
 62
     0
 10
201.908087892171
 20
14.94110974744465
 30
0.0
 11
201.8785349784663
 21
15.15030884111829
 31
0.0
 12
201.908087892171
 22
15.15490381015027
 32
0.0
 13
201.908087892171
 23
15.15490381015027
 33
0.0
  0
SOLID
  5
1A226
  8
寸法線
  6
CONTINUOUS
 62
     0
 10
201.908087892171
 20
8.69736237729932
 30
0.0
 11
201.908087892171
 21
8.911156440004909
 31
0.0
 12
201.974942233666
 22
8.686967678763285
 32
0.0
 13
201.974942233666
 23
8.686967678763285
 33
0.0
  0
SOLID
  5
1A227
  8
寸法線
  6
CONTINUOUS
 62
     0
 10
201.974942233666
 20
8.686967678763285
 30
0.0
 11
201.908087892171
 21
8.911156440004909
 31
0.0
 12
201.974942233666
 22
8.890876397227665
 32
0.0
 13
201.974942233666
 23
8.890876397227665
 33
0.0
  0
SOLID
  5
1A228
  8
寸法線
  6
CONTINUOUS
 62
     0
 10
201.908087892171
 20
10.80253449428205
 30
0.0
 11
201.908087892171
 21
11.26612554810632
 31
0.0
 12
201.974942233666
 22
10.8228145370593
 32
0.0
 13
201.974942233666
 23
10.8228145370593
 33
0.0
  0
SOLID
  5
1A229
  8
寸法線
  6
CONTINUOUS
 62
     0
 10
201.974942233666
 20
10.8228145370593
 30
0.0
 11
201.908087892171
 21
11.26612554810632
 31
0.0
 12
201.974942233666
 22
11.3075200038423
 32
0.0
 13
201.974942233666
 23
11.3075200038423
 33
0.0
  0
SOLID
  5
1A22A
  8
寸法線
  6
CONTINUOUS
 62
     0
 10
201.908087892171
 20
12.58614063934323
 30
0.0
 11
201.908087892171
 21
13.04973169316751
 31
0.0
 12
201.974942233666
 22
12.54474618360726
 32
0.0
 13
201.974942233666
 23
12.54474618360726
 33
0.0
  0
SOLID
  5
1A22B
  8
寸法線
  6
CONTINUOUS
 62
     0
 10
201.974942233666
 20
12.54474618360726
 30
0.0
 11
201.908087892171
 21
13.04973169316751
 31
0.0
 12
201.974942233666
 22
13.02945165039026
 32
0.0
 13
201.974942233666
 23
13.02945165039026
 33
0.0
  0
SOLID
  5
1A22C
  8
寸法線
  6
CONTINUOUS
 62
     0
 10
201.908087892171
 20
14.94110974744465
 30
0.0
 11
201.908087892171
 21
15.15490381015027
 31
0.0
 12
201.974942233666
 22
14.9613897902219
 32
0.0
 13
201.974942233666
 23
14.9613897902219
 33
0.0
  0
SOLID
  5
1A22D
  8
寸法線
  6
CONTINUOUS
 62
     0
 10
201.974942233666
 20
14.9613897902219
 30
0.0
 11
201.908087892171
 21
15.15490381015027
 31
0.0
 12
201.974942233666
 22
15.1652985086863
 32
0.0
 13
201.974942233666
 23
15.1652985086863
 33
0.0
  0
SOLID
  5
1A22E
  8
寸法線
  6
CONTINUOUS
 62
     0
 10
201.974942233666
 20
8.686967678763285
 30
0.0
 11
201.974942233666
 21
8.890876397227665
 31
0.0
 12
202.0237681597572
 22
8.68015536956601
 32
0.0
 13
202.0237681597572
 23
8.68015536956601
 33
0.0
  0
SOLID
  5
1A22F
  8
寸法線
  6
CONTINUOUS
 62
     0
 10
202.0237681597572
 20
8.68015536956601
 30
0.0
 11
201.974942233666
 21
8.890876397227665
 31
0.0
 12
202.0237681597572
 22
8.87606521447384
 32
0.0
 13
202.0237681597572
 23
8.87606521447384
 33
0.0
  0
SOLID
  5
1A230
  8
寸法線
  6
CONTINUOUS
 62
     0
 10
201.974942233666
 20
10.8228145370593
 30
0.0
 11
201.974942233666
 21
11.3075200038423
 31
0.0
 12
202.0237681597572
 22
10.83762571981313
 32
0.0
 13
202.0237681597572
 23
10.83762571981313
 33
0.0
  0
SOLID
  5
1A231
  8
寸法線
  6
CONTINUOUS
 62
     0
 10
202.0237681597572
 20
10.83762571981313
 30
0.0
 11
201.974942233666
 21
11.3075200038423
 31
0.0
 12
202.0237681597572
 22
11.33775173735662
 32
0.0
 13
202.0237681597572
 23
11.33775173735662
 33
0.0
  0
SOLID
  5
1A232
  8
寸法線
  6
CONTINUOUS
 62
     0
 10
201.974942233666
 20
12.54474618360726
 30
0.0
 11
201.974942233666
 21
13.02945165039026
 31
0.0
 12
202.0237681597572
 22
12.51451445009294
 32
0.0
 13
202.0237681597572
 23
12.51451445009294
 33
0.0
  0
SOLID
  5
1A233
  8
寸法線
  6
CONTINUOUS
 62
     0
 10
202.0237681597572
 20
12.51451445009294
 30
0.0
 11
201.974942233666
 21
13.02945165039026
 31
0.0
 12
202.0237681597572
 22
13.01464046763643
 32
0.0
 13
202.0237681597572
 23
13.01464046763643
 33
0.0
  0
SOLID
  5
1A234
  8
寸法線
  6
CONTINUOUS
 62
     0
 10
201.974942233666
 20
14.9613897902219
 30
0.0
 11
201.974942233666
 21
15.1652985086863
 31
0.0
 12
202.0237681597572
 22
14.97620097297572
 32
0.0
 13
202.0237681597572
 23
14.97620097297572
 33
0.0
  0
SOLID
  5
1A235
  8
寸法線
  6
CONTINUOUS
 62
     0
 10
202.0237681597572
 20
14.97620097297572
 30
0.0
 11
201.974942233666
 21
15.1652985086863
 31
0.0
 12
202.0237681597572
 22
15.17211081788358
 32
0.0
 13
202.0237681597572
 23
15.17211081788358
 33
0.0
  0
SOLID
  5
1A236
  8
寸法線
  6
CONTINUOUS
 62
     0
 10
202.0237681597572
 20
8.68015536956601
 30
0.0
 11
202.0237681597572
 21
8.87606521447384
 31
0.0
 12
202.0295866112985
 22
8.679343565384874
 32
0.0
 13
202.0295866112985
 23
8.679343565384874
 33
0.0
  0
SOLID
  5
1A237
  8
寸法線
  6
CONTINUOUS
 62
     0
 10
202.0295866112985
 20
8.679343565384874
 30
0.0
 11
202.0237681597572
 21
8.87606521447384
 31
0.0
 12
202.0295866112985
 22
8.874300206495056
 32
0.0
 13
202.0295866112985
 23
8.874300206495056
 33
0.0
  0
SOLID
  5
1A238
  8
寸法線
  6
CONTINUOUS
 62
     0
 10
202.0237681597572
 20
10.83762571981313
 30
0.0
 11
202.0237681597572
 21
11.33775173735662
 31
0.0
 12
202.0295866112985
 22
10.83939072779191
 32
0.0
 13
202.0295866112985
 23
10.83939072779191
 33
0.0
  0
SOLID
  5
1A239
  8
寸法線
  6
CONTINUOUS
 62
     0
 10
202.0295866112985
 20
10.83939072779191
 30
0.0
 11
202.0237681597572
 21
11.33775173735662
 31
0.0
 12
202.0295866112985
 22
11.34305595678456
 32
0.0
 13
202.0295866112985
 23
11.34305595678456
 33
0.0
  0
SOLID
  5
1A23A
  8
寸法線
  6
CONTINUOUS
 62
     0
 10
202.0237681597572
 20
12.51451445009294
 30
0.0
 11
202.0237681597572
 21
13.01464046763643
 31
0.0
 12
202.0295866112985
 22
12.50921023066499
 32
0.0
 13
202.0295866112985
 23
12.50921023066499
 33
0.0
  0
SOLID
  5
1A23B
  8
寸法線
  6
CONTINUOUS
 62
     0
 10
202.0295866112985
 20
12.50921023066499
 30
0.0
 11
202.0237681597572
 21
13.01464046763643
 31
0.0
 12
202.0295866112985
 22
13.01287545965765
 32
0.0
 13
202.0295866112985
 23
13.01287545965765
 33
0.0
  0
SOLID
  5
1A23C
  8
寸法線
  6
CONTINUOUS
 62
     0
 10
202.0237681597572
 20
14.97620097297572
 30
0.0
 11
202.0237681597572
 21
15.17211081788358
 31
0.0
 12
202.0295866112985
 22
14.9779659809545
 32
0.0
 13
202.0295866112985
 23
14.9779659809545
 33
0.0
  0
SOLID
  5
1A23D
  8
寸法線
  6
CONTINUOUS
 62
     0
 10
202.0295866112985
 20
14.9779659809545
 30
0.0
 11
202.0237681597572
 21
15.17211081788358
 31
0.0
 12
202.0295866112985
 22
15.17292262206471
 32
0.0
 13
202.0295866112985
 23
15.17292262206471
 33
0.0
  0
SOLID
  5
1A23E
  8
寸法線
  6
CONTINUOUS
 62
     0
 10
202.0295866112985
 20
8.679343565384874
 30
0.0
 11
202.0295866112985
 21
8.874300206495056
 31
0.0
 12
202.071774594356
 22
8.673457397768502
 32
0.0
 13
202.071774594356
 23
8.673457397768502
 33
0.0
  0
SOLID
  5
1A23F
  8
寸法線
  6
CONTINUOUS
 62
     0
 10
202.071774594356
 20
8.673457397768502
 30
0.0
 11
202.0295866112985
 21
8.874300206495056
 31
0.0
 12
202.071774594356
 22
8.861502621746459
 32
0.0
 13
202.071774594356
 23
8.861502621746459
 33
0.0
  0
SOLID
  5
1A240
  8
寸法線
  6
CONTINUOUS
 62
     0
 10
202.0295866112985
 20
10.83939072779191
 30
0.0
 11
202.0295866112985
 21
11.34305595678456
 31
0.0
 12
202.071774594356
 22
10.86194067453949
 32
0.0
 13
202.071774594356
 23
10.86194067453949
 33
0.0
  0
SOLID
  5
1A241
  8
寸法線
  6
CONTINUOUS
 62
     0
 10
202.071774594356
 20
10.86194067453949
 30
0.0
 11
202.0295866112985
 21
11.34305595678456
 31
0.0
 12
202.071774594356
 22
11.38151538499691
 32
0.0
 13
202.071774594356
 23
11.38151538499691
 33
0.0
  0
SOLID
  5
1A242
  8
寸法線
  6
CONTINUOUS
 62
     0
 10
202.0295866112985
 20
12.50921023066499
 30
0.0
 11
202.0295866112985
 21
13.01287545965765
 31
0.0
 12
202.071774594356
 22
12.47075080245265
 32
0.0
 13
202.071774594356
 23
12.47075080245265
 33
0.0
  0
SOLID
  5
1A243
  8
寸法線
  6
CONTINUOUS
 62
     0
 10
202.071774594356
 20
12.47075080245265
 30
0.0
 11
202.0295866112985
 21
13.01287545965765
 31
0.0
 12
202.071774594356
 22
12.99032551291007
 32
0.0
 13
202.071774594356
 23
12.99032551291007
 33
0.0
  0
SOLID
  5
1A244
  8
寸法線
  6
CONTINUOUS
 62
     0
 10
202.0295866112985
 20
14.9779659809545
 30
0.0
 11
202.0295866112985
 21
15.17292262206471
 31
0.0
 12
202.071774594356
 22
14.9907635657031
 32
0.0
 13
202.071774594356
 23
14.9907635657031
 33
0.0
  0
SOLID
  5
1A245
  8
寸法線
  6
CONTINUOUS
 62
     0
 10
202.071774594356
 20
14.9907635657031
 30
0.0
 11
202.0295866112985
 21
15.17292262206471
 31
0.0
 12
202.071774594356
 22
15.17880878968109
 32
0.0
 13
202.071774594356
 23
15.17880878968109
 33
0.0
  0
SOLID
  5
1A246
  8
寸法線
  6
CONTINUOUS
 62
     0
 10
202.071774594356
 20
8.673457397768502
 30
0.0
 11
202.071774594356
 21
8.861502621746459
 31
0.0
 12
202.1243174732208
 22
8.666958143026283
 32
0.0
 13
202.1243174732208
 23
8.666958143026283
 33
0.0
  0
SOLID
  5
1A247
  8
寸法線
  6
CONTINUOUS
 62
     0
 10
202.1243174732208
 20
8.666958143026283
 30
0.0
 11
202.071774594356
 21
8.861502621746459
 31
0.0
 12
202.1243174732208
 22
8.845563913695653
 32
0.0
 13
202.1243174732208
 23
8.845563913695653
 33
0.0
  0
SOLID
  5
1A248
  8
寸法線
  6
CONTINUOUS
 62
     0
 10
202.071774594356
 20
10.86194067453949
 30
0.0
 11
202.071774594356
 21
11.38151538499691
 31
0.0
 12
202.1243174732208
 22
10.89002542840761
 32
0.0
 13
202.1243174732208
 23
10.89002542840761
 33
0.0
  0
SOLID
  5
1A249
  8
寸法線
  6
CONTINUOUS
 62
     0
 10
202.1243174732208
 20
10.89002542840761
 30
0.0
 11
202.071774594356
 21
11.38151538499691
 31
0.0
 12
202.1243174732208
 22
11.42941454801238
 32
0.0
 13
202.1243174732208
 23
11.42941454801238
 33
0.0
  0
SOLID
  5
1A24A
  8
寸法線
  6
CONTINUOUS
 62
     0
 10
202.071774594356
 20
12.47075080245265
 30
0.0
 11
202.071774594356
 21
12.99032551291007
 31
0.0
 12
202.1243174732208
 22
12.42285163943717
 32
0.0
 13
202.1243174732208
 23
12.42285163943717
 33
0.0
  0
SOLID
  5
1A24B
  8
寸法線
  6
CONTINUOUS
 62
     0
 10
202.1243174732208
 20
12.42285163943717
 30
0.0
 11
202.071774594356
 21
12.99032551291007
 31
0.0
 12
202.1243174732208
 22
12.96224075904194
 32
0.0
 13
202.1243174732208
 23
12.96224075904194
 33
0.0
  0
SOLID
  5
1A24C
  8
寸法線
  6
CONTINUOUS
 62
     0
 10
202.071774594356
 20
14.9907635657031
 30
0.0
 11
202.071774594356
 21
15.17880878968108
 31
0.0
 12
202.1243174732208
 22
15.00670227375391
 32
0.0
 13
202.1243174732208
 23
15.00670227375391
 33
0.0
  0
SOLID
  5
1A24D
  8
寸法線
  6
CONTINUOUS
 62
     0
 10
202.1243174732208
 20
15.00670227375391
 30
0.0
 11
202.071774594356
 21
15.17880878968108
 31
0.0
 12
202.1243174732208
 22
15.1853080444233
 32
0.0
 13
202.1243174732208
 23
15.1853080444233
 33
0.0
  0
SOLID
  5
1A24E
  8
寸法線
  6
CONTINUOUS
 62
     0
 10
202.1243174732208
 20
8.666958143026283
 30
0.0
 11
202.1243174732208
 21
8.845563913695653
 31
0.0
 12
202.1689878354118
 22
8.6614326737414
 32
0.0
 13
202.1689878354118
 23
8.6614326737414
 33
0.0
  0
SOLID
  5
1A24F
  8
寸法線
  6
CONTINUOUS
 62
     0
 10
202.1689878354118
 20
8.6614326737414
 30
0.0
 11
202.1243174732208
 21
8.845563913695653
 31
0.0
 12
202.1689878354118
 22
8.832013307469467
 32
0.0
 13
202.1689878354118
 23
8.832013307469467
 33
0.0
  0
SOLID
  5
1A250
  8
寸法線
  6
CONTINUOUS
 62
     0
 10
202.1243174732208
 20
10.89002542840761
 30
0.0
 11
202.1243174732208
 21
11.42941454801238
 31
0.0
 12
202.1689878354118
 22
10.91390223444567
 32
0.0
 13
202.1689878354118
 23
10.91390223444567
 33
0.0
  0
SOLID
  5
1A251
  8
寸法線
  6
CONTINUOUS
 62
     0
 10
202.1689878354118
 20
10.91390223444567
 30
0.0
 11
202.1243174732208
 21
11.42941454801238
 31
0.0
 12
202.1689878354118
 22
11.48856766737416
 32
0.0
 13
202.1689878354118
 23
11.48856766737416
 33
0.0
  0
SOLID
  5
1A252
  8
寸法線
  6
CONTINUOUS
 62
     0
 10
202.1243174732208
 20
12.42285163943717
 30
0.0
 11
202.1243174732208
 21
12.96224075904194
 31
0.0
 12
202.1689878354118
 22
12.3636985200754
 32
0.0
 13
202.1689878354118
 23
12.3636985200754
 33
0.0
  0
SOLID
  5
1A253
  8
寸法線
  6
CONTINUOUS
 62
     0
 10
202.1689878354118
 20
12.3636985200754
 30
0.0
 11
202.1243174732208
 21
12.96224075904194
 31
0.0
 12
202.1689878354118
 22
12.93836395300388
 32
0.0
 13
202.1689878354118
 23
12.93836395300388
 33
0.0
  0
SOLID
  5
1A254
  8
寸法線
  6
CONTINUOUS
 62
     0
 10
202.1243174732208
 20
15.00670227375391
 30
0.0
 11
202.1243174732208
 21
15.1853080444233
 31
0.0
 12
202.1689878354118
 22
15.02025287998009
 32
0.0
 13
202.1689878354118
 23
15.02025287998009
 33
0.0
  0
SOLID
  5
1A255
  8
寸法線
  6
CONTINUOUS
 62
     0
 10
202.1689878354118
 20
15.02025287998009
 30
0.0
 11
202.1243174732208
 21
15.1853080444233
 31
0.0
 12
202.1689878354118
 22
15.19083351370818
 32
0.0
 13
202.1689878354118
 23
15.19083351370818
 33
0.0
  0
SOLID
  5
1A256
  8
寸法線
  6
CONTINUOUS
 62
     0
 10
202.1689878354118
 20
8.6614326737414
 30
0.0
 11
202.1689878354118
 21
8.832013307469467
 31
0.0
 12
202.2063117462876
 22
8.657402339846913
 32
0.0
 13
202.2063117462876
 23
8.657402339846913
 33
0.0
  0
SOLID
  5
1A257
  8
寸法線
  6
CONTINUOUS
 62
     0
 10
202.2063117462876
 20
8.657402339846913
 30
0.0
 11
202.1689878354118
 21
8.832013307469467
 31
0.0
 12
202.2063117462876
 22
8.82069122288606
 32
0.0
 13
202.2063117462876
 23
8.82069122288606
 33
0.0
  0
SOLID
  5
1A258
  8
寸法線
  6
CONTINUOUS
 62
     0
 10
202.1689878354118
 20
10.91390223444567
 30
0.0
 11
202.1689878354118
 21
11.48856766737416
 31
0.0
 12
202.2063117462876
 22
10.93385228044599
 32
0.0
 13
202.2063117462876
 23
10.93385228044599
 33
0.0
  0
SOLID
  5
1A259
  8
寸法線
  6
CONTINUOUS
 62
     0
 10
202.2063117462876
 20
10.93385228044599
 30
0.0
 11
202.1689878354118
 21
11.48856766737416
 31
0.0
 12
202.2063117462876
 22
11.53799251299415
 32
0.0
 13
202.2063117462876
 23
11.53799251299415
 33
0.0
  0
SOLID
  5
1A25A
  8
寸法線
  6
CONTINUOUS
 62
     0
 10
202.1689878354118
 20
12.3636985200754
 30
0.0
 11
202.1689878354118
 21
12.93836395300388
 31
0.0
 12
202.2063117462876
 22
12.31427367445541
 32
0.0
 13
202.2063117462876
 23
12.31427367445541
 33
0.0
  0
SOLID
  5
1A25B
  8
寸法線
  6
CONTINUOUS
 62
     0
 10
202.2063117462876
 20
12.31427367445541
 30
0.0
 11
202.1689878354118
 21
12.93836395300388
 31
0.0
 12
202.2063117462876
 22
12.91841390700357
 32
0.0
 13
202.2063117462876
 23
12.91841390700357
 33
0.0
  0
SOLID
  5
1A25C
  8
寸法線
  6
CONTINUOUS
 62
     0
 10
202.1689878354118
 20
15.02025287998009
 30
0.0
 11
202.1689878354118
 21
15.19083351370818
 31
0.0
 12
202.2063117462876
 22
15.0315749645635
 32
0.0
 13
202.2063117462876
 23
15.0315749645635
 33
0.0
  0
SOLID
  5
1A25D
  8
寸法線
  6
CONTINUOUS
 62
     0
 10
202.2063117462876
 20
15.0315749645635
 30
0.0
 11
202.1689878354118
 21
15.19083351370818
 31
0.0
 12
202.2063117462876
 22
15.19486384760267
 32
0.0
 13
202.2063117462876
 23
15.19486384760267
 33
0.0
  0
SOLID
  5
1A25E
  8
寸法線
  6
CONTINUOUS
 62
     0
 10
202.2063117462876
 20
8.657402339846913
 30
0.0
 11
202.2063117462876
 21
8.82069122288606
 31
0.0
 12
202.2329501496931
 22
8.654525855105062
 32
0.0
 13
202.2329501496931
 23
8.654525855105062
 33
0.0
  0
SOLID
  5
1A25F
  8
寸法線
  6
CONTINUOUS
 62
     0
 10
202.2329501496931
 20
8.654525855105062
 30
0.0
 11
202.2063117462876
 21
8.82069122288606
 31
0.0
 12
202.2329501496931
 22
8.812610551556402
 32
0.0
 13
202.2329501496931
 23
8.812610551556402
 33
0.0
  0
SOLID
  5
1A260
  8
寸法線
  6
CONTINUOUS
 62
     0
 10
202.2063117462876
 20
10.93385228044599
 30
0.0
 11
202.2063117462876
 21
11.53799251299415
 31
0.0
 12
202.2329501496931
 22
10.94809080371018
 32
0.0
 13
202.2329501496931
 23
10.94809080371018
 33
0.0
  0
SOLID
  5
1A261
  8
寸法線
  6
CONTINUOUS
 62
     0
 10
202.2329501496931
 20
10.94809080371018
 30
0.0
 11
202.2063117462876
 21
11.53799251299415
 31
0.0
 12
202.2329501496931
 22
11.59148963874046
 32
0.0
 13
202.2329501496931
 23
11.59148963874046
 33
0.0
  0
SOLID
  5
1A262
  8
寸法線
  6
CONTINUOUS
 62
     0
 10
202.2063117462876
 20
12.31427367445541
 30
0.0
 11
202.2063117462876
 21
12.91841390700357
 31
0.0
 12
202.2329501496931
 22
12.2607765487091
 32
0.0
 13
202.2329501496931
 23
12.2607765487091
 33
0.0
  0
SOLID
  5
1A263
  8
寸法線
  6
CONTINUOUS
 62
     0
 10
202.2329501496931
 20
12.2607765487091
 30
0.0
 11
202.2063117462876
 21
12.91841390700357
 31
0.0
 12
202.2329501496931
 22
12.90417538373937
 32
0.0
 13
202.2329501496931
 23
12.90417538373937
 33
0.0
  0
SOLID
  5
1A264
  8
寸法線
  6
CONTINUOUS
 62
     0
 10
202.2063117462876
 20
15.0315749645635
 30
0.0
 11
202.2063117462876
 21
15.19486384760267
 31
0.0
 12
202.2329501496931
 22
15.03965563589316
 32
0.0
 13
202.2329501496931
 23
15.03965563589316
 33
0.0
  0
SOLID
  5
1A265
  8
寸法線
  6
CONTINUOUS
 62
     0
 10
202.2329501496931
 20
15.03965563589316
 30
0.0
 11
202.2063117462876
 21
15.19486384760267
 31
0.0
 12
202.2329501496931
 22
15.19774033234452
 32
0.0
 13
202.2329501496931
 23
15.19774033234452
 33
0.0
  0
SOLID
  5
1A266
  8
寸法線
  6
CONTINUOUS
 62
     0
 10
202.2329501496931
 20
8.654525855105062
 30
0.0
 11
202.2329501496931
 21
8.812610551556402
 31
0.0
 12
202.2665375577536
 22
8.650898998595169
 32
0.0
 13
202.2665375577536
 23
8.650898998595169
 33
0.0
  0
SOLID
  5
1A267
  8
寸法線
  6
CONTINUOUS
 62
     0
 10
202.2665375577536
 20
8.650898998595169
 30
0.0
 11
202.2329501496931
 21
8.812610551556402
 31
0.0
 12
202.2665375577536
 22
8.802421922710275
 32
0.0
 13
202.2665375577536
 23
8.802421922710275
 33
0.0
  0
SOLID
  5
1A268
  8
寸法線
  6
CONTINUOUS
 62
     0
 10
202.2329501496931
 20
10.94809080371018
 30
0.0
 11
202.2329501496931
 21
11.59148963874046
 31
0.0
 12
202.2665375577536
 22
10.97565527714436
 32
0.0
 13
202.2665375577536
 23
10.97565527714436
 33
0.0
  0
SOLID
  5
1A269
  8
寸法線
  6
CONTINUOUS
 62
     0
 10
202.2665375577536
 20
10.97565527714436
 30
0.0
 11
202.2329501496931
 21
11.59148963874046
 31
0.0
 12
202.2665375577536
 22
11.65894224711018
 32
0.0
 13
202.2665375577536
 23
11.65894224711018
 33
0.0
  0
SOLID
  5
1A26A
  8
寸法線
  6
CONTINUOUS
 62
     0
 10
202.2329501496931
 20
12.2607765487091
 30
0.0
 11
202.2329501496931
 21
12.90417538373937
 31
0.0
 12
202.2665375577536
 22
12.19332394033938
 32
0.0
 13
202.2665375577536
 23
12.19332394033938
 33
0.0
  0
SOLID
  5
1A26B
  8
寸法線
  6
CONTINUOUS
 62
     0
 10
202.2665375577536
 20
12.19332394033938
 30
0.0
 11
202.2329501496931
 21
12.90417538373937
 31
0.0
 12
202.2665375577536
 22
12.8766109103052
 32
0.0
 13
202.2665375577536
 23
12.8766109103052
 33
0.0
  0
SOLID
  5
1A26C
  8
寸法線
  6
CONTINUOUS
 62
     0
 10
202.2329501496931
 20
15.03965563589316
 30
0.0
 11
202.2329501496931
 21
15.19774033234452
 31
0.0
 12
202.2665375577536
 22
15.04984426473928
 32
0.0
 13
202.2665375577536
 23
15.04984426473928
 33
0.0
  0
SOLID
  5
1A26D
  8
寸法線
  6
CONTINUOUS
 62
     0
 10
202.2665375577536
 20
15.04984426473928
 30
0.0
 11
202.2329501496931
 21
15.19774033234452
 31
0.0
 12
202.2665375577536
 22
15.20136718885442
 32
0.0
 13
202.2665375577536
 23
15.20136718885442
 33
0.0
  0
SOLID
  5
1A26E
  8
寸法線
  6
CONTINUOUS
 62
     0
 10
202.2665375577536
 20
8.650898998595169
 30
0.0
 11
202.2665375577536
 21
8.802421922710275
 31
0.0
 12
202.2669587623294
 22
8.650860091144782
 32
0.0
 13
202.2669587623294
 23
8.650860091144782
 33
0.0
  0
SOLID
  5
1A26F
  8
寸法線
  6
CONTINUOUS
 62
     0
 10
202.2669587623294
 20
8.650860091144782
 30
0.0
 11
202.2665375577536
 21
8.802421922710275
 31
0.0
 12
202.2669587623294
 22
8.80229415169909
 32
0.0
 13
202.2669587623294
 23
8.80229415169909
 33
0.0
  0
SOLID
  5
1A270
  8
寸法線
  6
CONTINUOUS
 62
     0
 10
202.2665375577536
 20
10.97565527714436
 30
0.0
 11
202.2665375577536
 21
11.65894224711018
 31
0.0
 12
202.2669587623294
 22
10.97600095080631
 32
0.0
 13
202.2669587623294
 23
10.97600095080631
 33
0.0
  0
SOLID
  5
1A271
  8
寸法線
  6
CONTINUOUS
 62
     0
 10
202.2669587623294
 20
10.97600095080631
 30
0.0
 11
202.2665375577536
 21
11.65894224711018
 31
0.0
 12
202.2669587623294
 22
11.65978813992938
 32
0.0
 13
202.2669587623294
 23
11.65978813992938
 33
0.0
  0
SOLID
  5
1A272
  8
寸法線
  6
CONTINUOUS
 62
     0
 10
202.2665375577536
 20
12.19332394033938
 30
0.0
 11
202.2665375577536
 21
12.8766109103052
 31
0.0
 12
202.2669587623294
 22
12.19247804752018
 32
0.0
 13
202.2669587623294
 23
12.19247804752018
 33
0.0
  0
SOLID
  5
1A273
  8
寸法線
  6
CONTINUOUS
 62
     0
 10
202.2669587623294
 20
12.19247804752018
 30
0.0
 11
202.2665375577536
 21
12.8766109103052
 31
0.0
 12
202.2669587623294
 22
12.87626523664325
 32
0.0
 13
202.2669587623294
 23
12.87626523664325
 33
0.0
  0
SOLID
  5
1A274
  8
寸法線
  6
CONTINUOUS
 62
     0
 10
202.2665375577536
 20
15.04984426473928
 30
0.0
 11
202.2665375577536
 21
15.20136718885442
 31
0.0
 12
202.2669587623294
 22
15.04997203575047
 32
0.0
 13
202.2669587623294
 23
15.04997203575047
 33
0.0
  0
SOLID
  5
1A275
  8
寸法線
  6
CONTINUOUS
 62
     0
 10
202.2669587623294
 20
15.04997203575047
 30
0.0
 11
202.2665375577536
 21
15.20136718885442
 31
0.0
 12
202.2669587623294
 22
15.2014060963048
 32
0.0
 13
202.2669587623294
 23
15.2014060963048
 33
0.0
  0
SOLID
  5
1A276
  8
寸法線
  6
CONTINUOUS
 62
     0
 10
202.2669587623294
 20
8.650860091144782
 30
0.0
 11
202.2669587623294
 21
8.80229415169909
 31
0.0
 12
202.2833645314839
 22
8.649344659722304
 32
0.0
 13
202.2833645314839
 23
8.649344659722304
 33
0.0
  0
SOLID
  5
1A277
  8
寸法線
  6
CONTINUOUS
 62
     0
 10
202.2833645314839
 20
8.649344659722304
 30
0.0
 11
202.2669587623294
 21
8.80229415169909
 31
0.0
 12
202.2833645314839
 22
8.797317516034049
 32
0.0
 13
202.2833645314839
 23
8.797317516034049
 33
0.0
  0
SOLID
  5
1A278
  8
寸法線
  6
CONTINUOUS
 62
     0
 10
202.2669587623294
 20
10.97600095080631
 30
0.0
 11
202.2669587623294
 21
11.65978813992938
 31
0.0
 12
202.2833645314839
 22
10.98946481759863
 32
0.0
 13
202.2833645314839
 23
10.98946481759863
 33
0.0
  0
SOLID
  5
1A279
  8
寸法線
  6
CONTINUOUS
 62
     0
 10
202.2833645314839
 20
10.98946481759863
 30
0.0
 11
202.2669587623294
 21
11.65978813992938
 31
0.0
 12
202.2833645314839
 22
11.71744843759915
 32
0.0
 13
202.2833645314839
 23
11.71744843759915
 33
0.0
  0
SOLID
  5
1A27A
  8
寸法線
  6
CONTINUOUS
 62
     0
 10
202.2669587623294
 20
12.19247804752018
 30
0.0
 11
202.2669587623294
 21
12.87626523664325
 31
0.0
 12
202.2833645314839
 22
12.13481774985041
 32
0.0
 13
202.2833645314839
 23
12.13481774985041
 33
0.0
  0
SOLID
  5
1A27B
  8
寸法線
  6
CONTINUOUS
 62
     0
 10
202.2833645314839
 20
12.13481774985041
 30
0.0
 11
202.2669587623294
 21
12.87626523664325
 31
0.0
 12
202.2833645314839
 22
12.86280136985093
 32
0.0
 13
202.2833645314839
 23
12.86280136985093
 33
0.0
  0
SOLID
  5
1A27C
  8
寸法線
  6
CONTINUOUS
 62
     0
 10
202.2669587623294
 20
15.04997203575047
 30
0.0
 11
202.2669587623294
 21
15.2014060963048
 31
0.0
 12
202.2833645314839
 22
15.05494867141551
 32
0.0
 13
202.2833645314839
 23
15.05494867141551
 33
0.0
  0
SOLID
  5
1A27D
  8
寸法線
  6
CONTINUOUS
 62
     0
 10
202.2833645314839
 20
15.05494867141551
 30
0.0
 11
202.2669587623294
 21
15.2014060963048
 31
0.0
 12
202.2833645314839
 22
15.20292152772728
 32
0.0
 13
202.2833645314839
 23
15.20292152772728
 33
0.0
  0
SOLID
  5
1A27E
  8
寸法線
  6
CONTINUOUS
 62
     0
 10
202.2833645314839
 20
8.649344659722304
 30
0.0
 11
202.2833645314839
 21
8.797317516034049
 31
0.0
 12
202.3041932599531
 22
8.647420671318269
 32
0.0
 13
202.3041932599531
 23
8.647420671318269
 33
0.0
  0
SOLID
  5
1A27F
  8
寸法線
  6
CONTINUOUS
 62
     0
 10
202.3041932599531
 20
8.647420671318269
 30
0.0
 11
202.2833645314839
 21
8.797317516034049
 31
0.0
 12
202.3041932599531
 22
8.795266065336968
 32
0.0
 13
202.3041932599531
 23
8.795266065336968
 33
0.0
  0
SOLID
  5
1A280
  8
寸法線
  6
CONTINUOUS
 62
     0
 10
202.2833645314839
 20
10.98946481759863
 30
0.0
 11
202.2833645314839
 21
11.71744843759915
 31
0.0
 12
202.3041932599531
 22
11.00655851329326
 32
0.0
 13
202.3041932599531
 23
11.00655851329326
 33
0.0
  0
SOLID
  5
1A281
  8
寸法線
  6
CONTINUOUS
 62
     0
 10
202.3041932599531
 20
11.00655851329326
 30
0.0
 11
202.2833645314839
 21
11.71744843759915
 31
0.0
 12
202.3041932599531
 22
11.79065382482055
 32
0.0
 13
202.3041932599531
 23
11.79065382482055
 33
0.0
  0
SOLID
  5
1A282
  8
寸法線
  6
CONTINUOUS
 62
     0
 10
202.2833645314839
 20
12.13481774985041
 30
0.0
 11
202.2833645314839
 21
12.86280136985093
 31
0.0
 12
202.3041932599531
 22
12.06161236262901
 32
0.0
 13
202.3041932599531
 23
12.06161236262901
 33
0.0
  0
SOLID
  5
1A283
  8
寸法線
  6
CONTINUOUS
 62
     0
 10
202.3041932599531
 20
12.06161236262901
 30
0.0
 11
202.2833645314839
 21
12.86280136985093
 31
0.0
 12
202.3041932599531
 22
12.8457076741563
 32
0.0
 13
202.3041932599531
 23
12.8457076741563
 33
0.0
  0
SOLID
  5
1A284
  8
寸法線
  6
CONTINUOUS
 62
     0
 10
202.2833645314839
 20
15.05494867141551
 30
0.0
 11
202.2833645314839
 21
15.20292152772728
 31
0.0
 12
202.3041932599531
 22
15.05700012211259
 32
0.0
 13
202.3041932599531
 23
15.05700012211259
 33
0.0
  0
SOLID
  5
1A285
  8
寸法線
  6
CONTINUOUS
 62
     0
 10
202.3041932599531
 20
15.05700012211259
 30
0.0
 11
202.2833645314839
 21
15.20292152772728
 31
0.0
 12
202.3041932599531
 22
15.20484551613132
 32
0.0
 13
202.3041932599531
 23
15.20484551613132
 33
0.0
  0
SOLID
  5
1A286
  8
寸法線
  6
CONTINUOUS
 62
     0
 10
202.3041932599531
 20
8.647420671318269
 30
0.0
 11
202.3041932599531
 21
8.795266065336968
 31
0.0
 12
202.316747263
 22
8.646261034698009
 32
0.0
 13
202.316747263
 23
8.646261034698009
 33
0.0
  0
SOLID
  5
1A287
  8
寸法線
  6
CONTINUOUS
 62
     0
 10
202.316747263
 20
8.646261034698009
 30
0.0
 11
202.3041932599531
 21
8.795266065336968
 31
0.0
 12
202.316747263
 22
8.794029603959133
 32
0.0
 13
202.316747263
 23
8.794029603959133
 33
0.0
  0
SOLID
  5
1A288
  8
寸法線
  6
CONTINUOUS
 62
     0
 10
202.3041932599531
 20
11.00655851329326
 30
0.0
 11
202.3041932599531
 21
11.79065382482055
 31
0.0
 12
202.316747263
 22
11.01686131733382
 32
0.0
 13
202.316747263
 23
11.01686131733382
 33
0.0
  0
SOLID
  5
1A289
  8
寸法線
  6
CONTINUOUS
 62
     0
 10
202.316747263
 20
11.01686131733382
 30
0.0
 11
202.3041932599531
 21
11.79065382482055
 31
0.0
 12
202.316747263
 22
11.92613309372478
 32
0.0
 13
202.316747263
 23
11.92613309372478
 33
0.0
  0
SOLID
  5
1A28A
  8
寸法線
  6
CONTINUOUS
 62
     0
 10
202.3041932599531
 20
12.06161236262901
 30
0.0
 11
202.3041932599531
 21
12.8457076741563
 31
0.0
 12
202.316747263
 22
11.92613309372478
 32
0.0
 13
202.316747263
 23
11.92613309372478
 33
0.0
  0
SOLID
  5
1A28B
  8
寸法線
  6
CONTINUOUS
 62
     0
 10
202.316747263
 20
11.92613309372478
 30
0.0
 11
202.3041932599531
 21
12.8457076741563
 31
0.0
 12
202.316747263
 22
12.83540487011574
 32
0.0
 13
202.316747263
 23
12.83540487011574
 33
0.0
  0
SOLID
  5
1A28C
  8
寸法線
  6
CONTINUOUS
 62
     0
 10
202.3041932599531
 20
15.05700012211259
 30
0.0
 11
202.3041932599531
 21
15.20484551613132
 31
0.0
 12
202.316747263
 22
15.05823658349043
 32
0.0
 13
202.316747263
 23
15.05823658349043
 33
0.0
  0
SOLID
  5
1A28D
  8
寸法線
  6
CONTINUOUS
 62
     0
 10
202.316747263
 20
15.05823658349043
 30
0.0
 11
202.3041932599531
 21
15.20484551613132
 31
0.0
 12
202.316747263
 22
15.20600515275158
 32
0.0
 13
202.316747263
 23
15.20600515275158
 33
0.0
  0
SOLID
  5
1A28E
  8
寸法線
  6
CONTINUOUS
 62
     0
 10
202.316747263
 20
8.646261034698009
 30
0.0
 11
202.316747263
 21
8.794029603959133
 31
0.0
 12
202.3643792086244
 22
8.641861183253484
 32
0.0
 13
202.3643792086244
 23
8.641861183253484
 33
0.0
  0
SOLID
  5
1A28F
  8
寸法線
  6
CONTINUOUS
 62
     0
 10
202.3643792086244
 20
8.641861183253484
 30
0.0
 11
202.316747263
 21
8.794029603959133
 31
0.0
 12
202.3643792086244
 22
8.789338266789953
 32
0.0
 13
202.3643792086244
 23
8.789338266789953
 33
0.0
  0
SOLID
  5
1A290
  8
寸法線
  6
CONTINUOUS
 62
     0
 10
202.316747263
 20
11.01686131733382
 30
0.0
 11
202.316747263
 21
12.83540487011574
 31
0.0
 12
202.3643792086244
 22
11.05595184487366
 32
0.0
 13
202.3643792086244
 23
11.05595184487366
 33
0.0
  0
SOLID
  5
1A291
  8
寸法線
  6
CONTINUOUS
 62
     0
 10
202.3643792086244
 20
11.05595184487366
 30
0.0
 11
202.316747263
 21
12.83540487011574
 31
0.0
 12
202.3643792086244
 22
12.7963143425759
 32
0.0
 13
202.3643792086244
 23
12.7963143425759
 33
0.0
  0
SOLID
  5
1A292
  8
寸法線
  6
CONTINUOUS
 62
     0
 10
202.316747263
 20
15.05823658349043
 30
0.0
 11
202.316747263
 21
15.20600515275158
 31
0.0
 12
202.3643792086244
 22
15.06292792065961
 32
0.0
 13
202.3643792086244
 23
15.06292792065961
 33
0.0
  0
SOLID
  5
1A293
  8
寸法線
  6
CONTINUOUS
 62
     0
 10
202.3643792086244
 20
15.06292792065961
 30
0.0
 11
202.316747263
 21
15.20600515275158
 31
0.0
 12
202.3643792086244
 22
15.2104050041961
 32
0.0
 13
202.3643792086244
 23
15.2104050041961
 33
0.0
  0
SOLID
  5
1A294
  8
寸法線
  6
CONTINUOUS
 62
     0
 10
202.3643792086244
 20
8.641861183253484
 30
0.0
 11
202.3643792086244
 21
8.789338266789953
 31
0.0
 12
202.4111997819072
 22
8.63826316713779
 32
0.0
 13
202.4111997819072
 23
8.63826316713779
 33
0.0
  0
SOLID
  5
1A295
  8
寸法線
  6
CONTINUOUS
 62
     0
 10
202.4111997819072
 20
8.63826316713779
 30
0.0
 11
202.3643792086244
 21
8.789338266789953
 31
0.0
 12
202.4111997819072
 22
8.784726842821344
 32
0.0
 13
202.4111997819072
 23
8.784726842821344
 33
0.0
  0
SOLID
  5
1A296
  8
寸法線
  6
CONTINUOUS
 62
     0
 10
202.3643792086244
 20
11.05595184487366
 30
0.0
 11
202.3643792086244
 21
12.7963143425759
 31
0.0
 12
202.4111997819072
 22
11.09437649634128
 32
0.0
 13
202.4111997819072
 23
11.09437649634128
 33
0.0
  0
SOLID
  5
1A297
  8
寸法線
  6
CONTINUOUS
 62
     0
 10
202.4111997819072
 20
11.09437649634128
 30
0.0
 11
202.3643792086244
 21
12.7963143425759
 31
0.0
 12
202.4111997819072
 22
12.75788969110828
 32
0.0
 13
202.4111997819072
 23
12.75788969110828
 33
0.0
  0
SOLID
  5
1A298
  8
寸法線
  6
CONTINUOUS
 62
     0
 10
202.3643792086244
 20
15.06292792065961
 30
0.0
 11
202.3643792086244
 21
15.2104050041961
 31
0.0
 12
202.4111997819072
 22
15.06753934462822
 32
0.0
 13
202.4111997819072
 23
15.06753934462822
 33
0.0
  0
SOLID
  5
1A299
  8
寸法線
  6
CONTINUOUS
 62
     0
 10
202.4111997819072
 20
15.06753934462822
 30
0.0
 11
202.3643792086244
 21
15.2104050041961
 31
0.0
 12
202.4111997819072
 22
15.21400302031179
 32
0.0
 13
202.4111997819072
 23
15.21400302031179
 33
0.0
  0
SOLID
  5
1A29A
  8
寸法線
  6
CONTINUOUS
 62
     0
 10
202.4111997819072
 20
8.63826316713779
 30
0.0
 11
202.4111997819072
 21
8.784726842821344
 31
0.0
 12
202.4624681019381
 22
8.634323355453262
 32
0.0
 13
202.4624681019381
 23
8.634323355453262
 33
0.0
  0
SOLID
  5
1A29B
  8
寸法線
  6
CONTINUOUS
 62
     0
 10
202.4624681019381
 20
8.634323355453262
 30
0.0
 11
202.4111997819072
 21
8.784726842821344
 31
0.0
 12
202.4624681019381
 22
8.779677354033732
 32
0.0
 13
202.4624681019381
 23
8.779677354033732
 33
0.0
  0
SOLID
  5
1A29C
  8
寸法線
  6
CONTINUOUS
 62
     0
 10
202.4111997819072
 20
11.09437649634128
 30
0.0
 11
202.4111997819072
 21
12.75788969110828
 31
0.0
 12
202.4624681019381
 22
11.15684712504996
 32
0.0
 13
202.4624681019381
 23
11.15684712504996
 33
0.0
  0
SOLID
  5
1A29D
  8
寸法線
  6
CONTINUOUS
 62
     0
 10
202.4624681019381
 20
11.15684712504996
 30
0.0
 11
202.4111997819072
 21
12.75788969110828
 31
0.0
 12
202.4624681019381
 22
12.6954190623996
 32
0.0
 13
202.4624681019381
 23
12.6954190623996
 33
0.0
  0
SOLID
  5
1A29E
  8
寸法線
  6
CONTINUOUS
 62
     0
 10
202.4111997819072
 20
15.06753934462822
 30
0.0
 11
202.4111997819072
 21
15.21400302031179
 31
0.0
 12
202.4624681019381
 22
15.07258883341583
 32
0.0
 13
202.4624681019381
 23
15.07258883341583
 33
0.0
  0
SOLID
  5
1A29F
  8
寸法線
  6
CONTINUOUS
 62
     0
 10
202.4624681019381
 20
15.07258883341583
 30
0.0
 11
202.4111997819072
 21
15.21400302031179
 31
0.0
 12
202.4624681019381
 22
15.21794283199632
 32
0.0
 13
202.4624681019381
 23
15.21794283199632
 33
0.0
  0
SOLID
  5
1A2A0
  8
寸法線
  6
CONTINUOUS
 62
     0
 10
202.4624681019381
 20
8.634323355453262
 30
0.0
 11
202.4624681019381
 21
8.779677354033732
 31
0.0
 12
202.5574854745383
 22
8.628489956259143
 32
0.0
 13
202.5574854745383
 23
8.628489956259143
 33
0.0
  0
SOLID
  5
1A2A1
  8
寸法線
  6
CONTINUOUS
 62
     0
 10
202.5574854745383
 20
8.628489956259143
 30
0.0
 11
202.4624681019381
 21
8.779677354033732
 31
0.0
 12
202.5574854745383
 22
8.770318959663031
 32
0.0
 13
202.5574854745383
 23
8.770318959663031
 33
0.0
  0
SOLID
  5
1A2A2
  8
寸法線
  6
CONTINUOUS
 62
     0
 10
202.4624681019381
 20
11.15684712504996
 30
0.0
 11
202.4624681019381
 21
12.6954190623996
 31
0.0
 12
202.5574854745383
 22
11.27262612855535
 32
0.0
 13
202.5574854745383
 23
11.27262612855535
 33
0.0
  0
SOLID
  5
1A2A3
  8
寸法線
  6
CONTINUOUS
 62
     0
 10
202.5574854745383
 20
11.27262612855535
 30
0.0
 11
202.4624681019381
 21
12.6954190623996
 31
0.0
 12
202.5574854745383
 22
12.5796400588942
 32
0.0
 13
202.5574854745383
 23
12.5796400588942
 33
0.0
  0
SOLID
  5
1A2A4
  8
寸法線
  6
CONTINUOUS
 62
     0
 10
202.4624681019381
 20
15.07258883341583
 30
0.0
 11
202.4624681019381
 21
15.21794283199632
 31
0.0
 12
202.5574854745383
 22
15.08194722778653
 32
0.0
 13
202.5574854745383
 23
15.08194722778653
 33
0.0
  0
SOLID
  5
1A2A5
  8
寸法線
  6
CONTINUOUS
 62
     0
 10
202.5574854745383
 20
15.08194722778653
 30
0.0
 11
202.4624681019381
 21
15.21794283199632
 31
0.0
 12
202.5574854745383
 22
15.22377623119044
 32
0.0
 13
202.5574854745383
 23
15.22377623119044
 33
0.0
  0
SOLID
  5
1A2A6
  8
寸法線
  6
CONTINUOUS
 62
     0
 10
202.5574854745383
 20
8.628489956259143
 30
0.0
 11
202.5574854745383
 21
8.770318959663031
 31
0.0
 12
202.5607594386885
 22
8.628288957859452
 32
0.0
 13
202.5607594386885
 23
8.628288957859452
 33
0.0
  0
SOLID
  5
1A2A7
  8
寸法線
  6
CONTINUOUS
 62
     0
 10
202.5607594386885
 20
8.628288957859452
 30
0.0
 11
202.5574854745383
 21
8.770318959663031
 31
0.0
 12
202.5607594386885
 22
8.769996502339335
 32
0.0
 13
202.5607594386885
 23
8.769996502339335
 33
0.0
  0
SOLID
  5
1A2A8
  8
寸法線
  6
CONTINUOUS
 62
     0
 10
202.5574854745383
 20
11.27262612855535
 30
0.0
 11
202.5574854745383
 21
12.5796400588942
 31
0.0
 12
202.5607594386885
 22
11.27875128466534
 32
0.0
 13
202.5607594386885
 23
11.27875128466534
 33
0.0
  0
SOLID
  5
1A2A9
  8
寸法線
  6
CONTINUOUS
 62
     0
 10
202.5607594386885
 20
11.27875128466534
 30
0.0
 11
202.5574854745383
 21
12.5796400588942
 31
0.0
 12
202.5607594386885
 22
12.57351490278422
 32
0.0
 13
202.5607594386885
 23
12.57351490278422
 33
0.0
  0
SOLID
  5
1A2AA
  8
寸法線
  6
CONTINUOUS
 62
     0
 10
202.5574854745383
 20
15.08194722778653
 30
0.0
 11
202.5574854745383
 21
15.22377623119044
 31
0.0
 12
202.5607594386885
 22
15.08226968511022
 32
0.0
 13
202.5607594386885
 23
15.08226968511022
 33
0.0
  0
SOLID
  5
1A2AB
  8
寸法線
  6
CONTINUOUS
 62
     0
 10
202.5607594386885
 20
15.08226968511022
 30
0.0
 11
202.5574854745383
 21
15.22377623119044
 31
0.0
 12
202.5607594386885
 22
15.22397722959013
 32
0.0
 13
202.5607594386885
 23
15.22397722959013
 33
0.0
  0
SOLID
  5
1A2AC
  8
寸法線
  6
CONTINUOUS
 62
     0
 10
202.5607594386885
 20
8.628288957859452
 30
0.0
 11
202.5607594386885
 21
8.769996502339335
 31
0.0
 12
202.6592083274096
 22
8.623760746492707
 32
0.0
 13
202.6592083274096
 23
8.623760746492707
 33
0.0
  0
SOLID
  5
1A2AD
  8
寸法線
  6
CONTINUOUS
 62
     0
 10
202.6592083274096
 20
8.623760746492707
 30
0.0
 11
202.5607594386885
 21
8.769996502339335
 31
0.0
 12
202.6592083274096
 22
8.76030013313024
 32
0.0
 13
202.6592083274096
 23
8.76030013313024
 33
0.0
  0
SOLID
  5
1A2AE
  8
寸法線
  6
CONTINUOUS
 62
     0
 10
202.5607594386885
 20
11.27875128466534
 30
0.0
 11
202.5607594386885
 21
12.57351490278422
 31
0.0
 12
202.6592083274096
 22
11.46293620074939
 32
0.0
 13
202.6592083274096
 23
11.46293620074939
 33
0.0
  0
SOLID
  5
1A2AF
  8
寸法線
  6
CONTINUOUS
 62
     0
 10
202.6592083274096
 20
11.46293620074939
 30
0.0
 11
202.5607594386885
 21
12.57351490278422
 31
0.0
 12
202.6592083274096
 22
12.38932998670016
 32
0.0
 13
202.6592083274096
 23
12.38932998670016
 33
0.0
  0
SOLID
  5
1A2B0
  8
寸法線
  6
CONTINUOUS
 62
     0
 10
202.5607594386885
 20
15.08226968511022
 30
0.0
 11
202.5607594386885
 21
15.22397722959013
 31
0.0
 12
202.6592083274096
 22
15.09196605431932
 32
0.0
 13
202.6592083274096
 23
15.09196605431932
 33
0.0
  0
SOLID
  5
1A2B1
  8
寸法線
  6
CONTINUOUS
 62
     0
 10
202.6592083274096
 20
15.09196605431932
 30
0.0
 11
202.5607594386885
 21
15.22397722959013
 31
0.0
 12
202.6592083274096
 22
15.22850544095688
 32
0.0
 13
202.6592083274096
 23
15.22850544095688
 33
0.0
  0
SOLID
  5
1A2B2
  8
寸法線
  6
CONTINUOUS
 62
     0
 10
202.6592083274096
 20
8.623760746492707
 30
0.0
 11
202.6592083274096
 21
8.76030013313024
 31
0.0
 12
202.6661855504565
 22
8.623546962017079
 32
0.0
 13
202.6661855504565
 23
8.623546962017079
 33
0.0
  0
SOLID
  5
1A2B3
  8
寸法線
  6
CONTINUOUS
 62
     0
 10
202.6661855504565
 20
8.623546962017079
 30
0.0
 11
202.6592083274096
 21
8.76030013313024
 31
0.0
 12
202.6661855504565
 22
8.75961293664081
 32
0.0
 13
202.6661855504565
 23
8.75961293664081
 33
0.0
  0
SOLID
  5
1A2B4
  8
寸法線
  6
CONTINUOUS
 62
     0
 10
202.6592083274096
 20
11.46293620074939
 30
0.0
 11
202.6592083274096
 21
12.38932998670016
 31
0.0
 12
202.6661855504565
 22
11.47598966694996
 32
0.0
 13
202.6661855504565
 23
11.47598966694996
 33
0.0
  0
SOLID
  5
1A2B5
  8
寸法線
  6
CONTINUOUS
 62
     0
 10
202.6661855504565
 20
11.47598966694996
 30
0.0
 11
202.6592083274096
 21
12.38932998670016
 31
0.0
 12
202.6661855504565
 22
12.3762765204996
 32
0.0
 13
202.6661855504565
 23
12.3762765204996
 33
0.0
  0
SOLID
  5
1A2B6
  8
寸法線
  6
CONTINUOUS
 62
     0
 10
202.6592083274096
 20
15.09196605431932
 30
0.0
 11
202.6592083274096
 21
15.22850544095688
 31
0.0
 12
202.6661855504565
 22
15.09265325080875
 32
0.0
 13
202.6661855504565
 23
15.09265325080875
 33
0.0
  0
SOLID
  5
1A2B7
  8
寸法線
  6
CONTINUOUS
 62
     0
 10
202.6661855504565
 20
15.09265325080875
 30
0.0
 11
202.6592083274096
 21
15.22850544095688
 31
0.0
 12
202.6661855504565
 22
15.2287192254325
 32
0.0
 13
202.6661855504565
 23
15.2287192254325
 33
0.0
  0
SOLID
  5
1A2B8
  8
寸法線
  6
CONTINUOUS
 62
     0
 10
202.6661855504565
 20
8.623546962017079
 30
0.0
 11
202.6661855504565
 21
8.75961293664081
 31
0.0
 12
202.7331227267041
 22
8.621495984281696
 32
0.0
 13
202.7331227267041
 23
8.621495984281696
 33
0.0
  0
SOLID
  5
1A2B9
  8
寸法線
  6
CONTINUOUS
 62
     0
 10
202.7331227267041
 20
8.621495984281696
 30
0.0
 11
202.6661855504565
 21
8.75961293664081
 31
0.0
 12
202.7331227267041
 22
8.753020200215419
 32
0.0
 13
202.7331227267041
 23
8.753020200215419
 33
0.0
  0
SOLID
  5
1A2BA
  8
寸法線
  6
CONTINUOUS
 62
     0
 10
202.6661855504565
 20
11.47598966694996
 30
0.0
 11
202.6661855504565
 21
12.3762765204996
 31
0.0
 12
202.7331227267041
 22
11.69665196479218
 32
0.0
 13
202.7331227267041
 23
11.69665196479218
 33
0.0
  0
SOLID
  5
1A2BB
  8
寸法線
  6
CONTINUOUS
 62
     0
 10
202.7331227267041
 20
11.69665196479218
 30
0.0
 11
202.6661855504565
 21
12.3762765204996
 31
0.0
 12
202.7331227267041
 22
12.15561422265738
 32
0.0
 13
202.7331227267041
 23
12.15561422265738
 33
0.0
  0
SOLID
  5
1A2BC
  8
寸法線
  6
CONTINUOUS
 62
     0
 10
202.6661855504565
 20
15.09265325080875
 30
0.0
 11
202.6661855504565
 21
15.2287192254325
 31
0.0
 12
202.7331227267041
 22
15.09924598723414
 32
0.0
 13
202.7331227267041
 23
15.09924598723414
 33
0.0
  0
SOLID
  5
1A2BD
  8
寸法線
  6
CONTINUOUS
 62
     0
 10
202.7331227267041
 20
15.09924598723414
 30
0.0
 11
202.6661855504565
 21
15.2287192254325
 31
0.0
 12
202.7331227267041
 22
15.23077020316789
 32
0.0
 13
202.7331227267041
 23
15.23077020316789
 33
0.0
  0
SOLID
  5
1A2BE
  8
寸法線
  6
CONTINUOUS
 62
     0
 10
202.7331227267041
 20
8.621495984281696
 30
0.0
 11
202.7331227267041
 21
8.753020200215419
 31
0.0
 12
202.7557246451367
 22
8.620803453851211
 32
0.0
 13
202.7557246451367
 23
8.620803453851211
 33
0.0
  0
SOLID
  5
1A2BF
  8
寸法線
  6
CONTINUOUS
 62
     0
 10
202.7557246451367
 20
8.620803453851211
 30
0.0
 11
202.7331227267041
 21
8.753020200215419
 31
0.0
 12
202.7557246451367
 22
8.75079410555043
 32
0.0
 13
202.7557246451367
 23
8.75079410555043
 33
0.0
  0
SOLID
  5
1A2C0
  8
寸法線
  6
CONTINUOUS
 62
     0
 10
202.7331227267041
 20
11.69665196479218
 30
0.0
 11
202.7331227267041
 21
12.15561422265738
 31
0.0
 12
202.7557246451367
 22
11.92613309372478
 32
0.0
 13
202.7557246451367
 23
11.92613309372478
 33
0.0
  0
SOLID
  5
1A2C1
  8
寸法線
  6
CONTINUOUS
 62
     0
 10
202.7331227267041
 20
15.09924598723414
 30
0.0
 11
202.7331227267041
 21
15.23077020316789
 31
0.0
 12
202.7557246451367
 22
15.10147208189913
 32
0.0
 13
202.7557246451367
 23
15.10147208189913
 33
0.0
  0
SOLID
  5
1A2C2
  8
寸法線
  6
CONTINUOUS
 62
     0
 10
202.7557246451367
 20
15.10147208189913
 30
0.0
 11
202.7331227267041
 21
15.23077020316789
 31
0.0
 12
202.7557246451367
 22
15.23146273359837
 32
0.0
 13
202.7557246451367
 23
15.23146273359837
 33
0.0
  0
SOLID
  5
1A2C3
  8
寸法線
  6
CONTINUOUS
 62
     0
 10
202.7557246451367
 20
8.620803453851211
 30
0.0
 11
202.7557246451367
 21
8.75079410555043
 31
0.0
 12
202.7577698046786
 22
8.620740789470656
 32
0.0
 13
202.7577698046786
 23
8.620740789470656
 33
0.0
  0
SOLID
  5
1A2C4
  8
寸法線
  6
CONTINUOUS
 62
     0
 10
202.7577698046786
 20
8.620740789470656
 30
0.0
 11
202.7557246451367
 21
8.75079410555043
 31
0.0
 12
202.7577698046786
 22
8.75059267491706
 32
0.0
 13
202.7577698046786
 23
8.75059267491706
 33
0.0
  0
SOLID
  5
1A2C5
  8
寸法線
  6
CONTINUOUS
 62
     0
 10
202.7557246451367
 20
15.10147208189913
 30
0.0
 11
202.7557246451367
 21
15.23146273359837
 31
0.0
 12
202.7577698046786
 22
15.1016735125325
 32
0.0
 13
202.7577698046786
 23
15.1016735125325
 33
0.0
  0
SOLID
  5
1A2C6
  8
寸法線
  6
CONTINUOUS
 62
     0
 10
202.7577698046786
 20
15.1016735125325
 30
0.0
 11
202.7557246451367
 21
15.23146273359837
 31
0.0
 12
202.7577698046786
 22
15.23152539797893
 32
0.0
 13
202.7577698046786
 23
15.23152539797893
 33
0.0
  0
SOLID
  5
1A2C7
  8
寸法線
  6
CONTINUOUS
 62
     0
 10
202.7577698046786
 20
8.620740789470656
 30
0.0
 11
202.7577698046786
 21
8.75059267491706
 31
0.0
 12
202.8563988556514
 22
8.619230466063353
 32
0.0
 13
202.8563988556514
 23
8.619230466063353
 33
0.0
  0
SOLID
  5
1A2C8
  8
寸法線
  6
CONTINUOUS
 62
     0
 10
202.8563988556514
 20
8.619230466063353
 30
0.0
 11
202.7577698046786
 21
8.75059267491706
 31
0.0
 12
202.8563988556514
 22
8.74087856127496
 32
0.0
 13
202.8563988556514
 23
8.74087856127496
 33
0.0
  0
SOLID
  5
1A2C9
  8
寸法線
  6
CONTINUOUS
 62
     0
 10
202.7577698046786
 20
15.1016735125325
 30
0.0
 11
202.7577698046786
 21
15.23152539797893
 31
0.0
 12
202.8563988556514
 22
15.1113876261746
 32
0.0
 13
202.8563988556514
 23
15.1113876261746
 33
0.0
  0
SOLID
  5
1A2CA
  8
寸法線
  6
CONTINUOUS
 62
     0
 10
202.8563988556514
 20
15.1113876261746
 30
0.0
 11
202.7577698046786
 21
15.23152539797893
 31
0.0
 12
202.8563988556514
 22
15.23303572138623
 32
0.0
 13
202.8563988556514
 23
15.23303572138623
 33
0.0
  0
SOLID
  5
1A2CB
  8
寸法線
  6
CONTINUOUS
 62
     0
 10
202.8563988556514
 20
8.619230466063353
 30
0.0
 11
202.8563988556514
 21
8.74087856127496
 31
0.0
 12
202.9057246451367
 22
8.619230466063353
 32
0.0
 13
202.9057246451367
 23
8.619230466063353
 33
0.0
  0
SOLID
  5
1A2CC
  8
寸法線
  6
CONTINUOUS
 62
     0
 10
202.9057246451367
 20
8.619230466063353
 30
0.0
 11
202.8563988556514
 21
8.74087856127496
 31
0.0
 12
202.9057246451367
 22
8.736020395046857
 32
0.0
 13
202.9057246451367
 23
8.736020395046857
 33
0.0
  0
SOLID
  5
1A2CD
  8
寸法線
  6
CONTINUOUS
 62
     0
 10
202.8563988556514
 20
15.1113876261746
 30
0.0
 11
202.8563988556514
 21
15.23303572138623
 31
0.0
 12
202.9057246451367
 22
15.1162457924027
 32
0.0
 13
202.9057246451367
 23
15.1162457924027
 33
0.0
  0
SOLID
  5
1A2CE
  8
寸法線
  6
CONTINUOUS
 62
     0
 10
202.9057246451367
 20
15.1162457924027
 30
0.0
 11
202.8563988556514
 21
15.23303572138623
 31
0.0
 12
202.9057246451367
 22
15.23303572138623
 32
0.0
 13
202.9057246451367
 23
15.23303572138623
 33
0.0
  0
SOLID
  5
1A2CF
  8
寸法線
  6
CONTINUOUS
 62
     0
 10
202.9057246451367
 20
8.619230466063353
 30
0.0
 11
202.9057246451367
 21
8.736020395046857
 31
0.0
 12
202.9523780378162
 22
8.619230466063353
 32
0.0
 13
202.9523780378162
 23
8.619230466063353
 33
0.0
  0
SOLID
  5
1A2D0
  8
寸法線
  6
CONTINUOUS
 62
     0
 10
202.9523780378162
 20
8.619230466063353
 30
0.0
 11
202.9057246451367
 21
8.736020395046857
 31
0.0
 12
202.9523780378162
 22
8.740615353163241
 32
0.0
 13
202.9523780378162
 23
8.740615353163241
 33
0.0
  0
SOLID
  5
1A2D1
  8
寸法線
  6
CONTINUOUS
 62
     0
 10
202.9057246451367
 20
15.1162457924027
 30
0.0
 11
202.9057246451367
 21
15.23303572138623
 31
0.0
 12
202.9523780378162
 22
15.11165083428632
 32
0.0
 13
202.9523780378162
 23
15.11165083428632
 33
0.0
  0
SOLID
  5
1A2D2
  8
寸法線
  6
CONTINUOUS
 62
     0
 10
202.9523780378162
 20
15.11165083428632
 30
0.0
 11
202.9057246451367
 21
15.23303572138623
 31
0.0
 12
202.9523780378162
 22
15.23303572138623
 32
0.0
 13
202.9523780378162
 23
15.23303572138623
 33
0.0
  0
SOLID
  5
1A2D3
  8
寸法線
  6
CONTINUOUS
 62
     0
 10
202.9523780378162
 20
8.619230466063353
 30
0.0
 11
202.9523780378162
 21
8.740615353163241
 31
0.0
 12
202.9550504346219
 22
8.619230466063353
 32
0.0
 13
202.9550504346219
 23
8.619230466063353
 33
0.0
  0
SOLID
  5
1A2D4
  8
寸法線
  6
CONTINUOUS
 62
     0
 10
202.9550504346219
 20
8.619230466063353
 30
0.0
 11
202.9523780378162
 21
8.740615353163241
 31
0.0
 12
202.9550504346219
 22
8.74087856127496
 32
0.0
 13
202.9550504346219
 23
8.74087856127496
 33
0.0
  0
SOLID
  5
1A2D5
  8
寸法線
  6
CONTINUOUS
 62
     0
 10
202.9523780378162
 20
10.74985163311174
 30
0.0
 11
202.9523780378162
 21
11.13882901524838
 31
0.0
 12
202.9550504346219
 22
10.74985163311174
 32
0.0
 13
202.9550504346219
 23
10.74985163311174
 33
0.0
  0
SOLID
  5
1A2D6
  8
寸法線
  6
CONTINUOUS
 62
     0
 10
202.9550504346219
 20
10.74985163311174
 30
0.0
 11
202.9523780378162
 21
11.13882901524838
 31
0.0
 12
202.9550504346219
 22
11.13882901524838
 32
0.0
 13
202.9550504346219
 23
11.13882901524838
 33
0.0
  0
SOLID
  5
1A2D7
  8
寸法線
  6
CONTINUOUS
 62
     0
 10
202.9523780378162
 20
15.11165083428632
 30
0.0
 11
202.9523780378162
 21
15.23303572138623
 31
0.0
 12
202.9550504346219
 22
15.1113876261746
 32
0.0
 13
202.9550504346219
 23
15.1113876261746
 33
0.0
  0
SOLID
  5
1A2D8
  8
寸法線
  6
CONTINUOUS
 62
     0
 10
202.9550504346219
 20
15.1113876261746
 30
0.0
 11
202.9523780378162
 21
15.23303572138623
 31
0.0
 12
202.9550504346219
 22
15.23303572138623
 32
0.0
 13
202.9550504346219
 23
15.23303572138623
 33
0.0
  0
SOLID
  5
1A2D9
  8
寸法線
  6
CONTINUOUS
 62
     0
 10
202.9550504346219
 20
8.619230466063353
 30
0.0
 11
202.9550504346219
 21
8.74087856127496
 31
0.0
 12
203.043520121564
 22
8.62058521740393
 32
0.0
 13
203.043520121564
 23
8.62058521740393
 33
0.0
  0
SOLID
  5
1A2DA
  8
寸法線
  6
CONTINUOUS
 62
     0
 10
203.043520121564
 20
8.62058521740393
 30
0.0
 11
202.9550504346219
 21
8.74087856127496
 31
0.0
 12
203.043520121564
 22
8.74959206489645
 32
0.0
 13
203.043520121564
 23
8.74959206489645
 33
0.0
  0
SOLID
  5
1A2DB
  8
寸法線
  6
CONTINUOUS
 62
     0
 10
202.9550504346219
 20
10.74985163311174
 30
0.0
 11
202.9550504346219
 21
11.13882901524838
 31
0.0
 12
203.043520121564
 22
10.74985163311174
 32
0.0
 13
203.043520121564
 23
10.74985163311174
 33
0.0
  0
SOLID
  5
1A2DC
  8
寸法線
  6
CONTINUOUS
 62
     0
 10
203.043520121564
 20
10.74985163311174
 30
0.0
 11
202.9550504346219
 21
11.13882901524838
 31
0.0
 12
203.043520121564
 22
11.13882901524838
 32
0.0
 13
203.043520121564
 23
11.13882901524838
 33
0.0
  0
SOLID
  5
1A2DD
  8
寸法線
  6
CONTINUOUS
 62
     0
 10
202.9550504346219
 20
15.1113876261746
 30
0.0
 11
202.9550504346219
 21
15.23303572138623
 31
0.0
 12
203.043520121564
 22
15.10267412255311
 32
0.0
 13
203.043520121564
 23
15.10267412255311
 33
0.0
  0
SOLID
  5
1A2DE
  8
寸法線
  6
CONTINUOUS
 62
     0
 10
203.043520121564
 20
15.10267412255311
 30
0.0
 11
202.9550504346219
 21
15.23303572138623
 31
0.0
 12
203.043520121564
 22
15.23168097004565
 32
0.0
 13
203.043520121564
 23
15.23168097004565
 33
0.0
  0
SOLID
  5
1A2DF
  8
寸法線
  6
CONTINUOUS
 62
     0
 10
203.043520121564
 20
8.62058521740393
 30
0.0
 11
203.043520121564
 21
8.74959206489645
 31
0.0
 12
203.0536794855948
 22
8.620740789470656
 32
0.0
 13
203.0536794855948
 23
8.620740789470656
 33
0.0
  0
SOLID
  5
1A2E0
  8
寸法線
  6
CONTINUOUS
 62
     0
 10
203.0536794855948
 20
8.620740789470656
 30
0.0
 11
203.043520121564
 21
8.74959206489645
 31
0.0
 12
203.0536794855948
 22
8.75059267491706
 32
0.0
 13
203.0536794855948
 23
8.75059267491706
 33
0.0
  0
SOLID
  5
1A2E1
  8
寸法線
  6
CONTINUOUS
 62
     0
 10
203.043520121564
 20
10.74985163311174
 30
0.0
 11
203.043520121564
 21
11.13882901524838
 31
0.0
 12
203.0536794855948
 22
10.75085224313234
 32
0.0
 13
203.0536794855948
 23
10.75085224313234
 33
0.0
  0
SOLID
  5
1A2E2
  8
寸法線
  6
CONTINUOUS
 62
     0
 10
203.0536794855948
 20
10.75085224313234
 30
0.0
 11
203.043520121564
 21
11.13882901524838
 31
0.0
 12
203.0536794855948
 22
11.13982962526899
 32
0.0
 13
203.0536794855948
 23
11.13982962526899
 33
0.0
  0
SOLID
  5
1A2E3
  8
寸法線
  6
CONTINUOUS
 62
     0
 10
203.043520121564
 20
15.10267412255311
 30
0.0
 11
203.043520121564
 21
15.23168097004565
 31
0.0
 12
203.0536794855948
 22
15.1016735125325
 32
0.0
 13
203.0536794855948
 23
15.1016735125325
 33
0.0
  0
SOLID
  5
1A2E4
  8
寸法線
  6
CONTINUOUS
 62
     0
 10
203.0536794855948
 20
15.1016735125325
 30
0.0
 11
203.043520121564
 21
15.23168097004565
 31
0.0
 12
203.0536794855948
 22
15.23152539797893
 32
0.0
 13
203.0536794855948
 23
15.23152539797893
 33
0.0
  0
SOLID
  5
1A2E5
  8
寸法線
  6
CONTINUOUS
 62
     0
 10
203.0536794855948
 20
8.620740789470656
 30
0.0
 11
203.0536794855948
 21
8.75059267491706
 31
0.0
 12
203.1522409628638
 22
8.623760746492707
 32
0.0
 13
203.1522409628638
 23
8.623760746492707
 33
0.0
  0
SOLID
  5
1A2E6
  8
寸法線
  6
CONTINUOUS
 62
     0
 10
203.1522409628638
 20
8.623760746492707
 30
0.0
 11
203.0536794855948
 21
8.75059267491706
 31
0.0
 12
203.1522409628638
 22
8.76030013313024
 32
0.0
 13
203.1522409628638
 23
8.76030013313024
 33
0.0
  0
SOLID
  5
1A2E7
  8
寸法線
  6
CONTINUOUS
 62
     0
 10
203.0536794855948
 20
10.75085224313234
 30
0.0
 11
203.0536794855948
 21
11.13982962526899
 31
0.0
 12
203.1522409628638
 22
10.76055970134553
 32
0.0
 13
203.1522409628638
 23
10.76055970134553
 33
0.0
  0
SOLID
  5
1A2E8
  8
寸法線
  6
CONTINUOUS
 62
     0
 10
203.1522409628638
 20
10.76055970134553
 30
0.0
 11
203.0536794855948
 21
11.13982962526899
 31
0.0
 12
203.1522409628638
 22
11.14953708348217
 32
0.0
 13
203.1522409628638
 23
11.14953708348217
 33
0.0
  0
SOLID
  5
1A2E9
  8
寸法線
  6
CONTINUOUS
 62
     0
 10
203.0536794855948
 20
15.1016735125325
 30
0.0
 11
203.0536794855948
 21
15.23152539797893
 31
0.0
 12
203.1522409628638
 22
15.09196605431932
 32
0.0
 13
203.1522409628638
 23
15.09196605431932
 33
0.0
  0
SOLID
  5
1A2EA
  8
寸法線
  6
CONTINUOUS
 62
     0
 10
203.1522409628638
 20
15.09196605431932
 30
0.0
 11
203.0536794855948
 21
15.23152539797893
 31
0.0
 12
203.1522409628638
 22
15.22850544095688
 32
0.0
 13
203.1522409628638
 23
15.22850544095688
 33
0.0
  0
SOLID
  5
1A2EB
  8
寸法線
  6
CONTINUOUS
 62
     0
 10
203.1522409628638
 20
8.623760746492707
 30
0.0
 11
203.1522409628638
 21
8.76030013313024
 31
0.0
 12
203.2071964892093
 22
8.626288456478017
 32
0.0
 13
203.2071964892093
 23
8.626288456478017
 33
0.0
  0
SOLID
  5
1A2EC
  8
寸法線
  6
CONTINUOUS
 62
     0
 10
203.2071964892093
 20
8.626288456478017
 30
0.0
 11
203.1522409628638
 21
8.76030013313024
 31
0.0
 12
203.2071964892093
 22
8.765712780042238
 32
0.0
 13
203.2071964892093
 23
8.765712780042238
 33
0.0
  0
SOLID
  5
1A2ED
  8
寸法線
  6
CONTINUOUS
 62
     0
 10
203.1522409628638
 20
10.76055970134553
 30
0.0
 11
203.1522409628638
 21
11.14953708348217
 31
0.0
 12
203.2071964892093
 22
10.76597234825753
 32
0.0
 13
203.2071964892093
 23
10.76597234825753
 33
0.0
  0
SOLID
  5
1A2EE
  8
寸法線
  6
CONTINUOUS
 62
     0
 10
203.2071964892093
 20
10.76597234825753
 30
0.0
 11
203.1522409628638
 21
11.14953708348217
 31
0.0
 12
203.2071964892093
 22
11.15494973039417
 32
0.0
 13
203.2071964892093
 23
11.15494973039417
 33
0.0
  0
SOLID
  5
1A2EF
  8
寸法線
  6
CONTINUOUS
 62
     0
 10
203.1522409628638
 20
15.09196605431932
 30
0.0
 11
203.1522409628638
 21
15.22850544095688
 31
0.0
 12
203.2071964892093
 22
15.08655340740732
 32
0.0
 13
203.2071964892093
 23
15.08655340740732
 33
0.0
  0
SOLID
  5
1A2F0
  8
寸法線
  6
CONTINUOUS
 62
     0
 10
203.2071964892093
 20
15.08655340740732
 30
0.0
 11
203.1522409628638
 21
15.22850544095688
 31
0.0
 12
203.2071964892093
 22
15.22597773097157
 32
0.0
 13
203.2071964892093
 23
15.22597773097157
 33
0.0
  0
SOLID
  5
1A2F1
  8
寸法線
  6
CONTINUOUS
 62
     0
 10
203.2071964892093
 20
8.626288456478017
 30
0.0
 11
203.2071964892093
 21
8.765712780042238
 31
0.0
 12
203.2506898515849
 22
8.628288957859452
 32
0.0
 13
203.2506898515849
 23
8.628288957859452
 33
0.0
  0
SOLID
  5
1A2F2
  8
寸法線
  6
CONTINUOUS
 62
     0
 10
203.2506898515849
 20
8.628288957859452
 30
0.0
 11
203.2071964892093
 21
8.765712780042238
 31
0.0
 12
203.2506898515849
 22
8.769996502339334
 32
0.0
 13
203.2506898515849
 23
8.769996502339334
 33
0.0
  0
SOLID
  5
1A2F3
  8
寸法線
  6
CONTINUOUS
 62
     0
 10
203.2071964892093
 20
10.76597234825753
 30
0.0
 11
203.2071964892093
 21
11.15494973039417
 31
0.0
 12
203.2506898515849
 22
10.77025607055462
 32
0.0
 13
203.2506898515849
 23
10.77025607055462
 33
0.0
  0
SOLID
  5
1A2F4
  8
寸法線
  6
CONTINUOUS
 62
     0
 10
203.2506898515849
 20
10.77025607055462
 30
0.0
 11
203.2071964892093
 21
11.15494973039417
 31
0.0
 12
203.2506898515849
 22
11.16814329762975
 32
0.0
 13
203.2506898515849
 23
11.16814329762975
 33
0.0
  0
SOLID
  5
1A2F5
  8
寸法線
  6
CONTINUOUS
 62
     0
 10
203.2071964892093
 20
15.08655340740732
 30
0.0
 11
203.2071964892093
 21
15.22597773097157
 31
0.0
 12
203.2506898515849
 22
15.08226968511022
 32
0.0
 13
203.2506898515849
 23
15.08226968511022
 33
0.0
  0
SOLID
  5
1A2F6
  8
寸法線
  6
CONTINUOUS
 62
     0
 10
203.2506898515849
 20
15.08226968511022
 30
0.0
 11
203.2071964892093
 21
15.22597773097157
 31
0.0
 12
203.2506898515849
 22
15.22397722959013
 32
0.0
 13
203.2506898515849
 23
15.22397722959013
 33
0.0
  0
SOLID
  5
1A2F7
  8
寸法線
  6
CONTINUOUS
 62
     0
 10
203.2506898515849
 20
8.628288957859452
 30
0.0
 11
203.2506898515849
 21
8.769996502339334
 31
0.0
 12
203.2830822119473
 22
8.63027762123398
 32
0.0
 13
203.2830822119473
 23
8.63027762123398
 33
0.0
  0
SOLID
  5
1A2F8
  8
寸法線
  6
CONTINUOUS
 62
     0
 10
203.2830822119473
 20
8.63027762123398
 30
0.0
 11
203.2506898515849
 21
8.769996502339334
 31
0.0
 12
203.2830822119473
 22
8.77318687136948
 32
0.0
 13
203.2830822119473
 23
8.77318687136948
 33
0.0
  0
SOLID
  5
1A2F9
  8
寸法線
  6
CONTINUOUS
 62
     0
 10
203.2506898515849
 20
10.77025607055462
 30
0.0
 11
203.2506898515849
 21
11.16814329762975
 31
0.0
 12
203.2830822119473
 22
10.77344643958477
 32
0.0
 13
203.2830822119473
 23
10.77344643958477
 33
0.0
  0
SOLID
  5
1A2FA
  8
寸法線
  6
CONTINUOUS
 62
     0
 10
203.2830822119473
 20
10.77344643958477
 30
0.0
 11
203.2506898515849
 21
11.16814329762975
 31
0.0
 12
203.2830822119473
 22
11.17796941271991
 32
0.0
 13
203.2830822119473
 23
11.17796941271991
 33
0.0
  0
SOLID
  5
1A2FB
  8
寸法線
  6
CONTINUOUS
 62
     0
 10
203.2506898515849
 20
15.08226968511022
 30
0.0
 11
203.2506898515849
 21
15.22397722959013
 31
0.0
 12
203.2830822119473
 22
15.07907931608008
 32
0.0
 13
203.2830822119473
 23
15.07907931608008
 33
0.0
  0
SOLID
  5
1A2FC
  8
寸法線
  6
CONTINUOUS
 62
     0
 10
203.2830822119473
 20
15.07907931608008
 30
0.0
 11
203.2506898515849
 21
15.22397722959013
 31
0.0
 12
203.2830822119473
 22
15.2219885662156
 32
0.0
 13
203.2830822119473
 23
15.2219885662156
 33
0.0
  0
SOLID
  5
1A2FD
  8
寸法線
  6
CONTINUOUS
 62
     0
 10
203.2830822119473
 20
8.63027762123398
 30
0.0
 11
203.2830822119473
 21
8.77318687136948
 31
0.0
 12
203.3489811883352
 22
8.63432335545326
 32
0.0
 13
203.3489811883352
 23
8.63432335545326
 33
0.0
  0
SOLID
  5
1A2FE
  8
寸法線
  6
CONTINUOUS
 62
     0
 10
203.3489811883352
 20
8.63432335545326
 30
0.0
 11
203.2830822119473
 21
8.77318687136948
 31
0.0
 12
203.3489811883352
 22
8.779677354033732
 32
0.0
 13
203.3489811883352
 23
8.779677354033732
 33
0.0
  0
SOLID
  5
1A2FF
  8
寸法線
  6
CONTINUOUS
 62
     0
 10
203.2830822119473
 20
10.77344643958477
 30
0.0
 11
203.2830822119473
 21
11.17796941271991
 31
0.0
 12
203.3489811883352
 22
10.79343667552518
 32
0.0
 13
203.3489811883352
 23
10.79343667552518
 33
0.0
  0
SOLID
  5
1A300
  8
寸法線
  6
CONTINUOUS
 62
     0
 10
203.3489811883352
 20
10.79343667552518
 30
0.0
 11
203.2830822119473
 21
11.17796941271991
 31
0.0
 12
203.3489811883352
 22
11.19795964866031
 32
0.0
 13
203.3489811883352
 23
11.19795964866031
 33
0.0
  0
SOLID
  5
1A301
  8
寸法線
  6
CONTINUOUS
 62
     0
 10
203.2830822119473
 20
15.07907931608008
 30
0.0
 11
203.2830822119473
 21
15.2219885662156
 31
0.0
 12
203.3489811883352
 22
15.07258883341583
 32
0.0
 13
203.3489811883352
 23
15.07258883341583
 33
0.0
  0
SOLID
  5
1A302
  8
寸法線
  6
CONTINUOUS
 62
     0
 10
203.3489811883352
 20
15.07258883341583
 30
0.0
 11
203.2830822119473
 21
15.2219885662156
 31
0.0
 12
203.3489811883352
 22
15.21794283199632
 32
0.0
 13
203.3489811883352
 23
15.21794283199632
 33
0.0
  0
SOLID
  5
1A303
  8
寸法線
  6
CONTINUOUS
 62
     0
 10
203.3489811883352
 20
8.63432335545326
 30
0.0
 11
203.3489811883352
 21
8.779677354033732
 31
0.0
 12
203.3645828658367
 22
8.635522296071587
 32
0.0
 13
203.3645828658367
 23
8.635522296071587
 33
0.0
  0
SOLID
  5
1A304
  8
寸法線
  6
CONTINUOUS
 62
     0
 10
203.3645828658367
 20
8.635522296071587
 30
0.0
 11
203.3489811883352
 21
8.779677354033732
 31
0.0
 12
203.3645828658367
 22
8.781213985145575
 32
0.0
 13
203.3645828658367
 23
8.781213985145575
 33
0.0
  0
SOLID
  5
1A305
  8
寸法線
  6
CONTINUOUS
 62
     0
 10
203.3489811883352
 20
10.79343667552518
 30
0.0
 11
203.3489811883352
 21
11.19795964866031
 31
0.0
 12
203.3645828658367
 22
10.79816939265395
 32
0.0
 13
203.3645828658367
 23
10.79816939265395
 33
0.0
  0
SOLID
  5
1A306
  8
寸法線
  6
CONTINUOUS
 62
     0
 10
203.3645828658367
 20
10.79816939265395
 30
0.0
 11
203.3489811883352
 21
11.19795964866031
 31
0.0
 12
203.3645828658367
 22
11.20269236578909
 32
0.0
 13
203.3645828658367
 23
11.20269236578909
 33
0.0
  0
SOLID
  5
1A307
  8
寸法線
  6
CONTINUOUS
 62
     0
 10
203.3489811883352
 20
15.07258883341583
 30
0.0
 11
203.3489811883352
 21
15.21794283199632
 31
0.0
 12
203.3645828658367
 22
15.07105220230398
 32
0.0
 13
203.3645828658367
 23
15.07105220230398
 33
0.0
  0
SOLID
  5
1A308
  8
寸法線
  6
CONTINUOUS
 62
     0
 10
203.3645828658367
 20
15.07105220230398
 30
0.0
 11
203.3489811883352
 21
15.21794283199632
 31
0.0
 12
203.3645828658367
 22
15.21674389137799
 32
0.0
 13
203.3645828658367
 23
15.21674389137799
 33
0.0
  0
SOLID
  5
1A309
  8
寸法線
  6
CONTINUOUS
 62
     0
 10
203.3645828658367
 20
8.635522296071587
 30
0.0
 11
203.3645828658367
 21
8.781213985145575
 31
0.0
 12
203.447070081649
 22
8.641861183253482
 32
0.0
 13
203.447070081649
 23
8.641861183253482
 33
0.0
  0
SOLID
  5
1A30A
  8
寸法線
  6
CONTINUOUS
 62
     0
 10
203.447070081649
 20
8.641861183253482
 30
0.0
 11
203.3645828658367
 21
8.781213985145575
 31
0.0
 12
203.447070081649
 22
8.789338266789951
 32
0.0
 13
203.447070081649
 23
8.789338266789951
 33
0.0
  0
SOLID
  5
1A30B
  8
寸法線
  6
CONTINUOUS
 62
     0
 10
203.3645828658367
 20
10.79816939265395
 30
0.0
 11
203.3645828658367
 21
11.20269236578909
 31
0.0
 12
203.447070081649
 22
10.82319161601061
 32
0.0
 13
203.447070081649
 23
10.82319161601061
 33
0.0
  0
SOLID
  5
1A30C
  8
寸法線
  6
CONTINUOUS
 62
     0
 10
203.447070081649
 20
10.82319161601061
 30
0.0
 11
203.3645828658367
 21
11.20269236578909
 31
0.0
 12
203.447070081649
 22
11.24678270121433
 32
0.0
 13
203.447070081649
 23
11.24678270121433
 33
0.0
  0
SOLID
  5
1A30D
  8
寸法線
  6
CONTINUOUS
 62
     0
 10
203.3645828658367
 20
15.07105220230398
 30
0.0
 11
203.3645828658367
 21
15.21674389137799
 31
0.0
 12
203.447070081649
 22
15.06292792065961
 32
0.0
 13
203.447070081649
 23
15.06292792065961
 33
0.0
  0
SOLID
  5
1A30E
  8
寸法線
  6
CONTINUOUS
 62
     0
 10
203.447070081649
 20
15.06292792065961
 30
0.0
 11
203.3645828658367
 21
15.21674389137799
 31
0.0
 12
203.447070081649
 22
15.2104050041961
 32
0.0
 13
203.447070081649
 23
15.2104050041961
 33
0.0
  0
SOLID
  5
1A30F
  8
寸法線
  6
CONTINUOUS
 62
     0
 10
203.447070081649
 20
8.641861183253482
 30
0.0
 11
203.447070081649
 21
8.789338266789951
 31
0.0
 12
203.5096309812558
 22
8.64764004995518
 32
0.0
 13
203.5096309812558
 23
8.64764004995518
 33
0.0
  0
SOLID
  5
1A310
  8
寸法線
  6
CONTINUOUS
 62
     0
 10
203.5096309812558
 20
8.64764004995518
 30
0.0
 11
203.447070081649
 21
8.789338266789951
 31
0.0
 12
203.5096309812558
 22
8.795499977587516
 32
0.0
 13
203.5096309812558
 23
8.795499977587516
 33
0.0
  0
SOLID
  5
1A311
  8
寸法線
  6
CONTINUOUS
 62
     0
 10
203.447070081649
 20
10.82319161601061
 30
0.0
 11
203.447070081649
 21
11.24678270121433
 31
0.0
 12
203.5096309812558
 22
10.84216925742984
 32
0.0
 13
203.5096309812558
 23
10.84216925742984
 33
0.0
  0
SOLID
  5
1A312
  8
寸法線
  6
CONTINUOUS
 62
     0
 10
203.5096309812558
 20
10.84216925742984
 30
0.0
 11
203.447070081649
 21
11.24678270121433
 31
0.0
 12
203.5096309812558
 22
11.28022219872928
 32
0.0
 13
203.5096309812558
 23
11.28022219872928
 33
0.0
  0
SOLID
  5
1A313
  8
寸法線
  6
CONTINUOUS
 62
     0
 10
203.447070081649
 20
15.06292792065961
 30
0.0
 11
203.447070081649
 21
15.2104050041961
 31
0.0
 12
203.5096309812558
 22
15.05676620986204
 32
0.0
 13
203.5096309812558
 23
15.05676620986204
 33
0.0
  0
SOLID
  5
1A314
  8
寸法線
  6
CONTINUOUS
 62
     0
 10
203.5096309812558
 20
15.05676620986204
 30
0.0
 11
203.447070081649
 21
15.2104050041961
 31
0.0
 12
203.5096309812558
 22
15.2046261374944
 32
0.0
 13
203.5096309812558
 23
15.2046261374944
 33
0.0
  0
SOLID
  5
1A315
  8
寸法線
  6
CONTINUOUS
 62
     0
 10
203.5096309812558
 20
8.64764004995518
 30
0.0
 11
203.5096309812558
 21
8.795499977587516
 31
0.0
 12
203.5134380655451
 22
8.647991717414701
 32
0.0
 13
203.5134380655451
 23
8.647991717414701
 33
0.0
  0
SOLID
  5
1A316
  8
寸法線
  6
CONTINUOUS
 62
     0
 10
203.5134380655451
 20
8.647991717414701
 30
0.0
 11
203.5096309812558
 21
8.795499977587516
 31
0.0
 12
203.5134380655451
 22
8.79587494266187
 32
0.0
 13
203.5134380655451
 23
8.79587494266187
 33
0.0
  0
SOLID
  5
1A317
  8
寸法線
  6
CONTINUOUS
 62
     0
 10
203.5096309812558
 20
10.84216925742984
 30
0.0
 11
203.5096309812558
 21
11.28022219872928
 31
0.0
 12
203.5134380655451
 22
10.84332412382322
 32
0.0
 13
203.5134380655451
 23
10.84332412382322
 33
0.0
  0
SOLID
  5
1A318
  8
寸法線
  6
CONTINUOUS
 62
     0
 10
203.5134380655451
 20
10.84332412382322
 30
0.0
 11
203.5096309812558
 21
11.28022219872928
 31
0.0
 12
203.5134380655451
 22
11.28334659206043
 32
0.0
 13
203.5134380655451
 23
11.28334659206043
 33
0.0
  0
SOLID
  5
1A319
  8
寸法線
  6
CONTINUOUS
 62
     0
 10
203.5096309812558
 20
15.05676620986204
 30
0.0
 11
203.5096309812558
 21
15.2046261374944
 31
0.0
 12
203.5134380655451
 22
15.05639124478769
 32
0.0
 13
203.5134380655451
 23
15.05639124478769
 33
0.0
  0
SOLID
  5
1A31A
  8
寸法線
  6
CONTINUOUS
 62
     0
 10
203.5134380655451
 20
15.05639124478769
 30
0.0
 11
203.5096309812558
 21
15.2046261374944
 31
0.0
 12
203.5134380655451
 22
15.20427447003488
 32
0.0
 13
203.5134380655451
 23
15.20427447003488
 33
0.0
  0
SOLID
  5
1A31B
  8
寸法線
  6
CONTINUOUS
 62
     0
 10
203.5134380655451
 20
8.647991717414701
 30
0.0
 11
203.5134380655451
 21
8.79587494266187
 31
0.0
 12
203.5280847587895
 22
8.649344659722303
 32
0.0
 13
203.5280847587895
 23
8.649344659722303
 33
0.0
  0
SOLID
  5
1A31C
  8
寸法線
  6
CONTINUOUS
 62
     0
 10
203.5280847587895
 20
8.649344659722303
 30
0.0
 11
203.5134380655451
 21
8.79587494266187
 31
0.0
 12
203.5280847587895
 22
8.797317516034047
 32
0.0
 13
203.5280847587895
 23
8.797317516034047
 33
0.0
  0
SOLID
  5
1A31D
  8
寸法線
  6
CONTINUOUS
 62
     0
 10
203.5134380655451
 20
10.84332412382322
 30
0.0
 11
203.5134380655451
 21
11.28334659206043
 31
0.0
 12
203.5280847587895
 22
10.85115294446718
 32
0.0
 13
203.5280847587895
 23
10.85115294446718
 33
0.0
  0
SOLID
  5
1A31E
  8
寸法線
  6
CONTINUOUS
 62
     0
 10
203.5280847587895
 20
10.85115294446718
 30
0.0
 11
203.5134380655451
 21
11.28334659206043
 31
0.0
 12
203.5280847587895
 22
11.29536682256183
 32
0.0
 13
203.5280847587895
 23
11.29536682256183
 33
0.0
  0
SOLID
  5
1A31F
  8
寸法線
  6
CONTINUOUS
 62
     0
 10
203.5134380655451
 20
15.05639124478769
 30
0.0
 11
203.5134380655451
 21
15.20427447003488
 31
0.0
 12
203.5280847587895
 22
15.05494867141551
 32
0.0
 13
203.5280847587895
 23
15.05494867141551
 33
0.0
  0
SOLID
  5
1A320
  8
寸法線
  6
CONTINUOUS
 62
     0
 10
203.5280847587895
 20
15.05494867141551
 30
0.0
 11
203.5134380655451
 21
15.20427447003488
 31
0.0
 12
203.5280847587895
 22
15.20292152772728
 32
0.0
 13
203.5280847587895
 23
15.20292152772728
 33
0.0
  0
SOLID
  5
1A321
  8
寸法線
  6
CONTINUOUS
 62
     0
 10
203.5280847587895
 20
8.649344659722303
 30
0.0
 11
203.5280847587895
 21
8.797317516034047
 31
0.0
 12
203.5449117325198
 22
8.650898998595167
 32
0.0
 13
203.5449117325198
 23
8.650898998595167
 33
0.0
  0
SOLID
  5
1A322
  8
寸法線
  6
CONTINUOUS
 62
     0
 10
203.5449117325198
 20
8.650898998595167
 30
0.0
 11
203.5280847587895
 21
8.797317516034047
 31
0.0
 12
203.5449117325198
 22
8.802421922710273
 32
0.0
 13
203.5449117325198
 23
8.802421922710273
 33
0.0
  0
SOLID
  5
1A323
  8
寸法線
  6
CONTINUOUS
 62
     0
 10
203.5280847587895
 20
10.85115294446718
 30
0.0
 11
203.5280847587895
 21
11.29536682256183
 31
0.0
 12
203.5449117325198
 22
10.86014714931036
 32
0.0
 13
203.5449117325198
 23
10.86014714931036
 33
0.0
  0
SOLID
  5
1A324
  8
寸法線
  6
CONTINUOUS
 62
     0
 10
203.5449117325198
 20
10.86014714931036
 30
0.0
 11
203.5280847587895
 21
11.29536682256183
 31
0.0
 12
203.5449117325198
 22
11.3091763630161
 32
0.0
 13
203.5449117325198
 23
11.3091763630161
 33
0.0
  0
SOLID
  5
1A325
  8
寸法線
  6
CONTINUOUS
 62
     0
 10
203.5280847587895
 20
15.05494867141551
 30
0.0
 11
203.5280847587895
 21
15.20292152772728
 31
0.0
 12
203.5449117325198
 22
15.04984426473928
 32
0.0
 13
203.5449117325198
 23
15.04984426473928
 33
0.0
  0
SOLID
  5
1A326
  8
寸法線
  6
CONTINUOUS
 62
     0
 10
203.5449117325198
 20
15.04984426473928
 30
0.0
 11
203.5280847587895
 21
15.20292152772728
 31
0.0
 12
203.5449117325198
 22
15.20136718885442
 32
0.0
 13
203.5449117325198
 23
15.20136718885442
 33
0.0
  0
SOLID
  5
1A327
  8
寸法線
  6
CONTINUOUS
 62
     0
 10
203.5449117325198
 20
8.650898998595167
 30
0.0
 11
203.5449117325198
 21
8.802421922710273
 31
0.0
 12
203.6367667177349
 22
8.660817741074297
 32
0.0
 13
203.6367667177349
 23
8.660817741074297
 33
0.0
  0
SOLID
  5
1A328
  8
寸法線
  6
CONTINUOUS
 62
     0
 10
203.6367667177349
 20
8.660817741074297
 30
0.0
 11
203.5449117325198
 21
8.802421922710273
 31
0.0
 12
203.6367667177349
 22
8.8302858278481
 32
0.0
 13
203.6367667177349
 23
8.8302858278481
 33
0.0
  0
SOLID
  5
1A329
  8
寸法線
  6
CONTINUOUS
 62
     0
 10
203.5449117325198
 20
10.86014714931036
 30
0.0
 11
203.5449117325198
 21
11.3091763630161
 31
0.0
 12
203.6367667177349
 22
10.90924466180047
 32
0.0
 13
203.6367667177349
 23
10.90924466180047
 33
0.0
  0
SOLID
  5
1A32A
  8
寸法線
  6
CONTINUOUS
 62
     0
 10
203.6367667177349
 20
10.90924466180047
 30
0.0
 11
203.5449117325198
 21
11.3091763630161
 31
0.0
 12
203.6367667177349
 22
11.38455980121409
 32
0.0
 13
203.6367667177349
 23
11.38455980121409
 33
0.0
  0
SOLID
  5
1A32B
  8
寸法線
  6
CONTINUOUS
 62
     0
 10
203.5449117325198
 20
15.04984426473928
 30
0.0
 11
203.5449117325198
 21
15.20136718885441
 31
0.0
 12
203.6367667177349
 22
15.02198035960146
 32
0.0
 13
203.6367667177349
 23
15.02198035960146
 33
0.0
  0
SOLID
  5
1A32C
  8
寸法線
  6
CONTINUOUS
 62
     0
 10
203.6367667177349
 20
15.02198035960146
 30
0.0
 11
203.5449117325198
 21
15.20136718885441
 31
0.0
 12
203.6367667177349
 22
15.19144844637528
 32
0.0
 13
203.6367667177349
 23
15.19144844637528
 33
0.0
  0
SOLID
  5
1A32D
  8
寸法線
  6
CONTINUOUS
 62
     0
 10
203.6367667177349
 20
8.660817741074297
 30
0.0
 11
203.6367667177349
 21
8.8302858278481
 31
0.0
 12
203.6424614548615
 22
8.661432673741398
 32
0.0
 13
203.6424614548615
 23
8.661432673741398
 33
0.0
  0
SOLID
  5
1A32E
  8
寸法線
  6
CONTINUOUS
 62
     0
 10
203.6424614548615
 20
8.661432673741398
 30
0.0
 11
203.6367667177349
 21
8.8302858278481
 31
0.0
 12
203.6424614548615
 22
8.832013307469465
 32
0.0
 13
203.6424614548615
 23
8.832013307469465
 33
0.0
  0
SOLID
  5
1A32F
  8
寸法線
  6
CONTINUOUS
 62
     0
 10
203.6367667177349
 20
10.90924466180047
 30
0.0
 11
203.6367667177349
 21
11.38455980121409
 31
0.0
 12
203.6424614548615
 22
10.91228856221095
 32
0.0
 13
203.6424614548615
 23
10.91228856221095
 33
0.0
  0
SOLID
  5
1A330
  8
寸法線
  6
CONTINUOUS
 62
     0
 10
203.6424614548615
 20
10.91228856221095
 30
0.0
 11
203.6367667177349
 21
11.38455980121409
 31
0.0
 12
203.6424614548615
 22
11.39149885848013
 32
0.0
 13
203.6424614548615
 23
11.39149885848013
 33
0.0
  0
SOLID
  5
1A331
  8
寸法線
  6
CONTINUOUS
 62
     0
 10
203.6367667177349
 20
15.02198035960146
 30
0.0
 11
203.6367667177349
 21
15.19144844637528
 31
0.0
 12
203.6424614548615
 22
15.02025287998009
 32
0.0
 13
203.6424614548615
 23
15.02025287998009
 33
0.0
  0
SOLID
  5
1A332
  8
寸法線
  6
CONTINUOUS
 62
     0
 10
203.6424614548615
 20
15.02025287998009
 30
0.0
 11
203.6367667177349
 21
15.19144844637528
 31
0.0
 12
203.6424614548615
 22
15.19083351370818
 32
0.0
 13
203.6424614548615
 23
15.19083351370818
 33
0.0
  0
SOLID
  5
1A333
  8
寸法線
  6
CONTINUOUS
 62
     0
 10
203.6424614548615
 20
8.661432673741398
 30
0.0
 11
203.6424614548615
 21
8.832013307469465
 31
0.0
 12
203.7257352360888
 22
8.67173316601052
 32
0.0
 13
203.7257352360888
 23
8.67173316601052
 33
0.0
  0
SOLID
  5
1A334
  8
寸法線
  6
CONTINUOUS
 62
     0
 10
203.7257352360888
 20
8.67173316601052
 30
0.0
 11
203.6424614548615
 21
8.832013307469465
 31
0.0
 12
203.7257352360888
 22
8.857274132836206
 32
0.0
 13
203.7257352360888
 23
8.857274132836206
 33
0.0
  0
SOLID
  5
1A335
  8
寸法線
  6
CONTINUOUS
 62
     0
 10
203.6424614548615
 20
10.91228856221095
 30
0.0
 11
203.6424614548615
 21
11.39149885848013
 31
0.0
 12
203.7257352360888
 22
10.95679932560966
 32
0.0
 13
203.7257352360888
 23
10.95679932560966
 33
0.0
  0
SOLID
  5
1A336
  8
寸法線
  6
CONTINUOUS
 62
     0
 10
203.7257352360888
 20
10.95679932560966
 30
0.0
 11
203.6424614548615
 21
11.39149885848013
 31
0.0
 12
203.7257352360888
 22
11.4929682544946
 32
0.0
 13
203.7257352360888
 23
11.4929682544946
 33
0.0
  0
SOLID
  5
1A337
  8
寸法線
  6
CONTINUOUS
 62
     0
 10
203.6424614548615
 20
15.02025287998009
 30
0.0
 11
203.6424614548615
 21
15.19083351370818
 31
0.0
 12
203.7257352360888
 22
14.99499205461335
 32
0.0
 13
203.7257352360888
 23
14.99499205461335
 33
0.0
  0
SOLID
  5
1A338
  8
寸法線
  6
CONTINUOUS
 62
     0
 10
203.7257352360888
 20
14.99499205461335
 30
0.0
 11
203.6424614548615
 21
15.19083351370818
 31
0.0
 12
203.7257352360888
 22
15.18053302143906
 32
0.0
 13
203.7257352360888
 23
15.18053302143906
 33
0.0
  0
SOLID
  5
1A339
  8
寸法線
  6
CONTINUOUS
 62
     0
 10
203.7257352360888
 20
8.67173316601052
 30
0.0
 11
203.7257352360888
 21
8.857274132836206
 31
0.0
 12
203.7396746959173
 22
8.6734573977685
 32
0.0
 13
203.7396746959173
 23
8.6734573977685
 33
0.0
  0
SOLID
  5
1A33A
  8
寸法線
  6
CONTINUOUS
 62
     0
 10
203.7396746959173
 20
8.6734573977685
 30
0.0
 11
203.7257352360888
 21
8.857274132836206
 31
0.0
 12
203.7396746959173
 22
8.861502621746457
 32
0.0
 13
203.7396746959173
 23
8.861502621746457
 33
0.0
  0
SOLID
  5
1A33B
  8
寸法線
  6
CONTINUOUS
 62
     0
 10
203.7257352360888
 20
10.95679932560966
 30
0.0
 11
203.7257352360888
 21
11.4929682544946
 31
0.0
 12
203.7396746959173
 22
10.96823914464652
 32
0.0
 13
203.7396746959173
 23
10.96823914464652
 33
0.0
  0
SOLID
  5
1A33C
  8
寸法線
  6
CONTINUOUS
 62
     0
 10
203.7396746959173
 20
10.96823914464652
 30
0.0
 11
203.7257352360888
 21
11.4929682544946
 31
0.0
 12
203.7396746959173
 22
11.50995353544041
 32
0.0
 13
203.7396746959173
 23
11.50995353544041
 33
0.0
  0
SOLID
  5
1A33D
  8
寸法線
  6
CONTINUOUS
 62
     0
 10
203.7257352360888
 20
14.99499205461335
 30
0.0
 11
203.7257352360888
 21
15.18053302143906
 31
0.0
 12
203.7396746959173
 22
14.9907635657031
 32
0.0
 13
203.7396746959173
 23
14.9907635657031
 33
0.0
  0
SOLID
  5
1A33E
  8
寸法線
  6
CONTINUOUS
 62
     0
 10
203.7396746959173
 20
14.9907635657031
 30
0.0
 11
203.7257352360888
 21
15.18053302143906
 31
0.0
 12
203.7396746959173
 22
15.17880878968109
 32
0.0
 13
203.7396746959173
 23
15.17880878968109
 33
0.0
  0
SOLID
  5
1A33F
  8
寸法線
  6
CONTINUOUS
 62
     0
 10
203.7396746959173
 20
8.6734573977685
 30
0.0
 11
203.7396746959173
 21
8.861502621746457
 31
0.0
 12
203.7411043202198
 22
8.673656862347341
 32
0.0
 13
203.7411043202198
 23
8.673656862347341
 33
0.0
  0
SOLID
  5
1A340
  8
寸法線
  6
CONTINUOUS
 62
     0
 10
203.7411043202198
 20
8.673656862347341
 30
0.0
 11
203.7396746959173
 21
8.861502621746457
 31
0.0
 12
203.7411043202198
 22
8.861936293537413
 32
0.0
 13
203.7411043202198
 23
8.861936293537413
 33
0.0
  0
SOLID
  5
1A341
  8
寸法線
  6
CONTINUOUS
 62
     0
 10
203.7396746959173
 20
10.96823914464652
 30
0.0
 11
203.7396746959173
 21
11.50995353544041
 31
0.0
 12
203.7411043202198
 22
10.9694124069904
 32
0.0
 13
203.7411043202198
 23
10.9694124069904
 33
0.0
  0
SOLID
  5
1A342
  8
寸法線
  6
CONTINUOUS
 62
     0
 10
203.7411043202198
 20
10.9694124069904
 30
0.0
 11
203.7396746959173
 21
11.50995353544041
 31
0.0
 12
203.7411043202198
 22
11.51169553769322
 32
0.0
 13
203.7411043202198
 23
11.51169553769322
 33
0.0
  0
SOLID
  5
1A343
  8
寸法線
  6
CONTINUOUS
 62
     0
 10
203.7396746959173
 20
14.9907635657031
 30
0.0
 11
203.7396746959173
 21
15.17880878968108
 31
0.0
 12
203.7411043202198
 22
14.99032989391214
 32
0.0
 13
203.7411043202198
 23
14.99032989391214
 33
0.0
  0
SOLID
  5
1A344
  8
寸法線
  6
CONTINUOUS
 62
     0
 10
203.7411043202198
 20
14.99032989391214
 30
0.0
 11
203.7396746959173
 21
15.17880878968108
 31
0.0
 12
203.7411043202198
 22
15.17860932510224
 32
0.0
 13
203.7411043202198
 23
15.17860932510224
 33
0.0
  0
SOLID
  5
1A345
  8
寸法線
  6
CONTINUOUS
 62
     0
 10
203.7411043202198
 20
8.673656862347341
 30
0.0
 11
203.7411043202198
 21
8.861936293537413
 31
0.0
 12
203.8186341531599
 22
8.684474008816098
 32
0.0
 13
203.8186341531599
 23
8.684474008816098
 33
0.0
  0
SOLID
  5
1A346
  8
寸法線
  6
CONTINUOUS
 62
     0
 10
203.8186341531599
 20
8.684474008816098
 30
0.0
 11
203.7411043202198
 21
8.861936293537413
 31
0.0
 12
203.8186341531599
 22
8.885454711240444
 32
0.0
 13
203.8186341531599
 23
8.885454711240444
 33
0.0
  0
SOLID
  5
1A347
  8
寸法線
  6
CONTINUOUS
 62
     0
 10
203.7411043202198
 20
10.9694124069904
 30
0.0
 11
203.7411043202198
 21
11.51169553769322
 31
0.0
 12
203.8186341531599
 22
11.03303949654089
 32
0.0
 13
203.8186341531599
 23
11.03303949654089
 33
0.0
  0
SOLID
  5
1A348
  8
寸法線
  6
CONTINUOUS
 62
     0
 10
203.8186341531599
 20
11.03303949654089
 30
0.0
 11
203.7411043202198
 21
11.51169553769322
 31
0.0
 12
203.8186341531599
 22
11.65674365311233
 32
0.0
 13
203.8186341531599
 23
11.65674365311233
 33
0.0
  0
SOLID
  5
1A349
  8
寸法線
  6
CONTINUOUS
 62
     0
 10
203.7411043202198
 20
14.99032989391214
 30
0.0
 11
203.7411043202198
 21
15.17860932510224
 31
0.0
 12
203.8186341531599
 22
14.96681147620911
 32
0.0
 13
203.8186341531599
 23
14.96681147620911
 33
0.0
  0
SOLID
  5
1A34A
  8
寸法線
  6
CONTINUOUS
 62
     0
 10
203.8186341531599
 20
14.96681147620911
 30
0.0
 11
203.7411043202198
 21
15.17860932510224
 31
0.0
 12
203.8186341531599
 22
15.16779217863348
 32
0.0
 13
203.8186341531599
 23
15.16779217863348
 33
0.0
  0
SOLID
  5
1A34B
  8
寸法線
  6
CONTINUOUS
 62
     0
 10
203.8186341531599
 20
8.684474008816098
 30
0.0
 11
203.8186341531599
 21
8.885454711240444
 31
0.0
 12
203.8365070566074
 22
8.686967678763281
 32
0.0
 13
203.8365070566074
 23
8.686967678763281
 33
0.0
  0
SOLID
  5
1A34C
  8
寸法線
  6
CONTINUOUS
 62
     0
 10
203.8365070566074
 20
8.686967678763281
 30
0.0
 11
203.8186341531599
 21
8.885454711240444
 31
0.0
 12
203.8365070566074
 22
8.890876397227663
 32
0.0
 13
203.8365070566074
 23
8.890876397227663
 33
0.0
  0
SOLID
  5
1A34D
  8
寸法線
  6
CONTINUOUS
 62
     0
 10
203.8186341531599
 20
11.03303949654089
 30
0.0
 11
203.8186341531599
 21
11.65674365311233
 31
0.0
 12
203.8365070566074
 22
11.04770740933074
 32
0.0
 13
203.8365070566074
 23
11.04770740933074
 33
0.0
  0
SOLID
  5
1A34E
  8
寸法線
  6
CONTINUOUS
 62
     0
 10
203.8365070566074
 20
11.04770740933074
 30
0.0
 11
203.8186341531599
 21
11.65674365311233
 31
0.0
 12
203.8365070566074
 22
11.71566271968956
 32
0.0
 13
203.8365070566074
 23
11.71566271968956
 33
0.0
  0
SOLID
  5
1A34F
  8
寸法線
  6
CONTINUOUS
 62
     0
 10
203.8186341531599
 20
14.96681147620911
 30
0.0
 11
203.8186341531599
 21
15.16779217863348
 31
0.0
 12
203.8365070566074
 22
14.96138979022189
 32
0.0
 13
203.8365070566074
 23
14.96138979022189
 33
0.0
  0
SOLID
  5
1A350
  8
寸法線
  6
CONTINUOUS
 62
     0
 10
203.8365070566074
 20
14.96138979022189
 30
0.0
 11
203.8186341531599
 21
15.16779217863348
 31
0.0
 12
203.8365070566074
 22
15.16529850868629
 32
0.0
 13
203.8365070566074
 23
15.16529850868629
 33
0.0
  0
SOLID
  5
1A351
  8
寸法線
  6
CONTINUOUS
 62
     0
 10
203.8365070566074
 20
8.686967678763281
 30
0.0
 11
203.8365070566074
 21
8.890876397227663
 31
0.0
 12
203.8663767885549
 22
8.691611907574805
 32
0.0
 13
203.8663767885549
 23
8.691611907574805
 33
0.0
  0
SOLID
  5
1A352
  8
寸法線
  6
CONTINUOUS
 62
     0
 10
203.8663767885549
 20
8.691611907574805
 30
0.0
 11
203.8365070566074
 21
8.890876397227663
 31
0.0
 12
203.8663767885549
 22
8.899937281354173
 32
0.0
 13
203.8663767885549
 23
8.899937281354173
 33
0.0
  0
SOLID
  5
1A353
  8
寸法線
  6
CONTINUOUS
 62
     0
 10
203.8365070566074
 20
11.04770740933074
 30
0.0
 11
203.8365070566074
 21
11.71566271968956
 31
0.0
 12
203.8663767885549
 22
11.07222086482778
 32
0.0
 13
203.8663767885549
 23
11.07222086482778
 33
0.0
  0
SOLID
  5
1A354
  8
寸法線
  6
CONTINUOUS
 62
     0
 10
203.8663767885549
 20
11.07222086482778
 30
0.0
 11
203.8365070566074
 21
11.71566271968956
 31
0.0
 12
203.8663767885549
 22
11.81413002973977
 32
0.0
 13
203.8663767885549
 23
11.81413002973977
 33
0.0
  0
SOLID
  5
1A355
  8
寸法線
  6
CONTINUOUS
 62
     0
 10
203.8365070566074
 20
14.96138979022189
 30
0.0
 11
203.8365070566074
 21
15.1652985086863
 31
0.0
 12
203.8663767885549
 22
14.95232890609538
 32
0.0
 13
203.8663767885549
 23
14.95232890609538
 33
0.0
  0
SOLID
  5
1A356
  8
寸法線
  6
CONTINUOUS
 62
     0
 10
203.8663767885549
 20
14.95232890609538
 30
0.0
 11
203.8365070566074
 21
15.1652985086863
 31
0.0
 12
203.8663767885549
 22
15.16065427987477
 32
0.0
 13
203.8663767885549
 23
15.16065427987477
 33
0.0
  0
SOLID
  5
1A357
  8
寸法線
  6
CONTINUOUS
 62
     0
 10
203.8663767885549
 20
8.691611907574805
 30
0.0
 11
203.8663767885549
 21
8.899937281354173
 31
0.0
 12
203.8824975037006
 22
8.694118401100546
 32
0.0
 13
203.8824975037006
 23
8.694118401100546
 33
0.0
  0
SOLID
  5
1A358
  8
寸法線
  6
CONTINUOUS
 62
     0
 10
203.8824975037006
 20
8.694118401100546
 30
0.0
 11
203.8663767885549
 21
8.899937281354173
 31
0.0
 12
203.8824975037006
 22
8.904827446830996
 32
0.0
 13
203.8824975037006
 23
8.904827446830996
 33
0.0
  0
SOLID
  5
1A359
  8
寸法線
  6
CONTINUOUS
 62
     0
 10
203.8663767885549
 20
11.07222086482778
 30
0.0
 11
203.8663767885549
 21
11.81413002973977
 31
0.0
 12
203.8824975037006
 22
11.08545079384084
 32
0.0
 13
203.8824975037006
 23
11.08545079384084
 33
0.0
  0
SOLID
  5
1A35A
  8
寸法線
  6
CONTINUOUS
 62
     0
 10
203.8824975037006
 20
11.08545079384084
 30
0.0
 11
203.8663767885549
 21
11.81413002973977
 31
0.0
 12
203.8824975037006
 22
11.97780639738391
 32
0.0
 13
203.8824975037006
 23
11.97780639738391
 33
0.0
  0
SOLID
  5
1A35B
  8
寸法線
  6
CONTINUOUS
 62
     0
 10
203.8663767885549
 20
14.95232890609538
 30
0.0
 11
203.8663767885549
 21
15.16065427987477
 31
0.0
 12
203.8824975037006
 22
14.94743874061856
 32
0.0
 13
203.8824975037006
 23
14.94743874061856
 33
0.0
  0
SOLID
  5
1A35C
  8
寸法線
  6
CONTINUOUS
 62
     0
 10
203.8824975037006
 20
14.94743874061856
 30
0.0
 11
203.8663767885549
 21
15.16065427987477
 31
0.0
 12
203.8824975037006
 22
15.15814778634903
 32
0.0
 13
203.8824975037006
 23
15.15814778634903
 33
0.0
  0
SOLID
  5
1A35D
  8
寸法線
  6
CONTINUOUS
 62
     0
 10
203.8824975037006
 20
8.694118401100546
 30
0.0
 11
203.8824975037006
 21
8.904827446830996
 31
0.0
 12
203.9118152623719
 22
8.698676807575376
 32
0.0
 13
203.9118152623719
 23
8.698676807575376
 33
0.0
  0
SOLID
  5
1A35E
  8
寸法線
  6
CONTINUOUS
 62
     0
 10
203.9118152623719
 20
8.698676807575376
 30
0.0
 11
203.8824975037006
 21
8.904827446830996
 31
0.0
 12
203.9118152623719
 22
8.913720891694757
 32
0.0
 13
203.9118152623719
 23
8.913720891694757
 33
0.0
  0
SOLID
  5
1A35F
  8
寸法線
  6
CONTINUOUS
 62
     0
 10
203.8824975037006
 20
11.08545079384084
 30
0.0
 11
203.8824975037006
 21
13.10241455433782
 31
0.0
 12
203.9118152623719
 22
11.10951125657707
 32
0.0
 13
203.9118152623719
 23
11.10951125657707
 33
0.0
  0
SOLID
  5
1A360
  8
寸法線
  6
CONTINUOUS
 62
     0
 10
203.9118152623719
 20
11.10951125657707
 30
0.0
 11
203.8824975037006
 21
13.10241455433782
 31
0.0
 12
203.9118152623719
 22
13.10241455433782
 32
0.0
 13
203.9118152623719
 23
13.10241455433782
 33
0.0
  0
SOLID
  5
1A361
  8
寸法線
  6
CONTINUOUS
 62
     0
 10
203.8824975037006
 20
14.94743874061856
 30
0.0
 11
203.8824975037006
 21
15.15814778634903
 31
0.0
 12
203.9118152623719
 22
14.9385452957548
 32
0.0
 13
203.9118152623719
 23
14.9385452957548
 33
0.0
  0
SOLID
  5
1A362
  8
寸法線
  6
CONTINUOUS
 62
     0
 10
203.9118152623719
 20
14.9385452957548
 30
0.0
 11
203.8824975037006
 21
15.15814778634903
 31
0.0
 12
203.9118152623719
 22
15.1535893798742
 32
0.0
 13
203.9118152623719
 23
15.1535893798742
 33
0.0
  0
SOLID
  5
1A363
  8
寸法線
  6
CONTINUOUS
 62
     0
 10
203.9118152623719
 20
8.698676807575376
 30
0.0
 11
203.9118152623719
 21
8.913720891694757
 31
0.0
 12
203.9329143118071
 22
8.701957346331291
 32
0.0
 13
203.9329143118071
 23
8.701957346331291
 33
0.0
  0
SOLID
  5
1A364
  8
寸法線
  6
CONTINUOUS
 62
     0
 10
203.9329143118071
 20
8.701957346331291
 30
0.0
 11
203.9118152623719
 21
8.913720891694757
 31
0.0
 12
203.9329143118071
 22
8.920121218368177
 32
0.0
 13
203.9329143118071
 23
8.920121218368177
 33
0.0
  0
SOLID
  5
1A365
  8
寸法線
  6
CONTINUOUS
 62
     0
 10
203.9118152623719
 20
11.10951125657707
 30
0.0
 11
203.9118152623719
 21
13.10241455433782
 31
0.0
 12
203.9329143118071
 22
11.13522052270036
 32
0.0
 13
203.9329143118071
 23
11.13522052270036
 33
0.0
  0
SOLID
  5
1A366
  8
寸法線
  6
CONTINUOUS
 62
     0
 10
203.9329143118071
 20
11.13522052270036
 30
0.0
 11
203.9118152623719
 21
13.10241455433782
 31
0.0
 12
203.9329143118071
 22
13.10241455433782
 32
0.0
 13
203.9329143118071
 23
13.10241455433782
 33
0.0
  0
SOLID
  5
1A367
  8
寸法線
  6
CONTINUOUS
 62
     0
 10
203.9118152623719
 20
14.9385452957548
 30
0.0
 11
203.9118152623719
 21
15.1535893798742
 31
0.0
 12
203.9329143118071
 22
14.93214496908138
 32
0.0
 13
203.9329143118071
 23
14.93214496908138
 33
0.0
  0
SOLID
  5
1A368
  8
寸法線
  6
CONTINUOUS
 62
     0
 10
203.9329143118071
 20
14.93214496908138
 30
0.0
 11
203.9118152623719
 21
15.1535893798742
 31
0.0
 12
203.9329143118071
 22
15.15030884111829
 32
0.0
 13
203.9329143118071
 23
15.15030884111829
 33
0.0
  0
SOLID
  5
1A369
  8
寸法線
  6
CONTINUOUS
 62
     0
 10
203.9329143118071
 20
8.701957346331291
 30
0.0
 11
203.9329143118071
 21
8.920121218368177
 31
0.0
 12
204.0288524305453
 22
8.71841955441495
 32
0.0
 13
204.0288524305453
 23
8.71841955441495
 33
0.0
  0
SOLID
  5
1A36A
  8
寸法線
  6
CONTINUOUS
 62
     0
 10
204.0288524305453
 20
8.71841955441495
 30
0.0
 11
203.9329143118071
 21
8.920121218368177
 31
0.0
 12
204.0288524305453
 22
8.949223728518932
 32
0.0
 13
204.0288524305453
 23
8.949223728518932
 33
0.0
  0
SOLID
  5
1A36B
  8
寸法線
  6
CONTINUOUS
 62
     0
 10
203.9329143118071
 20
11.13522052270036
 30
0.0
 11
203.9329143118071
 21
13.10241455433782
 31
0.0
 12
204.0288524305453
 22
11.25212145862112
 32
0.0
 13
204.0288524305453
 23
11.25212145862112
 33
0.0
  0
SOLID
  5
1A36C
  8
寸法線
  6
CONTINUOUS
 62
     0
 10
204.0288524305453
 20
11.25212145862112
 30
0.0
 11
203.9329143118071
 21
13.10241455433782
 31
0.0
 12
204.0288524305453
 22
13.10241455433782
 32
0.0
 13
204.0288524305453
 23
13.10241455433782
 33
0.0
  0
SOLID
  5
1A36D
  8
寸法線
  6
CONTINUOUS
 62
     0
 10
203.9329143118071
 20
14.93214496908138
 30
0.0
 11
203.9329143118071
 21
15.15030884111829
 31
0.0
 12
204.0288524305453
 22
14.90304245893062
 32
0.0
 13
204.0288524305453
 23
14.90304245893062
 33
0.0
  0
SOLID
  5
1A36E
  8
寸法線
  6
CONTINUOUS
 62
     0
 10
204.0288524305453
 20
14.90304245893062
 30
0.0
 11
203.9329143118071
 21
15.15030884111829
 31
0.0
 12
204.0288524305453
 22
15.13384663303463
 32
0.0
 13
204.0288524305453
 23
15.13384663303463
 33
0.0
  0
SOLID
  5
1A36F
  8
寸法線
  6
CONTINUOUS
 62
     0
 10
204.0288524305453
 20
8.71841955441495
 30
0.0
 11
204.0288524305453
 21
8.949223728518932
 31
0.0
 12
204.0645271933393
 22
8.725121661497315
 32
0.0
 13
204.0645271933393
 23
8.725121661497315
 33
0.0
  0
SOLID
  5
1A370
  8
寸法線
  6
CONTINUOUS
 62
     0
 10
204.0645271933393
 20
8.725121661497315
 30
0.0
 11
204.0288524305453
 21
8.949223728518932
 31
0.0
 12
204.0645271933393
 22
8.960045549500988
 32
0.0
 13
204.0645271933393
 23
8.960045549500988
 33
0.0
  0
SOLID
  5
1A371
  8
寸法線
  6
CONTINUOUS
 62
     0
 10
204.0288524305453
 20
11.25212145862112
 30
0.0
 11
204.0288524305453
 21
13.10241455433782
 31
0.0
 12
204.0645271933393
 22
11.2955912828602
 32
0.0
 13
204.0645271933393
 23
11.2955912828602
 33
0.0
  0
SOLID
  5
1A372
  8
寸法線
  6
CONTINUOUS
 62
     0
 10
204.0645271933393
 20
11.2955912828602
 30
0.0
 11
204.0288524305453
 21
13.10241455433782
 31
0.0
 12
204.0645271933393
 22
13.10241455433782
 32
0.0
 13
204.0645271933393
 23
13.10241455433782
 33
0.0
  0
SOLID
  5
1A373
  8
寸法線
  6
CONTINUOUS
 62
     0
 10
204.0288524305453
 20
14.90304245893062
 30
0.0
 11
204.0288524305453
 21
15.13384663303463
 31
0.0
 12
204.0645271933393
 22
14.89222063794857
 32
0.0
 13
204.0645271933393
 23
14.89222063794857
 33
0.0
  0
SOLID
  5
1A374
  8
寸法線
  6
CONTINUOUS
 62
     0
 10
204.0645271933393
 20
14.89222063794857
 30
0.0
 11
204.0288524305453
 21
15.13384663303463
 31
0.0
 12
204.0645271933393
 22
15.12714452595227
 32
0.0
 13
204.0645271933393
 23
15.12714452595227
 33
0.0
  0
SOLID
  5
1A375
  8
寸法線
  6
CONTINUOUS
 62
     0
 10
204.0645271933393
 20
8.725121661497315
 30
0.0
 11
204.0645271933393
 21
8.960045549500988
 31
0.0
 12
204.1242775961141
 22
8.736346784420276
 32
0.0
 13
204.1242775961141
 23
8.736346784420276
 33
0.0
  0
SOLID
  5
1A376
  8
寸法線
  6
CONTINUOUS
 62
     0
 10
204.1242775961141
 20
8.736346784420276
 30
0.0
 11
204.0645271933393
 21
8.960045549500988
 31
0.0
 12
204.1242775961141
 22
8.978170636026908
 32
0.0
 13
204.1242775961141
 23
8.978170636026908
 33
0.0
  0
SOLID
  5
1A377
  8
寸法線
  6
CONTINUOUS
 62
     0
 10
204.0645271933393
 20
11.2955912828602
 30
0.0
 11
204.0645271933393
 21
13.10241455433782
 31
0.0
 12
204.1242775961141
 22
11.40737642400316
 32
0.0
 13
204.1242775961141
 23
11.40737642400316
 33
0.0
  0
SOLID
  5
1A378
  8
寸法線
  6
CONTINUOUS
 62
     0
 10
204.1242775961141
 20
11.40737642400316
 30
0.0
 11
204.0645271933393
 21
13.10241455433782
 31
0.0
 12
204.1242775961141
 22
13.10241455433782
 32
0.0
 13
204.1242775961141
 23
13.10241455433782
 33
0.0
  0
SOLID
  5
1A379
  8
寸法線
  6
CONTINUOUS
 62
     0
 10
204.0645271933393
 20
14.89222063794857
 30
0.0
 11
204.0645271933393
 21
15.12714452595227
 31
0.0
 12
204.1242775961141
 22
14.87409555142265
 32
0.0
 13
204.1242775961141
 23
14.87409555142265
 33
0.0
  0
SOLID
  5
1A37A
  8
寸法線
  6
CONTINUOUS
 62
     0
 10
204.1242775961141
 20
14.87409555142265
 30
0.0
 11
204.0645271933393
 21
15.12714452595227
 31
0.0
 12
204.1242775961141
 22
15.11591940302931
 32
0.0
 13
204.1242775961141
 23
15.11591940302931
 33
0.0
  0
SOLID
  5
1A37B
  8
寸法線
  6
CONTINUOUS
 62
     0
 10
204.1242775961141
 20
8.736346784420276
 30
0.0
 11
204.1242775961141
 21
8.978170636026908
 31
0.0
 12
204.1265279222982
 22
8.736806583062968
 32
0.0
 13
204.1265279222982
 23
8.736806583062968
 33
0.0
  0
SOLID
  5
1A37C
  8
寸法線
  6
CONTINUOUS
 62
     0
 10
204.1265279222982
 20
8.736806583062968
 30
0.0
 11
204.1242775961141
 21
8.978170636026908
 31
0.0
 12
204.1265279222982
 22
8.978853265011901
 32
0.0
 13
204.1265279222982
 23
8.978853265011901
 33
0.0
  0
SOLID
  5
1A37D
  8
寸法線
  6
CONTINUOUS
 62
     0
 10
204.1242775961141
 20
11.40737642400316
 30
0.0
 11
204.1242775961141
 21
13.10241455433782
 31
0.0
 12
204.1265279222982
 22
11.41158648817729
 32
0.0
 13
204.1265279222982
 23
11.41158648817729
 33
0.0
  0
SOLID
  5
1A37E
  8
寸法線
  6
CONTINUOUS
 62
     0
 10
204.1265279222982
 20
11.41158648817729
 30
0.0
 11
204.1242775961141
 21
13.10241455433782
 31
0.0
 12
204.1265279222982
 22
13.10241455433782
 32
0.0
 13
204.1265279222982
 23
13.10241455433782
 33
0.0
  0
SOLID
  5
1A37F
  8
寸法線
  6
CONTINUOUS
 62
     0
 10
204.1242775961141
 20
14.87409555142265
 30
0.0
 11
204.1242775961141
 21
15.1159194030293
 31
0.0
 12
204.1265279222982
 22
14.87341292243766
 32
0.0
 13
204.1265279222982
 23
14.87341292243766
 33
0.0
  0
SOLID
  5
1A380
  8
寸法線
  6
CONTINUOUS
 62
     0
 10
204.1265279222982
 20
14.87341292243766
 30
0.0
 11
204.1242775961141
 21
15.1159194030293
 31
0.0
 12
204.1265279222982
 22
15.11545960438661
 32
0.0
 13
204.1265279222982
 23
15.11545960438661
 33
0.0
  0
SOLID
  5
1A381
  8
寸法線
  6
CONTINUOUS
 62
     0
 10
204.1265279222982
 20
8.736806583062968
 30
0.0
 11
204.1265279222982
 21
8.978853265011901
 31
0.0
 12
204.1780023951258
 22
8.747324121767482
 32
0.0
 13
204.1780023951258
 23
8.747324121767482
 33
0.0
  0
SOLID
  5
1A382
  8
寸法線
  6
CONTINUOUS
 62
     0
 10
204.1780023951258
 20
8.747324121767482
 30
0.0
 11
204.1265279222982
 21
8.978853265011901
 31
0.0
 12
204.1780023951258
 22
9.006366943955424
 32
0.0
 13
204.1780023951258
 23
9.006366943955424
 33
0.0
  0
SOLID
  5
1A383
  8
寸法線
  6
CONTINUOUS
 62
     0
 10
204.1265279222982
 20
11.41158648817729
 30
0.0
 11
204.1265279222982
 21
13.10241455433782
 31
0.0
 12
204.1780023951258
 22
11.50788845340387
 32
0.0
 13
204.1780023951258
 23
11.50788845340387
 33
0.0
  0
SOLID
  5
1A384
  8
寸法線
  6
CONTINUOUS
 62
     0
 10
204.1780023951258
 20
11.50788845340387
 30
0.0
 11
204.1265279222982
 21
13.10241455433782
 31
0.0
 12
204.1780023951258
 22
13.10241455433781
 32
0.0
 13
204.1780023951258
 23
13.10241455433781
 33
0.0
  0
SOLID
  5
1A385
  8
寸法線
  6
CONTINUOUS
 62
     0
 10
204.1265279222982
 20
14.87341292243766
 30
0.0
 11
204.1265279222982
 21
15.11545960438661
 31
0.0
 12
204.1780023951258
 22
14.84589924349413
 32
0.0
 13
204.1780023951258
 23
14.84589924349413
 33
0.0
  0
SOLID
  5
1A386
  8
寸法線
  6
CONTINUOUS
 62
     0
 10
204.1780023951258
 20
14.84589924349413
 30
0.0
 11
204.1265279222982
 21
15.11545960438661
 31
0.0
 12
204.1780023951258
 22
15.1049420656821
 32
0.0
 13
204.1780023951258
 23
15.1049420656821
 33
0.0
  0
SOLID
  5
1A387
  8
寸法線
  6
CONTINUOUS
 62
     0
 10
204.1780023951258
 20
8.747324121767482
 30
0.0
 11
204.1780023951258
 21
9.006366943955424
 31
0.0
 12
204.2191462260808
 22
8.755730848650753
 32
0.0
 13
204.2191462260808
 23
8.755730848650753
 33
0.0
  0
SOLID
  5
1A388
  8
寸法線
  6
CONTINUOUS
 62
     0
 10
204.2191462260808
 20
8.755730848650753
 30
0.0
 11
204.1780023951258
 21
9.006366943955424
 31
0.0
 12
204.2191462260808
 22
9.02835877977657
 32
0.0
 13
204.2191462260808
 23
9.02835877977657
 33
0.0
  0
SOLID
  5
1A389
  8
寸法線
  6
CONTINUOUS
 62
     0
 10
204.1780023951258
 20
11.50788845340387
 30
0.0
 11
204.1780023951258
 21
13.10241455433781
 31
0.0
 12
204.2191462260808
 22
11.64352148708589
 32
0.0
 13
204.2191462260808
 23
11.64352148708589
 33
0.0
  0
SOLID
  5
1A38A
  8
寸法線
  6
CONTINUOUS
 62
     0
 10
204.2191462260808
 20
11.64352148708589
 30
0.0
 11
204.1780023951258
 21
13.10241455433781
 31
0.0
 12
204.2191462260808
 22
13.10241455433781
 32
0.0
 13
204.2191462260808
 23
13.10241455433781
 33
0.0
  0
SOLID
  5
1A38B
  8
寸法線
  6
CONTINUOUS
 62
     0
 10
204.1780023951258
 20
14.84589924349413
 30
0.0
 11
204.1780023951258
 21
15.1049420656821
 31
0.0
 12
204.2191462260808
 22
14.82390740767299
 32
0.0
 13
204.2191462260808
 23
14.82390740767299
 33
0.0
  0
SOLID
  5
1A38C
  8
寸法線
  6
CONTINUOUS
 62
     0
 10
204.2191462260808
 20
14.82390740767299
 30
0.0
 11
204.1780023951258
 21
15.1049420656821
 31
0.0
 12
204.2191462260808
 22
15.09653533879882
 32
0.0
 13
204.2191462260808
 23
15.09653533879882
 33
0.0
  0
SOLID
  5
1A38D
  8
寸法線
  6
CONTINUOUS
 62
     0
 10
204.2191462260808
 20
8.755730848650753
 30
0.0
 11
204.2191462260808
 21
9.02835877977657
 31
0.0
 12
204.2478800793642
 22
8.762080618152268
 32
0.0
 13
204.2478800793642
 23
8.762080618152268
 33
0.0
  0
SOLID
  5
1A38E
  8
寸法線
  6
CONTINUOUS
 62
     0
 10
204.2478800793642
 20
8.762080618152268
 30
0.0
 11
204.2191462260808
 21
9.02835877977657
 31
0.0
 12
204.2478800793642
 22
9.043717344335322
 32
0.0
 13
204.2478800793642
 23
9.043717344335322
 33
0.0
  0
SOLID
  5
1A38F
  8
寸法線
  6
CONTINUOUS
 62
     0
 10
204.2191462260808
 20
11.64352148708589
 30
0.0
 11
204.2191462260808
 21
13.10241455433781
 31
0.0
 12
204.2478800793642
 22
11.73824430700173
 32
0.0
 13
204.2478800793642
 23
11.73824430700173
 33
0.0
  0
SOLID
  5
1A390
  8
寸法線
  6
CONTINUOUS
 62
     0
 10
204.2478800793642
 20
11.73824430700173
 30
0.0
 11
204.2191462260808
 21
13.10241455433781
 31
0.0
 12
204.2478800793642
 22
13.10241455433781
 32
0.0
 13
204.2478800793642
 23
13.10241455433781
 33
0.0
  0
SOLID
  5
1A391
  8
寸法線
  6
CONTINUOUS
 62
     0
 10
204.2191462260808
 20
14.82390740767299
 30
0.0
 11
204.2191462260808
 21
15.09653533879882
 31
0.0
 12
204.2478800793642
 22
14.80854884311423
 32
0.0
 13
204.2478800793642
 23
14.80854884311423
 33
0.0
  0
SOLID
  5
1A392
  8
寸法線
  6
CONTINUOUS
 62
     0
 10
204.2478800793642
 20
14.80854884311423
 30
0.0
 11
204.2191462260808
 21
15.09653533879882
 31
0.0
 12
204.2478800793642
 22
15.09018556929731
 32
0.0
 13
204.2478800793642
 23
15.09018556929731
 33
0.0
  0
SOLID
  5
1A393
  8
寸法線
  6
CONTINUOUS
 62
     0
 10
204.2478800793642
 20
8.762080618152268
 30
0.0
 11
204.2478800793642
 21
9.043717344335322
 31
0.0
 12
204.2714748858372
 22
8.767294732008107
 32
0.0
 13
204.2714748858372
 23
8.767294732008107
 33
0.0
  0
SOLID
  5
1A394
  8
寸法線
  6
CONTINUOUS
 62
     0
 10
204.2714748858372
 20
8.767294732008107
 30
0.0
 11
204.2478800793642
 21
9.043717344335322
 31
0.0
 12
204.2714748858372
 22
9.05632903114576
 32
0.0
 13
204.2714748858372
 23
9.05632903114576
 33
0.0
  0
SOLID
  5
1A395
  8
寸法線
  6
CONTINUOUS
 62
     0
 10
204.2478800793642
 20
11.73824430700173
 30
0.0
 11
204.2478800793642
 21
13.10241455433781
 31
0.0
 12
204.2714748858372
 22
11.97780639738504
 32
0.0
 13
204.2714748858372
 23
11.97780639738504
 33
0.0
  0
SOLID
  5
1A396
  8
寸法線
  6
CONTINUOUS
 62
     0
 10
204.2714748858372
 20
11.97780639738504
 30
0.0
 11
204.2478800793642
 21
13.10241455433781
 31
0.0
 12
204.2714748858372
 22
13.10241455433781
 32
0.0
 13
204.2714748858372
 23
13.10241455433781
 33
0.0
  0
SOLID
  5
1A397
  8
寸法線
  6
CONTINUOUS
 62
     0
 10
204.2478800793642
 20
14.80854884311423
 30
0.0
 11
204.2478800793642
 21
15.09018556929731
 31
0.0
 12
204.2714748858372
 22
14.7959371563038
 32
0.0
 13
204.2714748858372
 23
14.7959371563038
 33
0.0
  0
SOLID
  5
1A398
  8
寸法線
  6
CONTINUOUS
 62
     0
 10
204.2714748858372
 20
14.7959371563038
 30
0.0
 11
204.2478800793642
 21
15.09018556929731
 31
0.0
 12
204.2714748858372
 22
15.08497145544147
 32
0.0
 13
204.2714748858372
 23
15.08497145544147
 33
0.0
  0
SOLID
  5
1A399
  8
寸法線
  6
CONTINUOUS
 62
     0
 10
204.2714748858372
 20
8.767294732008107
 30
0.0
 11
204.2714748858372
 21
9.05632903114576
 31
0.0
 12
204.3134149921928
 22
8.776562894046823
 32
0.0
 13
204.3134149921928
 23
8.776562894046823
 33
0.0
  0
SOLID
  5
1A39A
  8
寸法線
  6
CONTINUOUS
 62
     0
 10
204.3134149921928
 20
8.776562894046823
 30
0.0
 11
204.2714748858372
 21
9.05632903114576
 31
0.0
 12
204.3134149921928
 22
9.078746485035795
 32
0.0
 13
204.3134149921928
 23
9.078746485035795
 33
0.0
  0
SOLID
  5
1A39B
  8
寸法線
  6
CONTINUOUS
 62
     0
 10
204.2714748858372
 20
14.7959371563038
 30
0.0
 11
204.2714748858372
 21
15.08497145544147
 31
0.0
 12
204.3134149921928
 22
14.77351970241376
 32
0.0
 13
204.3134149921928
 23
14.77351970241376
 33
0.0
  0
SOLID
  5
1A39C
  8
寸法線
  6
CONTINUOUS
 62
     0
 10
204.3134149921928
 20
14.77351970241376
 30
0.0
 11
204.2714748858372
 21
15.08497145544147
 31
0.0
 12
204.3134149921928
 22
15.07570329340275
 32
0.0
 13
204.3134149921928
 23
15.07570329340275
 33
0.0
  0
SOLID
  5
1A39D
  8
寸法線
  6
CONTINUOUS
 62
     0
 10
204.3134149921928
 20
8.776562894046823
 30
0.0
 11
204.3134149921928
 21
9.078746485035795
 31
0.0
 12
204.4070408401664
 22
8.798833406229218
 32
0.0
 13
204.4070408401664
 23
8.798833406229218
 33
0.0
  0
SOLID
  5
1A39E
  8
寸法線
  6
CONTINUOUS
 62
     0
 10
204.4070408401664
 20
8.798833406229218
 30
0.0
 11
204.3134149921928
 21
9.078746485035795
 31
0.0
 12
204.4070408401664
 22
9.128790543390513
 32
0.0
 13
204.4070408401664
 23
9.128790543390513
 33
0.0
  0
SOLID
  5
1A39F
  8
寸法線
  6
CONTINUOUS
 62
     0
 10
204.3134149921928
 20
14.77351970241376
 30
0.0
 11
204.3134149921928
 21
15.07570329340276
 31
0.0
 12
204.4070408401664
 22
14.72347564405904
 32
0.0
 13
204.4070408401664
 23
14.72347564405904
 33
0.0
  0
SOLID
  5
1A3A0
  8
寸法線
  6
CONTINUOUS
 62
     0
 10
204.4070408401664
 20
14.72347564405904
 30
0.0
 11
204.3134149921928
 21
15.07570329340276
 31
0.0
 12
204.4070408401664
 22
15.05343278122036
 32
0.0
 13
204.4070408401664
 23
15.05343278122036
 33
0.0
  0
SOLID
  5
1A3A1
  8
寸法線
  6
CONTINUOUS
 62
     0
 10
204.4070408401664
 20
8.798833406229218
 30
0.0
 11
204.4070408401664
 21
9.128790543390513
 31
0.0
 12
204.4999810093504
 22
8.822532213844374
 32
0.0
 13
204.4999810093504
 23
8.822532213844374
 33
0.0
  0
SOLID
  5
1A3A2
  8
寸法線
  6
CONTINUOUS
 62
     0
 10
204.4999810093504
 20
8.822532213844374
 30
0.0
 11
204.4070408401664
 21
9.128790543390513
 31
0.0
 12
204.4999810093504
 22
9.178468098796486
 32
0.0
 13
204.4999810093504
 23
9.178468098796486
 33
0.0
  0
SOLID
  5
1A3A3
  8
寸法線
  6
CONTINUOUS
 62
     0
 10
204.4070408401664
 20
14.72347564405904
 30
0.0
 11
204.4070408401664
 21
15.05343278122036
 31
0.0
 12
204.4999810093504
 22
14.67379808865307
 32
0.0
 13
204.4999810093504
 23
14.67379808865307
 33
0.0
  0
SOLID
  5
1A3A4
  8
寸法線
  6
CONTINUOUS
 62
     0
 10
204.4999810093504
 20
14.67379808865307
 30
0.0
 11
204.4070408401664
 21
15.05343278122036
 31
0.0
 12
204.4999810093504
 22
15.02973397360521
 32
0.0
 13
204.4999810093504
 23
15.02973397360521
 33
0.0
  0
SOLID
  5
1A3A5
  8
寸法線
  6
CONTINUOUS
 62
     0
 10
204.4999810093504
 20
8.822532213844374
 30
0.0
 11
204.4999810093504
 21
9.178468098796486
 31
0.0
 12
204.5921930522557
 22
8.84764849320986
 32
0.0
 13
204.5921930522557
 23
8.84764849320986
 33
0.0
  0
SOLID
  5
1A3A6
  8
寸法線
  6
CONTINUOUS
 62
     0
 10
204.5921930522557
 20
8.84764849320986
 30
0.0
 11
204.4999810093504
 21
9.178468098796486
 31
0.0
 12
204.5921930522557
 22
9.227756462598167
 32
0.0
 13
204.5921930522557
 23
9.227756462598167
 33
0.0
  0
SOLID
  5
1A3A7
  8
寸法線
  6
CONTINUOUS
 62
     0
 10
204.4999810093504
 20
14.67379808865307
 30
0.0
 11
204.4999810093504
 21
15.0297339736052
 31
0.0
 12
204.5921930522557
 22
14.62450972485139
 32
0.0
 13
204.5921930522557
 23
14.62450972485139
 33
0.0
  0
SOLID
  5
1A3A8
  8
寸法線
  6
CONTINUOUS
 62
     0
 10
204.5921930522557
 20
14.62450972485139
 30
0.0
 11
204.4999810093504
 21
15.0297339736052
 31
0.0
 12
204.5921930522557
 22
15.00461769423971
 32
0.0
 13
204.5921930522557
 23
15.00461769423971
 33
0.0
  0
SOLID
  5
1A3A9
  8
寸法線
  6
CONTINUOUS
 62
     0
 10
204.5921930522557
 20
8.84764849320986
 30
0.0
 11
204.5921930522557
 21
9.227756462598167
 31
0.0
 12
204.6780563004999
 22
8.872552739121014
 32
0.0
 13
204.6780563004999
 23
8.872552739121014
 33
0.0
  0
SOLID
  5
1A3AA
  8
寸法線
  6
CONTINUOUS
 62
     0
 10
204.6780563004999
 20
8.872552739121014
 30
0.0
 11
204.5921930522557
 21
9.227756462598167
 31
0.0
 12
204.6780563004999
 22
9.27365132495362
 32
0.0
 13
204.6780563004999
 23
9.27365132495362
 33
0.0
  0
SOLID
  5
1A3AB
  8
寸法線
  6
CONTINUOUS
 62
     0
 10
204.5921930522557
 20
14.62450972485139
 30
0.0
 11
204.5921930522557
 21
15.00461769423972
 31
0.0
 12
204.6780563004999
 22
14.57861486249594
 32
0.0
 13
204.6780563004999
 23
14.57861486249594
 33
0.0
  0
SOLID
  5
1A3AC
  8
寸法線
  6
CONTINUOUS
 62
     0
 10
204.6780563004999
 20
14.57861486249594
 30
0.0
 11
204.5921930522557
 21
15.00461769423972
 31
0.0
 12
204.6780563004999
 22
14.97971344832856
 32
0.0
 13
204.6780563004999
 23
14.97971344832856
 33
0.0
  0
SOLID
  5
1A3AD
  8
寸法線
  6
CONTINUOUS
 62
     0
 10
204.6780563004999
 20
8.872552739121014
 30
0.0
 11
204.6780563004999
 21
9.27365132495362
 31
0.0
 12
204.6836348539421
 22
8.87417077325776
 32
0.0
 13
204.6836348539421
 23
8.87417077325776
 33
0.0
  0
SOLID
  5
1A3AE
  8
寸法線
  6
CONTINUOUS
 62
     0
 10
204.6836348539421
 20
8.87417077325776
 30
0.0
 11
204.6780563004999
 21
9.27365132495362
 31
0.0
 12
204.6836348539421
 22
9.278229525447072
 32
0.0
 13
204.6836348539421
 23
9.278229525447072
 33
0.0
  0
SOLID
  5
1A3AF
  8
寸法線
  6
CONTINUOUS
 62
     0
 10
204.6780563004999
 20
14.57861486249594
 30
0.0
 11
204.6780563004999
 21
14.97971344832856
 31
0.0
 12
204.6836348539421
 22
14.57403666200248
 32
0.0
 13
204.6836348539421
 23
14.57403666200248
 33
0.0
  0
SOLID
  5
1A3B0
  8
寸法線
  6
CONTINUOUS
 62
     0
 10
204.6836348539421
 20
14.57403666200248
 30
0.0
 11
204.6780563004999
 21
14.97971344832856
 31
0.0
 12
204.6836348539421
 22
14.97809541419182
 32
0.0
 13
204.6836348539421
 23
14.97809541419182
 33
0.0
  0
SOLID
  5
1A3B1
  8
寸法線
  6
CONTINUOUS
 62
     0
 10
204.6836348539421
 20
8.87417077325776
 30
0.0
 11
204.6836348539421
 21
9.278229525447072
 31
0.0
 12
204.7742646512525
 22
8.902086940773724
 32
0.0
 13
204.7742646512525
 23
8.902086940773724
 33
0.0
  0
SOLID
  5
1A3B2
  8
寸法線
  6
CONTINUOUS
 62
     0
 10
204.7742646512525
 20
8.902086940773724
 30
0.0
 11
204.6836348539421
 21
9.278229525447072
 31
0.0
 12
204.7742646512525
 22
9.35260747791683
 32
0.0
 13
204.7742646512525
 23
9.35260747791683
 33
0.0
  0
SOLID
  5
1A3B3
  8
寸法線
  6
CONTINUOUS
 62
     0
 10
204.6836348539421
 20
14.57403666200248
 30
0.0
 11
204.6836348539421
 21
14.97809541419182
 31
0.0
 12
204.7742646512525
 22
14.49965870953273
 32
0.0
 13
204.7742646512525
 23
14.49965870953273
 33
0.0
  0
SOLID
  5
1A3B4
  8
寸法線
  6
CONTINUOUS
 62
     0
 10
204.7742646512525
 20
14.49965870953273
 30
0.0
 11
204.6836348539421
 21
14.97809541419182
 31
0.0
 12
204.7742646512525
 22
14.95017924667585
 32
0.0
 13
204.7742646512525
 23
14.95017924667585
 33
0.0
  0
SOLID
  5
1A3B5
  8
寸法線
  6
CONTINUOUS
 62
     0
 10
204.7742646512525
 20
8.902086940773724
 30
0.0
 11
204.7742646512525
 21
9.35260747791683
 31
0.0
 12
204.8126169695851
 22
8.914602697316296
 32
0.0
 13
204.8126169695851
 23
8.914602697316296
 33
0.0
  0
SOLID
  5
1A3B6
  8
寸法線
  6
CONTINUOUS
 62
     0
 10
204.8126169695851
 20
8.914602697316296
 30
0.0
 11
204.7742646512525
 21
9.35260747791683
 31
0.0
 12
204.8126169695851
 22
9.384082412151537
 32
0.0
 13
204.8126169695851
 23
9.384082412151537
 33
0.0
  0
SOLID
  5
1A3B7
  8
寸法線
  6
CONTINUOUS
 62
     0
 10
204.7742646512525
 20
14.49965870953273
 30
0.0
 11
204.7742646512525
 21
14.95017924667585
 31
0.0
 12
204.8126169695851
 22
14.46818377529802
 32
0.0
 13
204.8126169695851
 23
14.46818377529802
 33
0.0
  0
SOLID
  5
1A3B8
  8
寸法線
  6
CONTINUOUS
 62
     0
 10
204.8126169695851
 20
14.46818377529802
 30
0.0
 11
204.7742646512525
 21
14.95017924667585
 31
0.0
 12
204.8126169695851
 22
14.93766349013328
 32
0.0
 13
204.8126169695851
 23
14.93766349013328
 33
0.0
  0
SOLID
  5
1A3B9
  8
寸法線
  6
CONTINUOUS
 62
     0
 10
204.8126169695851
 20
8.914602697316296
 30
0.0
 11
204.8126169695851
 21
9.384082412151537
 31
0.0
 12
204.8640410518874
 22
8.931384245929287
 32
0.0
 13
204.8640410518874
 23
8.931384245929287
 33
0.0
  0
SOLID
  5
1A3BA
  8
寸法線
  6
CONTINUOUS
 62
     0
 10
204.8640410518874
 20
8.931384245929287
 30
0.0
 11
204.8126169695851
 21
9.384082412151537
 31
0.0
 12
204.8640410518874
 22
9.42628506583482
 32
0.0
 13
204.8640410518874
 23
9.42628506583482
 33
0.0
  0
SOLID
  5
1A3BB
  8
寸法線
  6
CONTINUOUS
 62
     0
 10
204.8126169695851
 20
10.74985163311174
 30
0.0
 11
204.8126169695851
 21
13.10241455433781
 31
0.0
 12
204.8640410518874
 22
10.74985163311174
 32
0.0
 13
204.8640410518874
 23
10.74985163311174
 33
0.0
  0
SOLID
  5
1A3BC
  8
寸法線
  6
CONTINUOUS
 62
     0
 10
204.8640410518874
 20
10.74985163311174
 30
0.0
 11
204.8126169695851
 21
13.10241455433781
 31
0.0
 12
204.8640410518874
 22
13.10241455433781
 32
0.0
 13
204.8640410518874
 23
13.10241455433781
 33
0.0
  0
SOLID
  5
1A3BD
  8
寸法線
  6
CONTINUOUS
 62
     0
 10
204.8126169695851
 20
14.46818377529802
 30
0.0
 11
204.8126169695851
 21
14.93766349013328
 31
0.0
 12
204.8640410518874
 22
14.42598112161474
 32
0.0
 13
204.8640410518874
 23
14.42598112161474
 33
0.0
  0
SOLID
  5
1A3BE
  8
寸法線
  6
CONTINUOUS
 62
     0
 10
204.8640410518874
 20
14.42598112161474
 30
0.0
 11
204.8126169695851
 21
14.93766349013328
 31
0.0
 12
204.8640410518874
 22
14.92088194152029
 32
0.0
 13
204.8640410518874
 23
14.92088194152029
 33
0.0
  0
SOLID
  5
1A3BF
  8
寸法線
  6
CONTINUOUS
 62
     0
 10
204.8640410518874
 20
8.931384245929287
 30
0.0
 11
204.8640410518874
 21
9.42628506583482
 31
0.0
 12
204.9529230533092
 22
8.962049308104966
 32
0.0
 13
204.9529230533092
 23
8.962049308104966
 33
0.0
  0
SOLID
  5
1A3C0
  8
寸法線
  6
CONTINUOUS
 62
     0
 10
204.9529230533092
 20
8.962049308104966
 30
0.0
 11
204.8640410518874
 21
9.42628506583482
 31
0.0
 12
204.9529230533092
 22
9.499228639288102
 32
0.0
 13
204.9529230533092
 23
9.499228639288102
 33
0.0
  0
SOLID
  5
1A3C1
  8
寸法線
  6
CONTINUOUS
 62
     0
 10
204.8640410518874
 20
10.74985163311174
 30
0.0
 11
204.8640410518874
 21
13.10241455433781
 31
0.0
 12
204.9529230533092
 22
10.74985163311174
 32
0.0
 13
204.9529230533092
 23
10.74985163311174
 33
0.0
  0
SOLID
  5
1A3C2
  8
寸法線
  6
CONTINUOUS
 62
     0
 10
204.9529230533092
 20
10.74985163311174
 30
0.0
 11
204.8640410518874
 21
13.10241455433781
 31
0.0
 12
204.9529230533092
 22
13.10241455433782
 32
0.0
 13
204.9529230533092
 23
13.10241455433782
 33
0.0
  0
SOLID
  5
1A3C3
  8
寸法線
  6
CONTINUOUS
 62
     0
 10
204.8640410518874
 20
14.42598112161474
 30
0.0
 11
204.8640410518874
 21
14.92088194152029
 31
0.0
 12
204.9529230533092
 22
14.35303754816146
 32
0.0
 13
204.9529230533092
 23
14.35303754816146
 33
0.0
  0
SOLID
  5
1A3C4
  8
寸法線
  6
CONTINUOUS
 62
     0
 10
204.9529230533092
 20
14.35303754816146
 30
0.0
 11
204.8640410518874
 21
14.92088194152029
 31
0.0
 12
204.9529230533092
 22
14.8902168793446
 32
0.0
 13
204.9529230533092
 23
14.8902168793446
 33
0.0
  0
SOLID
  5
1A3C5
  8
寸法線
  6
CONTINUOUS
 62
     0
 10
204.9529230533092
 20
8.962049308104966
 30
0.0
 11
204.9529230533092
 21
9.499228639288102
 31
0.0
 12
205.0408700614689
 22
8.994068122001416
 32
0.0
 13
205.0408700614689
 23
8.994068122001416
 33
0.0
  0
SOLID
  5
1A3C6
  8
寸法線
  6
CONTINUOUS
 62
     0
 10
205.0408700614689
 20
8.994068122001416
 30
0.0
 11
204.9529230533092
 21
9.499228639288102
 31
0.0
 12
205.0408700614689
 22
9.571404883601593
 32
0.0
 13
205.0408700614689
 23
9.571404883601593
 33
0.0
  0
SOLID
  5
1A3C7
  8
寸法線
  6
CONTINUOUS
 62
     0
 10
204.9529230533092
 20
10.74985163311174
 30
0.0
 11
204.9529230533092
 21
13.10241455433782
 31
0.0
 12
205.0408700614689
 22
10.74985163311174
 32
0.0
 13
205.0408700614689
 23
10.74985163311174
 33
0.0
  0
SOLID
  5
1A3C8
  8
寸法線
  6
CONTINUOUS
 62
     0
 10
205.0408700614689
 20
10.74985163311174
 30
0.0
 11
204.9529230533092
 21
13.10241455433782
 31
0.0
 12
205.0408700614689
 22
13.10241455433782
 32
0.0
 13
205.0408700614689
 23
13.10241455433782
 33
0.0
  0
SOLID
  5
1A3C9
  8
寸法線
  6
CONTINUOUS
 62
     0
 10
204.9529230533092
 20
14.35303754816146
 30
0.0
 11
204.9529230533092
 21
14.89021687934461
 31
0.0
 12
205.0408700614689
 22
14.28086130384797
 32
0.0
 13
205.0408700614689
 23
14.28086130384797
 33
0.0
  0
SOLID
  5
1A3CA
  8
寸法線
  6
CONTINUOUS
 62
     0
 10
205.0408700614689
 20
14.28086130384797
 30
0.0
 11
204.9529230533092
 21
14.89021687934461
 31
0.0
 12
205.0408700614689
 22
14.85819806544817
 32
0.0
 13
205.0408700614689
 23
14.85819806544817
 33
0.0
  0
SOLID
  5
1A3CB
  8
寸法線
  6
CONTINUOUS
 62
     0
 10
205.0408700614689
 20
8.994068122001416
 30
0.0
 11
205.0408700614689
 21
9.571404883601593
 31
0.0
 12
205.1278419093462
 22
9.027426064035922
 32
0.0
 13
205.1278419093462
 23
9.027426064035922
 33
0.0
  0
SOLID
  5
1A3CC
  8
寸法線
  6
CONTINUOUS
 62
     0
 10
205.1278419093462
 20
9.027426064035922
 30
0.0
 11
205.0408700614689
 21
9.571404883601593
 31
0.0
 12
205.1278419093462
 22
9.642780834553664
 32
0.0
 13
205.1278419093462
 23
9.642780834553664
 33
0.0
  0
SOLID
  5
1A3CD
  8
寸法線
  6
CONTINUOUS
 62
     0
 10
205.0408700614689
 20
10.74985163311174
 30
0.0
 11
205.0408700614689
 21
13.10241455433782
 31
0.0
 12
205.1278419093462
 22
10.74985163311174
 32
0.0
 13
205.1278419093462
 23
10.74985163311174
 33
0.0
  0
SOLID
  5
1A3CE
  8
寸法線
  6
CONTINUOUS
 62
     0
 10
205.1278419093462
 20
10.74985163311174
 30
0.0
 11
205.0408700614689
 21
13.10241455433782
 31
0.0
 12
205.1278419093462
 22
13.10241455433782
 32
0.0
 13
205.1278419093462
 23
13.10241455433782
 33
0.0
  0
SOLID
  5
1A3CF
  8
寸法線
  6
CONTINUOUS
 62
     0
 10
205.0408700614689
 20
14.28086130384797
 30
0.0
 11
205.0408700614689
 21
14.85819806544816
 31
0.0
 12
205.1278419093462
 22
14.20948535289589
 32
0.0
 13
205.1278419093462
 23
14.20948535289589
 33
0.0
  0
SOLID
  5
1A3D0
  8
寸法線
  6
CONTINUOUS
 62
     0
 10
205.1278419093462
 20
14.20948535289589
 30
0.0
 11
205.0408700614689
 21
14.85819806544816
 31
0.0
 12
205.1278419093462
 22
14.82484012341365
 32
0.0
 13
205.1278419093462
 23
14.82484012341365
 33
0.0
  0
SOLID
  5
1A3D1
  8
寸法線
  6
CONTINUOUS
 62
     0
 10
205.1278419093462
 20
9.027426064035922
 30
0.0
 11
205.1278419093462
 21
9.642780834553664
 31
0.0
 12
205.1614749671211
 22
9.040996298244817
 32
0.0
 13
205.1614749671211
 23
9.040996298244817
 33
0.0
  0
SOLID
  5
1A3D2
  8
寸法線
  6
CONTINUOUS
 62
     0
 10
205.1614749671211
 20
9.040996298244817
 30
0.0
 11
205.1278419093462
 21
9.642780834553664
 31
0.0
 12
205.1614749671211
 22
9.670382771740304
 32
0.0
 13
205.1614749671211
 23
9.670382771740304
 33
0.0
  0
SOLID
  5
1A3D3
  8
寸法線
  6
CONTINUOUS
 62
     0
 10
205.1278419093462
 20
10.74985163311174
 30
0.0
 11
205.1278419093462
 21
13.10241455433782
 31
0.0
 12
205.1614749671211
 22
10.74985163311174
 32
0.0
 13
205.1614749671211
 23
10.74985163311174
 33
0.0
  0
SOLID
  5
1A3D4
  8
寸法線
  6
CONTINUOUS
 62
     0
 10
205.1614749671211
 20
10.74985163311174
 30
0.0
 11
205.1278419093462
 21
13.10241455433782
 31
0.0
 12
205.1614749671211
 22
13.10241455433782
 32
0.0
 13
205.1614749671211
 23
13.10241455433782
 33
0.0
  0
SOLID
  5
1A3D5
  8
寸法線
  6
CONTINUOUS
 62
     0
 10
205.1278419093462
 20
14.20948535289589
 30
0.0
 11
205.1278419093462
 21
14.82484012341365
 31
0.0
 12
205.1614749671211
 22
14.18188341570925
 32
0.0
 13
205.1614749671211
 23
14.18188341570925
 33
0.0
  0
SOLID
  5
1A3D6
  8
寸法線
  6
CONTINUOUS
 62
     0
 10
205.1614749671211
 20
14.18188341570925
 30
0.0
 11
205.1278419093462
 21
14.82484012341365
 31
0.0
 12
205.1614749671211
 22
14.81126988920476
 32
0.0
 13
205.1614749671211
 23
14.81126988920476
 33
0.0
  0
SOLID
  5
1A3D7
  8
寸法線
  6
CONTINUOUS
 62
     0
 10
205.1614749671211
 20
9.040996298244817
 30
0.0
 11
205.1614749671211
 21
9.670382771740304
 31
0.0
 12
205.2015943517218
 22
9.057183629441107
 32
0.0
 13
205.2015943517218
 23
9.057183629441107
 33
0.0
  0
SOLID
  5
1A3D8
  8
寸法線
  6
CONTINUOUS
 62
     0
 10
205.2015943517218
 20
9.057183629441107
 30
0.0
 11
205.1614749671211
 21
9.670382771740304
 31
0.0
 12
205.2015943517218
 22
9.719268383320605
 32
0.0
 13
205.2015943517218
 23
9.719268383320605
 33
0.0
  0
SOLID
  5
1A3D9
  8
寸法線
  6
CONTINUOUS
 62
     0
 10
205.1614749671211
 20
10.74985163311174
 30
0.0
 11
205.1614749671211
 21
13.10241455433782
 31
0.0
 12
205.2015943517218
 22
10.74985163311174
 32
0.0
 13
205.2015943517218
 23
10.74985163311174
 33
0.0
  0
SOLID
  5
1A3DA
  8
寸法線
  6
CONTINUOUS
 62
     0
 10
205.2015943517218
 20
10.74985163311174
 30
0.0
 11
205.1614749671211
 21
13.10241455433782
 31
0.0
 12
205.2015943517218
 22
13.10241455433782
 32
0.0
 13
205.2015943517218
 23
13.10241455433782
 33
0.0
  0
SOLID
  5
1A3DB
  8
寸法線
  6
CONTINUOUS
 62
     0
 10
205.1614749671211
 20
14.18188341570925
 30
0.0
 11
205.1614749671211
 21
14.81126988920476
 31
0.0
 12
205.2015943517218
 22
14.13299780412895
 32
0.0
 13
205.2015943517218
 23
14.13299780412895
 33
0.0
  0
SOLID
  5
1A3DC
  8
寸法線
  6
CONTINUOUS
 62
     0
 10
205.2015943517218
 20
14.13299780412895
 30
0.0
 11
205.1614749671211
 21
14.81126988920476
 31
0.0
 12
205.2015943517218
 22
14.79508255800847
 32
0.0
 13
205.2015943517218
 23
14.79508255800847
 33
0.0
  0
SOLID
  5
1A3DD
  8
寸法線
  6
CONTINUOUS
 62
     0
 10
205.2015943517218
 20
9.057183629441107
 30
0.0
 11
205.2015943517218
 21
9.719268383320605
 31
0.0
 12
205.2137988752944
 22
9.06210789902126
 32
0.0
 13
205.2137988752944
 23
9.06210789902126
 33
0.0
  0
SOLID
  5
1A3DE
  8
寸法線
  6
CONTINUOUS
 62
     0
 10
205.2137988752944
 20
9.06210789902126
 30
0.0
 11
205.2015943517218
 21
9.719268383320605
 31
0.0
 12
205.2137988752944
 22
9.734139638321999
 32
0.0
 13
205.2137988752944
 23
9.734139638321999
 33
0.0
  0
SOLID
  5
1A3DF
  8
寸法線
  6
CONTINUOUS
 62
     0
 10
205.2015943517218
 20
14.13299780412895
 30
0.0
 11
205.2015943517218
 21
14.79508255800847
 31
0.0
 12
205.2137988752944
 22
14.11812654912756
 32
0.0
 13
205.2137988752944
 23
14.11812654912756
 33
0.0
  0
SOLID
  5
1A3E0
  8
寸法線
  6
CONTINUOUS
 62
     0
 10
205.2137988752944
 20
14.11812654912756
 30
0.0
 11
205.2015943517218
 21
14.79508255800847
 31
0.0
 12
205.2137988752944
 22
14.79015828842831
 32
0.0
 13
205.2137988752944
 23
14.79015828842831
 33
0.0
  0
SOLID
  5
1A3E1
  8
寸法線
  6
CONTINUOUS
 62
     0
 10
205.2137988752944
 20
9.06210789902126
 30
0.0
 11
205.2137988752944
 21
9.734139638321999
 31
0.0
 12
205.2987017011823
 22
9.098097787123882
 32
0.0
 13
205.2987017011823
 23
9.098097787123882
 33
0.0
  0
SOLID
  5
1A3E2
  8
寸法線
  6
CONTINUOUS
 62
     0
 10
205.2987017011823
 20
9.098097787123882
 30
0.0
 11
205.2137988752944
 21
9.734139638321999
 31
0.0
 12
205.2987017011823
 22
9.83759403099874
 32
0.0
 13
205.2987017011823
 23
9.83759403099874
 33
0.0
  0
SOLID
  5
1A3E3
  8
寸法線
  6
CONTINUOUS
 62
     0
 10
205.2137988752944
 20
14.11812654912756
 30
0.0
 11
205.2137988752944
 21
14.79015828842831
 31
0.0
 12
205.2987017011823
 22
14.01467215645082
 32
0.0
 13
205.2987017011823
 23
14.01467215645082
 33
0.0
  0
SOLID
  5
1A3E4
  8
寸法線
  6
CONTINUOUS
 62
     0
 10
205.2987017011823
 20
14.01467215645082
 30
0.0
 11
205.2137988752944
 21
14.79015828842831
 31
0.0
 12
205.2987017011823
 22
14.75416840032569
 32
0.0
 13
205.2987017011823
 23
14.75416840032569
 33
0.0
  0
SOLID
  5
1A3E5
  8
寸法線
  6
CONTINUOUS
 62
     0
 10
205.2987017011823
 20
9.098097787123882
 30
0.0
 11
205.2987017011823
 21
9.83759403099874
 31
0.0
 12
205.3825116103237
 22
9.135379291098255
 32
0.0
 13
205.3825116103237
 23
9.135379291098255
 33
0.0
  0
SOLID
  5
1A3E6
  8
寸法線
  6
CONTINUOUS
 62
     0
 10
205.3825116103237
 20
9.135379291098255
 30
0.0
 11
205.2987017011823
 21
9.83759403099874
 31
0.0
 12
205.3825116103237
 22
9.939716700766697
 32
0.0
 13
205.3825116103237
 23
9.939716700766697
 33
0.0
  0
SOLID
  5
1A3E7
  8
寸法線
  6
CONTINUOUS
 62
     0
 10
205.2987017011823
 20
14.01467215645082
 30
0.0
 11
205.2987017011823
 21
14.75416840032569
 31
0.0
 12
205.3825116103237
 22
13.91254948668286
 32
0.0
 13
205.3825116103237
 23
13.91254948668286
 33
0.0
  0
SOLID
  5
1A3E8
  8
寸法線
  6
CONTINUOUS
 62
     0
 10
205.3825116103237
 20
13.91254948668286
 30
0.0
 11
205.2987017011823
 21
14.75416840032569
 31
0.0
 12
205.3825116103237
 22
14.71688689635132
 32
0.0
 13
205.3825116103237
 23
14.71688689635132
 33
0.0
  0
SOLID
  5
1A3E9
  8
寸法線
  6
CONTINUOUS
 62
     0
 10
205.3825116103237
 20
9.135379291098255
 30
0.0
 11
205.3825116103237
 21
9.939716700766697
 31
0.0
 12
205.4651903251876
 22
9.17393538379407
 32
0.0
 13
205.4651903251876
 23
9.17393538379407
 33
0.0
  0
SOLID
  5
1A3EA
  8
寸法線
  6
CONTINUOUS
 62
     0
 10
205.4651903251876
 20
9.17393538379407
 30
0.0
 11
205.3825116103237
 21
9.939716700766697
 31
0.0
 12
205.4651903251876
 22
10.04046100631948
 32
0.0
 13
205.4651903251876
 23
10.04046100631948
 33
0.0
  0
SOLID
  5
1A3EB
  8
寸法線
  6
CONTINUOUS
 62
     0
 10
205.3825116103237
 20
13.91254948668286
 30
0.0
 11
205.3825116103237
 21
14.71688689635132
 31
0.0
 12
205.4651903251876
 22
13.81180518113008
 32
0.0
 13
205.4651903251876
 23
13.81180518113008
 33
0.0
  0
SOLID
  5
1A3EC
  8
寸法線
  6
CONTINUOUS
 62
     0
 10
205.4651903251876
 20
13.81180518113008
 30
0.0
 11
205.3825116103237
 21
14.71688689635132
 31
0.0
 12
205.4651903251876
 22
14.6783308036555
 32
0.0
 13
205.4651903251876
 23
14.6783308036555
 33
0.0
  0
SOLID
  5
1A3ED
  8
寸法線
  6
CONTINUOUS
 62
     0
 10
205.4651903251876
 20
9.17393538379407
 30
0.0
 11
205.4651903251876
 21
10.04046100631948
 31
0.0
 12
205.5467000848805
 22
9.213748455932842
 32
0.0
 13
205.5467000848805
 23
9.213748455932842
 33
0.0
  0
SOLID
  5
1A3EE
  8
寸法線
  6
CONTINUOUS
 62
     0
 10
205.5467000848805
 20
9.213748455932842
 30
0.0
 11
205.4651903251876
 21
10.04046100631948
 31
0.0
 12
205.5467000848805
 22
10.13978093587509
 32
0.0
 13
205.5467000848805
 23
10.13978093587509
 33
0.0
  0
SOLID
  5
1A3EF
  8
寸法線
  6
CONTINUOUS
 62
     0
 10
205.4651903251876
 20
13.81180518113008
 30
0.0
 11
205.4651903251876
 21
14.6783308036555
 31
0.0
 12
205.5467000848805
 22
13.71248525157447
 32
0.0
 13
205.5467000848805
 23
13.71248525157447
 33
0.0
  0
SOLID
  5
1A3F0
  8
寸法線
  6
CONTINUOUS
 62
     0
 10
205.5467000848805
 20
13.71248525157447
 30
0.0
 11
205.4651903251876
 21
14.6783308036555
 31
0.0
 12
205.5467000848805
 22
14.63851773151671
 32
0.0
 13
205.5467000848805
 23
14.63851773151671
 33
0.0
  0
SOLID
  5
1A3F1
  8
寸法線
  6
CONTINUOUS
 62
     0
 10
205.5467000848805
 20
9.213748455932842
 30
0.0
 11
205.5467000848805
 21
10.13978093587509
 31
0.0
 12
205.5582064139078
 22
9.219630588678804
 32
0.0
 13
205.5582064139078
 23
9.219630588678804
 33
0.0
  0
SOLID
  5
1A3F2
  8
寸法線
  6
CONTINUOUS
 62
     0
 10
205.5582064139078
 20
9.219630588678804
 30
0.0
 11
205.5467000848805
 21
10.13978093587509
 31
0.0
 12
205.5582064139078
 22
10.15380143836149
 32
0.0
 13
205.5582064139078
 23
10.15380143836149
 33
0.0
  0
SOLID
  5
1A3F3
  8
寸法線
  6
CONTINUOUS
 62
     0
 10
205.5467000848805
 20
13.71248525157447
 30
0.0
 11
205.5467000848805
 21
14.63851773151673
 31
0.0
 12
205.5582064139078
 22
13.69846474908806
 32
0.0
 13
205.5582064139078
 23
13.69846474908806
 33
0.0
  0
SOLID
  5
1A3F4
  8
寸法線
  6
CONTINUOUS
 62
     0
 10
205.5582064139078
 20
13.69846474908806
 30
0.0
 11
205.5467000848805
 21
14.63851773151673
 31
0.0
 12
205.5582064139078
 22
14.63263559877077
 32
0.0
 13
205.5582064139078
 23
14.63263559877077
 33
0.0
  0
SOLID
  5
1A3F5
  8
寸法線
  6
CONTINUOUS
 62
     0
 10
205.5582064139078
 20
9.219630588678804
 30
0.0
 11
205.5582064139078
 21
10.15380143836149
 31
0.0
 12
205.6270036623921
 22
9.254800324150395
 32
0.0
 13
205.6270036623921
 23
9.254800324150395
 33
0.0
  0
SOLID
  5
1A3F6
  8
寸法線
  6
CONTINUOUS
 62
     0
 10
205.6270036623921
 20
9.254800324150395
 30
0.0
 11
205.5582064139078
 21
10.15380143836149
 31
0.0
 12
205.6270036623921
 22
10.28251203736867
 32
0.0
 13
205.6270036623921
 23
10.28251203736867
 33
0.0
  0
SOLID
  5
1A3F7
  8
寸法線
  6
CONTINUOUS
 62
     0
 10
205.5582064139078
 20
13.69846474908806
 30
0.0
 11
205.5582064139078
 21
14.63263559877077
 31
0.0
 12
205.6270036623921
 22
13.56975415008089
 32
0.0
 13
205.6270036623921
 23
13.56975415008089
 33
0.0
  0
SOLID
  5
1A3F8
  8
寸法線
  6
CONTINUOUS
 62
     0
 10
205.6270036623921
 20
13.56975415008089
 30
0.0
 11
205.5582064139078
 21
14.63263559877077
 31
0.0
 12
205.6270036623921
 22
14.59746586329919
 32
0.0
 13
205.6270036623921
 23
14.59746586329919
 33
0.0
  0
SOLID
  5
1A3F9
  8
寸法線
  6
CONTINUOUS
 62
     0
 10
205.6270036623921
 20
9.254800324150395
 30
0.0
 11
205.6270036623921
 21
10.28251203736867
 31
0.0
 12
205.7060643815978
 22
9.297072239301544
 32
0.0
 13
205.7060643815978
 23
9.297072239301544
 33
0.0
  0
SOLID
  5
1A3FA
  8
寸法線
  6
CONTINUOUS
 62
     0
 10
205.7060643815978
 20
9.297072239301544
 30
0.0
 11
205.6270036623921
 21
10.28251203736867
 31
0.0
 12
205.7060643815978
 22
10.43042423954397
 32
0.0
 13
205.7060643815978
 23
10.43042423954397
 33
0.0
  0
SOLID
  5
1A3FB
  8
寸法線
  6
CONTINUOUS
 62
     0
 10
205.6270036623921
 20
13.56975415008089
 30
0.0
 11
205.6270036623921
 21
14.59746586329917
 31
0.0
 12
205.7060643815978
 22
13.42184194790559
 32
0.0
 13
205.7060643815978
 23
13.42184194790559
 33
0.0
  0
SOLID
  5
1A3FC
  8
寸法線
  6
CONTINUOUS
 62
     0
 10
205.7060643815978
 20
13.42184194790559
 30
0.0
 11
205.6270036623921
 21
14.59746586329917
 31
0.0
 12
205.7060643815978
 22
14.55519394814803
 32
0.0
 13
205.7060643815978
 23
14.55519394814803
 33
0.0
  0
SOLID
  5
1A3FD
  8
寸法線
  6
CONTINUOUS
 62
     0
 10
205.7060643815978
 20
9.297072239301544
 30
0.0
 11
205.7060643815978
 21
10.43042423954397
 31
0.0
 12
205.7838461340093
 22
9.34054489502317
 32
0.0
 13
205.7838461340093
 23
9.34054489502317
 33
0.0
  0
SOLID
  5
1A3FE
  8
寸法線
  6
CONTINUOUS
 62
     0
 10
205.7838461340093
 20
9.34054489502317
 30
0.0
 11
205.7060643815978
 21
10.43042423954397
 31
0.0
 12
205.7838461340093
 22
10.57594366314429
 32
0.0
 13
205.7838461340093
 23
10.57594366314429
 33
0.0
  0
SOLID
  5
1A3FF
  8
寸法線
  6
CONTINUOUS
 62
     0
 10
205.7060643815978
 20
13.42184194790559
 30
0.0
 11
205.7060643815978
 21
14.55519394814803
 31
0.0
 12
205.7838461340093
 22
13.27632252430527
 32
0.0
 13
205.7838461340093
 23
13.27632252430527
 33
0.0
  0
SOLID
  5
1A400
  8
寸法線
  6
CONTINUOUS
 62
     0
 10
205.7838461340093
 20
13.27632252430527
 30
0.0
 11
205.7060643815978
 21
14.55519394814803
 31
0.0
 12
205.7838461340093
 22
14.5117212924264
 32
0.0
 13
205.7838461340093
 23
14.5117212924264
 33
0.0
  0
SOLID
  5
1A401
  8
寸法線
  6
CONTINUOUS
 62
     0
 10
205.7838461340093
 20
9.34054489502317
 30
0.0
 11
205.7838461340093
 21
10.57594366314429
 31
0.0
 12
205.8530044738496
 22
9.380930345598403
 32
0.0
 13
205.8530044738496
 23
9.380930345598403
 33
0.0
  0
SOLID
  5
1A402
  8
寸法線
  6
CONTINUOUS
 62
     0
 10
205.8530044738496
 20
9.380930345598403
 30
0.0
 11
205.7838461340093
 21
10.57594366314429
 31
0.0
 12
205.8530044738496
 22
10.70532981656325
 32
0.0
 13
205.8530044738496
 23
10.70532981656325
 33
0.0
  0
SOLID
  5
1A403
  8
寸法線
  6
CONTINUOUS
 62
     0
 10
205.7838461340093
 20
13.27632252430527
 30
0.0
 11
205.7838461340093
 21
14.5117212924264
 31
0.0
 12
205.8530044738496
 22
13.1469363708863
 32
0.0
 13
205.8530044738496
 23
13.1469363708863
 33
0.0
  0
SOLID
  5
1A404
  8
寸法線
  6
CONTINUOUS
 62
     0
 10
205.8530044738496
 20
13.1469363708863
 30
0.0
 11
205.7838461340093
 21
14.5117212924264
 31
0.0
 12
205.8530044738496
 22
14.47133584185117
 32
0.0
 13
205.8530044738496
 23
14.47133584185117
 33
0.0
  0
SOLID
  5
1A405
  8
寸法線
  6
CONTINUOUS
 62
     0
 10
205.8530044738496
 20
9.380930345598403
 30
0.0
 11
205.8530044738496
 21
10.70532981656325
 31
0.0
 12
205.860313395266
 22
9.385198436551798
 32
0.0
 13
205.860313395266
 23
9.385198436551798
 33
0.0
  0
SOLID
  5
1A406
  8
寸法線
  6
CONTINUOUS
 62
     0
 10
205.860313395266
 20
9.385198436551798
 30
0.0
 11
205.8530044738496
 21
10.70532981656325
 31
0.0
 12
205.860313395266
 22
10.72942410145728
 32
0.0
 13
205.860313395266
 23
10.72942410145728
 33
0.0
  0
SOLID
  5
1A407
  8
寸法線
  6
CONTINUOUS
 62
     0
 10
205.8530044738496
 20
13.1469363708863
 30
0.0
 11
205.8530044738496
 21
14.47133584185117
 31
0.0
 12
205.860313395266
 22
13.12284208599227
 32
0.0
 13
205.860313395266
 23
13.12284208599227
 33
0.0
  0
SOLID
  5
1A408
  8
寸法線
  6
CONTINUOUS
 62
     0
 10
205.860313395266
 20
13.12284208599227
 30
0.0
 11
205.8530044738496
 21
14.47133584185117
 31
0.0
 12
205.860313395266
 22
14.46706775089777
 32
0.0
 13
205.860313395266
 23
14.46706775089777
 33
0.0
  0
SOLID
  5
1A409
  8
寸法線
  6
CONTINUOUS
 62
     0
 10
205.860313395266
 20
9.385198436551798
 30
0.0
 11
205.860313395266
 21
10.72942410145728
 31
0.0
 12
205.9354312413599
 22
9.431012469791625
 32
0.0
 13
205.9354312413599
 23
9.431012469791625
 33
0.0
  0
SOLID
  5
1A40A
  8
寸法線
  6
CONTINUOUS
 62
     0
 10
205.9354312413599
 20
9.431012469791625
 30
0.0
 11
205.860313395266
 21
10.72942410145728
 31
0.0
 12
205.9354312413599
 22
10.97705445363556
 32
0.0
 13
205.9354312413599
 23
10.97705445363556
 33
0.0
  0
SOLID
  5
1A40B
  8
寸法線
  6
CONTINUOUS
 62
     0
 10
205.860313395266
 20
13.12284208599227
 30
0.0
 11
205.860313395266
 21
14.46706775089777
 31
0.0
 12
205.9354312413599
 22
12.875211733814
 32
0.0
 13
205.9354312413599
 23
12.875211733814
 33
0.0
  0
SOLID
  5
1A40C
  8
寸法線
  6
CONTINUOUS
 62
     0
 10
205.9354312413599
 20
12.875211733814
 30
0.0
 11
205.860313395266
 21
14.46706775089777
 31
0.0
 12
205.9354312413599
 22
14.42125371765792
 32
0.0
 13
205.9354312413599
 23
14.42125371765792
 33
0.0
  0
SOLID
  5
1A40D
  8
寸法線
  6
CONTINUOUS
 62
     0
 10
205.9354312413599
 20
9.431012469791625
 30
0.0
 11
205.9354312413599
 21
10.97705445363556
 31
0.0
 12
206.0091653645852
 22
9.477966070628892
 32
0.0
 13
206.0091653645852
 23
9.477966070628892
 33
0.0
  0
SOLID
  5
1A40E
  8
寸法線
  6
CONTINUOUS
 62
     0
 10
206.0091653645852
 20
9.477966070628892
 30
0.0
 11
205.9354312413599
 21
10.97705445363556
 31
0.0
 12
206.0091653645852
 22
11.22012328283299
 32
0.0
 13
206.0091653645852
 23
11.22012328283299
 33
0.0
  0
SOLID
  5
1A40F
  8
寸法線
  6
CONTINUOUS
 62
     0
 10
205.9354312413599
 20
12.875211733814
 30
0.0
 11
205.9354312413599
 21
14.42125371765794
 31
0.0
 12
206.0091653645852
 22
12.63214290461657
 32
0.0
 13
206.0091653645852
 23
12.63214290461657
 33
0.0
  0
SOLID
  5
1A410
  8
寸法線
  6
CONTINUOUS
 62
     0
 10
206.0091653645852
 20
12.63214290461657
 30
0.0
 11
205.9354312413599
 21
14.42125371765794
 31
0.0
 12
206.0091653645852
 22
14.37430011682067
 32
0.0
 13
206.0091653645852
 23
14.37430011682067
 33
0.0
  0
SOLID
  5
1A411
  8
寸法線
  6
CONTINUOUS
 62
     0
 10
206.0091653645852
 20
9.477966070628892
 30
0.0
 11
206.0091653645852
 21
11.22012328283299
 31
0.0
 12
206.0345402228274
 22
9.494833720328813
 32
0.0
 13
206.0345402228274
 23
9.494833720328813
 33
0.0
  0
SOLID
  5
1A412
  8
寸法線
  6
CONTINUOUS
 62
     0
 10
206.0345402228274
 20
9.494833720328813
 30
0.0
 11
206.0091653645852
 21
11.22012328283299
 31
0.0
 12
206.0345402228274
 22
11.30377298007196
 32
0.0
 13
206.0345402228274
 23
11.30377298007196
 33
0.0
  0
SOLID
  5
1A413
  8
寸法線
  6
CONTINUOUS
 62
     0
 10
206.0091653645852
 20
12.63214290461657
 30
0.0
 11
206.0091653645852
 21
14.37430011682067
 31
0.0
 12
206.0345402228274
 22
12.54849320737759
 32
0.0
 13
206.0345402228274
 23
12.54849320737759
 33
0.0
  0
SOLID
  5
1A414
  8
寸法線
  6
CONTINUOUS
 62
     0
 10
206.0345402228274
 20
12.54849320737759
 30
0.0
 11
206.0091653645852
 21
14.37430011682067
 31
0.0
 12
206.0345402228274
 22
14.35743246712075
 32
0.0
 13
206.0345402228274
 23
14.35743246712075
 33
0.0
  0
SOLID
  5
1A415
  8
寸法線
  6
CONTINUOUS
 62
     0
 10
206.0345402228274
 20
9.494833720328813
 30
0.0
 11
206.0345402228274
 21
11.30377298007196
 31
0.0
 12
206.0814820892085
 22
9.526037794488296
 32
0.0
 13
206.0814820892085
 23
9.526037794488296
 33
0.0
  0
SOLID
  5
1A416
  8
寸法線
  6
CONTINUOUS
 62
     0
 10
206.0814820892085
 20
9.526037794488296
 30
0.0
 11
206.0345402228274
 21
11.30377298007196
 31
0.0
 12
206.0814820892085
 22
11.7803817477512
 32
0.0
 13
206.0814820892085
 23
11.7803817477512
 33
0.0
  0
SOLID
  5
1A417
  8
寸法線
  6
CONTINUOUS
 62
     0
 10
206.0345402228274
 20
12.54849320737759
 30
0.0
 11
206.0345402228274
 21
14.35743246712075
 31
0.0
 12
206.0814820892085
 22
12.07188443969835
 32
0.0
 13
206.0814820892085
 23
12.07188443969835
 33
0.0
  0
SOLID
  5
1A418
  8
寸法線
  6
CONTINUOUS
 62
     0
 10
206.0814820892085
 20
12.07188443969835
 30
0.0
 11
206.0345402228274
 21
14.35743246712075
 31
0.0
 12
206.0814820892085
 22
14.32622839296127
 32
0.0
 13
206.0814820892085
 23
14.32622839296127
 33
0.0
  0
SOLID
  5
1A419
  8
寸法線
  6
CONTINUOUS
 62
     0
 10
206.0814820892085
 20
9.526037794488296
 30
0.0
 11
206.0814820892085
 21
11.7803817477512
 31
0.0
 12
206.0958373438146
 22
9.5359976431954
 32
0.0
 13
206.0958373438146
 23
9.5359976431954
 33
0.0
  0
SOLID
  5
1A41A
  8
寸法線
  6
CONTINUOUS
 62
     0
 10
206.0958373438146
 20
9.5359976431954
 30
0.0
 11
206.0814820892085
 21
11.7803817477512
 31
0.0
 12
206.0958373438146
 22
11.92613309372478
 32
0.0
 13
206.0958373438146
 23
11.92613309372478
 33
0.0
  0
SOLID
  5
1A41B
  8
寸法線
  6
CONTINUOUS
 62
     0
 10
206.0814820892085
 20
12.07188443969835
 30
0.0
 11
206.0814820892085
 21
14.32622839296127
 31
0.0
 12
206.0958373438146
 22
11.92613309372478
 32
0.0
 13
206.0958373438146
 23
11.92613309372478
 33
0.0
  0
SOLID
  5
1A41C
  8
寸法線
  6
CONTINUOUS
 62
     0
 10
206.0958373438146
 20
11.92613309372478
 30
0.0
 11
206.0814820892085
 21
14.32622839296127
 31
0.0
 12
206.0958373438146
 22
14.31626854425417
 32
0.0
 13
206.0958373438146
 23
14.31626854425417
 33
0.0
  0
SOLID
  5
1A41D
  8
寸法線
  6
CONTINUOUS
 62
     0
 10
206.0958373438146
 20
9.5359976431954
 30
0.0
 11
206.0958373438146
 21
14.31626854425417
 31
0.0
 12
206.152348386848
 22
9.575205686127143
 32
0.0
 13
206.152348386848
 23
9.575205686127143
 33
0.0
  0
SOLID
  5
1A41E
  8
寸法線
  6
CONTINUOUS
 62
     0
 10
206.152348386848
 20
9.575205686127143
 30
0.0
 11
206.0958373438146
 21
14.31626854425417
 31
0.0
 12
206.152348386848
 22
14.27706050132244
 32
0.0
 13
206.152348386848
 23
14.27706050132244
 33
0.0
  0
SOLID
  5
1A41F
  8
寸法線
  6
CONTINUOUS
 62
     0
 10
206.152348386848
 20
9.575205686127143
 30
0.0
 11
206.152348386848
 21
14.27706050132242
 31
0.0
 12
206.221731891559
 22
9.625447289662693
 32
0.0
 13
206.221731891559
 23
9.625447289662693
 33
0.0
  0
SOLID
  5
1A420
  8
寸法線
  6
CONTINUOUS
 62
     0
 10
206.221731891559
 20
9.625447289662693
 30
0.0
 11
206.152348386848
 21
14.27706050132242
 31
0.0
 12
206.221731891559
 22
14.22681889778685
 32
0.0
 13
206.221731891559
 23
14.22681889778685
 33
0.0
  0
SOLID
  5
1A421
  8
寸法線
  6
CONTINUOUS
 62
     0
 10
206.221731891559
 20
9.625447289662693
 30
0.0
 11
206.221731891559
 21
14.22681889778687
 31
0.0
 12
206.2896009146153
 22
9.676739658828188
 32
0.0
 13
206.2896009146153
 23
9.676739658828188
 33
0.0
  0
SOLID
  5
1A422
  8
寸法線
  6
CONTINUOUS
 62
     0
 10
206.2896009146153
 20
9.676739658828188
 30
0.0
 11
206.221731891559
 21
14.22681889778687
 31
0.0
 12
206.2896009146153
 22
14.17552652862139
 32
0.0
 13
206.2896009146153
 23
14.17552652862139
 33
0.0
  0
SOLID
  5
1A423
  8
寸法線
  6
CONTINUOUS
 62
     0
 10
206.2896009146153
 20
9.676739658828188
 30
0.0
 11
206.2896009146153
 21
14.17552652862137
 31
0.0
 12
206.3559244589829
 22
9.729059367452829
 32
0.0
 13
206.3559244589829
 23
9.729059367452829
 33
0.0
  0
SOLID
  5
1A424
  8
寸法線
  6
CONTINUOUS
 62
     0
 10
206.3559244589829
 20
9.729059367452829
 30
0.0
 11
206.2896009146153
 21
14.17552652862137
 31
0.0
 12
206.3559244589829
 22
14.12320681999671
 32
0.0
 13
206.3559244589829
 23
14.12320681999671
 33
0.0
  0
SOLID
  5
1A425
  8
寸法線
  6
CONTINUOUS
 62
     0
 10
206.3559244589829
 20
9.729059367452829
 30
0.0
 11
206.3559244589829
 21
14.12320681999673
 31
0.0
 12
206.4206722334758
 22
9.782382520160944
 32
0.0
 13
206.4206722334758
 23
9.782382520160944
 33
0.0
  0
SOLID
  5
1A426
  8
寸法線
  6
CONTINUOUS
 62
     0
 10
206.4206722334758
 20
9.782382520160944
 30
0.0
 11
206.3559244589829
 21
14.12320681999673
 31
0.0
 12
206.4206722334758
 22
14.06988366728861
 32
0.0
 13
206.4206722334758
 23
14.06988366728861
 33
0.0
  0
SOLID
  5
1A427
  8
寸法線
  6
CONTINUOUS
 62
     0
 10
206.4206722334758
 20
9.782382520160944
 30
0.0
 11
206.4206722334758
 21
14.06988366728861
 31
0.0
 12
206.4838146665917
 22
9.836684763285447
 32
0.0
 13
206.4838146665917
 23
9.836684763285447
 33
0.0
  0
SOLID
  5
1A428
  8
寸法線
  6
CONTINUOUS
 62
     0
 10
206.4838146665917
 20
9.836684763285447
 30
0.0
 11
206.4206722334758
 21
14.06988366728861
 31
0.0
 12
206.4838146665917
 22
14.01558142416411
 32
0.0
 13
206.4838146665917
 23
14.01558142416411
 33
0.0
  0
SOLID
  5
1A429
  8
寸法線
  6
CONTINUOUS
 62
     0
 10
206.4838146665917
 20
9.836684763285447
 30
0.0
 11
206.4838146665917
 21
14.01558142416411
 31
0.0
 12
206.5453229200171
 22
9.891941295990602
 32
0.0
 13
206.5453229200171
 23
9.891941295990602
 33
0.0
  0
SOLID
  5
1A42A
  8
寸法線
  6
CONTINUOUS
 62
     0
 10
206.5453229200171
 20
9.891941295990602
 30
0.0
 11
206.4838146665917
 21
14.01558142416411
 31
0.0
 12
206.5453229200171
 22
13.96032489145898
 32
0.0
 13
206.5453229200171
 23
13.96032489145898
 33
0.0
  0
SOLID
  5
1A42B
  8
寸法線
  6
CONTINUOUS
 62
     0
 10
206.5453229200171
 20
9.891941295990602
 30
0.0
 11
206.5453229200171
 21
13.96032489145896
 31
0.0
 12
206.6051689017983
 22
9.948126881599025
 32
0.0
 13
206.6051689017983
 23
9.948126881599025
 33
0.0
  0
SOLID
  5
1A42C
  8
寸法線
  6
CONTINUOUS
 62
     0
 10
206.6051689017983
 20
9.948126881599025
 30
0.0
 11
206.5453229200171
 21
13.96032489145896
 31
0.0
 12
206.6051689017983
 22
13.90413930585053
 32
0.0
 13
206.6051689017983
 23
13.90413930585053
 33
0.0
  0
SOLID
  5
1A42D
  8
寸法線
  6
CONTINUOUS
 62
     0
 10
206.6051689017983
 20
9.948126881599025
 30
0.0
 11
206.6051689017983
 21
13.90413930585053
 31
0.0
 12
206.6633252791721
 22
10.00521585911774
 32
0.0
 13
206.6633252791721
 23
10.00521585911774
 33
0.0
  0
SOLID
  5
1A42E
  8
寸法線
  6
CONTINUOUS
 62
     0
 10
206.6633252791721
 20
10.00521585911774
 30
0.0
 11
206.6051689017983
 21
13.90413930585053
 31
0.0
 12
206.6633252791721
 22
13.84705032833179
 32
0.0
 13
206.6633252791721
 23
13.84705032833179
 33
0.0
  0
SOLID
  5
1A42F
  8
寸法線
  6
CONTINUOUS
 62
     0
 10
206.6633252791721
 20
10.00521585911774
 30
0.0
 11
206.6633252791721
 21
13.84705032833181
 31
0.0
 12
206.7197654910484
 22
10.06318215495804
 32
0.0
 13
206.7197654910484
 23
10.06318215495804
 33
0.0
  0
SOLID
  5
1A430
  8
寸法線
  6
CONTINUOUS
 62
     0
 10
206.7197654910484
 20
10.06318215495804
 30
0.0
 11
206.6633252791721
 21
13.84705032833181
 31
0.0
 12
206.7197654910484
 22
13.78908403249155
 32
0.0
 13
206.7197654910484
 23
13.78908403249155
 33
0.0
  0
SOLID
  5
1A431
  8
寸法線
  6
CONTINUOUS
 62
     0
 10
206.7197654910484
 20
10.06318215495804
 30
0.0
 11
206.7197654910484
 21
13.78908403249152
 31
0.0
 12
206.7744637601419
 22
10.12199929484373
 32
0.0
 13
206.7744637601419
 23
10.12199929484373
 33
0.0
  0
SOLID
  5
1A432
  8
寸法線
  6
CONTINUOUS
 62
     0
 10
206.7744637601419
 20
10.12199929484373
 30
0.0
 11
206.7197654910484
 21
13.78908403249152
 31
0.0
 12
206.7744637601419
 22
13.73026689260582
 32
0.0
 13
206.7744637601419
 23
13.73026689260582
 33
0.0
  0
SOLID
  5
1A433
  8
寸法線
  6
CONTINUOUS
 62
     0
 10
206.7744637601419
 20
10.12199929484373
 30
0.0
 11
206.7744637601419
 21
13.73026689260582
 31
0.0
 12
206.8273951047444
 22
10.18164041590249
 32
0.0
 13
206.8273951047444
 23
10.18164041590249
 33
0.0
  0
SOLID
  5
1A434
  8
寸法線
  6
CONTINUOUS
 62
     0
 10
206.8273951047444
 20
10.18164041590249
 30
0.0
 11
206.7744637601419
 21
13.73026689260582
 31
0.0
 12
206.8273951047444
 22
13.67062577154703
 32
0.0
 13
206.8273951047444
 23
13.67062577154703
 33
0.0
  0
SOLID
  5
1A435
  8
寸法線
  6
CONTINUOUS
 62
     0
 10
206.8273951047444
 20
10.18164041590249
 30
0.0
 11
206.8273951047444
 21
13.67062577154706
 31
0.0
 12
206.8785353501347
 22
10.24207827893459
 32
0.0
 13
206.8785353501347
 23
10.24207827893459
 33
0.0
  0
SOLID
  5
1A436
  8
寸法線
  6
CONTINUOUS
 62
     0
 10
206.8785353501347
 20
10.24207827893459
 30
0.0
 11
206.8273951047444
 21
13.67062577154706
 31
0.0
 12
206.8785353501347
 22
13.610187908515
 32
0.0
 13
206.8785353501347
 23
13.610187908515
 33
0.0
  0
SOLID
  5
1A437
  8
寸法線
  6
CONTINUOUS
 62
     0
 10
206.8785353501347
 20
10.24207827893459
 30
0.0
 11
206.8785353501347
 21
13.61018790851497
 31
0.0
 12
206.92786113962
 22
10.30328528085353
 32
0.0
 13
206.92786113962
 23
10.30328528085353
 33
0.0
  0
SOLID
  5
1A438
  8
寸法線
  6
CONTINUOUS
 62
     0
 10
206.92786113962
 20
10.30328528085353
 30
0.0
 11
206.8785353501347
 21
13.61018790851497
 31
0.0
 12
206.92786113962
 22
13.54898090659599
 32
0.0
 13
206.92786113962
 23
13.54898090659599
 33
0.0
  0
SOLID
  5
1A439
  8
寸法線
  6
CONTINUOUS
 62
     0
 10
206.92786113962
 20
10.30328528085353
 30
0.0
 11
206.92786113962
 21
13.54898090659603
 31
0.0
 12
206.9753499452025
 22
10.36523346729292
 32
0.0
 13
206.9753499452025
 23
10.36523346729292
 33
0.0
  0
SOLID
  5
1A43A
  8
寸法線
  6
CONTINUOUS
 62
     0
 10
206.9753499452025
 20
10.36523346729292
 30
0.0
 11
206.92786113962
 21
13.54898090659603
 31
0.0
 12
206.9753499452025
 22
13.48703272015663
 32
0.0
 13
206.9753499452025
 23
13.48703272015663
 33
0.0
  0
SOLID
  5
1A43B
  8
寸法線
  6
CONTINUOUS
 62
     0
 10
206.9753499452025
 20
10.36523346729292
 30
0.0
 11
206.9753499452025
 21
13.48703272015663
 31
0.0
 12
207.020980077869
 22
10.42789454537374
 32
0.0
 13
207.020980077869
 23
10.42789454537374
 33
0.0
  0
SOLID
  5
1A43C
  8
寸法線
  6
CONTINUOUS
 62
     0
 10
207.020980077869
 20
10.42789454537374
 30
0.0
 11
206.9753499452025
 21
13.48703272015663
 31
0.0
 12
207.020980077869
 22
13.42437164207582
 32
0.0
 13
207.020980077869
 23
13.42437164207582
 33
0.0
  0
SOLID
  5
1A43D
  8
寸法線
  6
CONTINUOUS
 62
     0
 10
207.020980077869
 20
10.42789454537374
 30
0.0
 11
207.020980077869
 21
13.42437164207582
 31
0.0
 12
207.0647306974967
 22
10.49123989662618
 32
0.0
 13
207.0647306974967
 23
10.49123989662618
 33
0.0
  0
SOLID
  5
1A43E
  8
寸法線
  6
CONTINUOUS
 62
     0
 10
207.0647306974967
 20
10.49123989662618
 30
0.0
 11
207.020980077869
 21
13.42437164207582
 31
0.0
 12
207.0647306974967
 22
13.36102629082338
 32
0.0
 13
207.0647306974967
 23
13.36102629082338
 33
0.0
  0
SOLID
  5
1A43F
  8
寸法線
  6
CONTINUOUS
 62
     0
 10
207.0647306974967
 20
10.49123989662618
 30
0.0
 11
207.0647306974967
 21
13.36102629082338
 31
0.0
 12
207.1065818223707
 22
10.55524059006028
 32
0.0
 13
207.1065818223707
 23
10.55524059006028
 33
0.0
  0
SOLID
  5
1A440
  8
寸法線
  6
CONTINUOUS
 62
     0
 10
207.1065818223707
 20
10.55524059006028
 30
0.0
 11
207.0647306974967
 21
13.36102629082338
 31
0.0
 12
207.1065818223707
 22
13.29702559738931
 32
0.0
 13
207.1065818223707
 23
13.29702559738931
 33
0.0
  0
SOLID
  5
1A441
  8
寸法線
  6
CONTINUOUS
 62
     0
 10
207.1065818223707
 20
10.55524059006028
 30
0.0
 11
207.1065818223707
 21
13.29702559738927
 31
0.0
 12
207.1465143383106
 22
10.61986739537922
 32
0.0
 13
207.1465143383106
 23
10.61986739537922
 33
0.0
  0
SOLID
  5
1A442
  8
寸法線
  6
CONTINUOUS
 62
     0
 10
207.1465143383106
 20
10.61986739537922
 30
0.0
 11
207.1065818223707
 21
13.29702559738927
 31
0.0
 12
207.1465143383106
 22
13.23239879207033
 32
0.0
 13
207.1465143383106
 23
13.23239879207033
 33
0.0
  0
SOLID
  5
1A443
  8
寸法線
  6
CONTINUOUS
 62
     0
 10
207.1465143383106
 20
10.61986739537922
 30
0.0
 11
207.1465143383106
 21
13.23239879207033
 31
0.0
 12
207.1845100074002
 22
10.68509079632933
 32
0.0
 13
207.1845100074002
 23
10.68509079632933
 33
0.0
  0
SOLID
  5
1A444
  8
寸法線
  6
CONTINUOUS
 62
     0
 10
207.1845100074002
 20
10.68509079632933
 30
0.0
 11
207.1465143383106
 21
13.23239879207033
 31
0.0
 12
207.1845100074002
 22
13.16717539112017
 32
0.0
 13
207.1845100074002
 23
13.16717539112017
 33
0.0
  0
SOLID
  5
1A445
  8
寸法線
  6
CONTINUOUS
 62
     0
 10
207.1845100074002
 20
10.68509079632933
 30
0.0
 11
207.1845100074002
 21
13.16717539112022
 31
0.0
 12
207.2205514763166
 22
10.75088100418072
 32
0.0
 13
207.2205514763166
 23
10.75088100418072
 33
0.0
  0
SOLID
  5
1A446
  8
寸法線
  6
CONTINUOUS
 62
     0
 10
207.2205514763166
 20
10.75088100418072
 30
0.0
 11
207.1845100074002
 21
13.16717539112022
 31
0.0
 12
207.2205514763166
 22
13.10138518326889
 32
0.0
 13
207.2205514763166
 23
13.10138518326889
 33
0.0
  0
SOLID
  5
1A447
  8
寸法線
  6
CONTINUOUS
 62
     0
 10
207.2205514763166
 20
10.75088100418072
 30
0.0
 11
207.2205514763166
 21
13.10138518326884
 31
0.0
 12
207.2546222842565
 22
10.81720797133232
 32
0.0
 13
207.2546222842565
 23
10.81720797133232
 33
0.0
  0
SOLID
  5
1A448
  8
寸法線
  6
CONTINUOUS
 62
     0
 10
207.2546222842565
 20
10.81720797133232
 30
0.0
 11
207.2205514763166
 21
13.10138518326884
 31
0.0
 12
207.2546222842565
 22
13.03505821611718
 32
0.0
 13
207.2546222842565
 23
13.03505821611718
 33
0.0
  0
SOLID
  5
1A449
  8
寸法線
  6
CONTINUOUS
 62
     0
 10
207.2546222842565
 20
10.81720797133232
 30
0.0
 11
207.2546222842565
 21
13.03505821611723
 31
0.0
 12
207.2867068704536
 22
10.88404140503522
 32
0.0
 13
207.2867068704536
 23
10.88404140503522
 33
0.0
  0
SOLID
  5
1A44A
  8
寸法線
  6
CONTINUOUS
 62
     0
 10
207.2867068704536
 20
10.88404140503522
 30
0.0
 11
207.2546222842565
 21
13.03505821611723
 31
0.0
 12
207.2867068704536
 22
12.96822478241433
 32
0.0
 13
207.2867068704536
 23
12.96822478241433
 33
0.0
  0
SOLID
  5
1A44B
  8
寸法線
  6
CONTINUOUS
 62
     0
 10
207.2867068704536
 20
10.88404140503522
 30
0.0
 11
207.2867068704536
 21
12.96822478241433
 31
0.0
 12
207.3167905812857
 22
10.95135078122787
 32
0.0
 13
207.3167905812857
 23
10.95135078122787
 33
0.0
  0
SOLID
  5
1A44C
  8
寸法線
  6
CONTINUOUS
 62
     0
 10
207.3167905812857
 20
10.95135078122787
 30
0.0
 11
207.2867068704536
 21
12.96822478241433
 31
0.0
 12
207.3167905812857
 22
12.90091540622175
 32
0.0
 13
207.3167905812857
 23
12.90091540622175
 33
0.0
  0
SOLID
  5
1A44D
  8
寸法線
  6
CONTINUOUS
 62
     0
 10
207.3167905812857
 20
10.95135078122787
 30
0.0
 11
207.3167905812857
 21
12.90091540622168
 31
0.0
 12
207.3448596769676
 22
11.01910535847703
 32
0.0
 13
207.3448596769676
 23
11.01910535847703
 33
0.0
  0
SOLID
  5
1A44E
  8
寸法線
  6
CONTINUOUS
 62
     0
 10
207.3448596769676
 20
11.01910535847703
 30
0.0
 11
207.3167905812857
 21
12.90091540622168
 31
0.0
 12
207.3448596769676
 22
12.83316082897246
 32
0.0
 13
207.3448596769676
 23
12.83316082897246
 33
0.0
  0
SOLID
  5
1A44F
  8
寸法線
  6
CONTINUOUS
 62
     0
 10
207.3448596769676
 20
11.01910535847703
 30
0.0
 11
207.3448596769676
 21
12.83316082897253
 31
0.0
 12
207.3709013378254
 22
11.0872741920179
 32
0.0
 13
207.3709013378254
 23
11.0872741920179
 33
0.0
  0
SOLID
  5
1A450
  8
寸法線
  6
CONTINUOUS
 62
     0
 10
207.3709013378254
 20
11.0872741920179
 30
0.0
 11
207.3448596769676
 21
12.83316082897253
 31
0.0
 12
207.3709013378254
 22
12.76499199543165
 32
0.0
 13
207.3709013378254
 23
12.76499199543165
 33
0.0
  0
SOLID
  5
1A451
  8
寸法線
  6
CONTINUOUS
 62
     0
 10
207.3709013378254
 20
11.0872741920179
 30
0.0
 11
207.3709013378254
 21
12.76499199543165
 31
0.0
 12
207.3949036701526
 22
11.15582614788723
 32
0.0
 13
207.3949036701526
 23
11.15582614788723
 33
0.0
  0
SOLID
  5
1A452
  8
寸法線
  6
CONTINUOUS
 62
     0
 10
207.3949036701526
 20
11.15582614788723
 30
0.0
 11
207.3709013378254
 21
12.76499199543165
 31
0.0
 12
207.3949036701526
 22
12.69644003956241
 32
0.0
 13
207.3949036701526
 23
12.69644003956241
 33
0.0
  0
SOLID
  5
1A453
  8
寸法線
  6
CONTINUOUS
 62
     0
 10
207.3949036701526
 20
11.15582614788723
 30
0.0
 11
207.3949036701526
 21
12.69644003956233
 31
0.0
 12
207.4168557116414
 22
11.2247299171427
 32
0.0
 13
207.4168557116414
 23
11.2247299171427
 33
0.0
  0
SOLID
  5
1A454
  8
寸法線
  6
CONTINUOUS
 62
     0
 10
207.4168557116414
 20
11.2247299171427
 30
0.0
 11
207.3949036701526
 21
12.69644003956233
 31
0.0
 12
207.4168557116414
 22
12.62753627030676
 32
0.0
 13
207.4168557116414
 23
12.62753627030676
 33
0.0
  0
SOLID
  5
1A455
  8
寸法線
  6
CONTINUOUS
 62
     0
 10
207.4168557116414
 20
11.2247299171427
 30
0.0
 11
207.4168557116414
 21
12.62753627030685
 31
0.0
 12
207.4367474363896
 22
11.29395403016236
 32
0.0
 13
207.4367474363896
 23
11.29395403016236
 33
0.0
  0
SOLID
  5
1A456
  8
寸法線
  6
CONTINUOUS
 62
     0
 10
207.4367474363896
 20
11.29395403016236
 30
0.0
 11
207.4168557116414
 21
12.62753627030685
 31
0.0
 12
207.4367474363896
 22
12.55831215728719
 32
0.0
 13
207.4367474363896
 23
12.55831215728719
 33
0.0
  0
SOLID
  5
1A457
  8
寸法線
  6
CONTINUOUS
 62
     0
 10
207.4367474363896
 20
11.29395403016236
 30
0.0
 11
207.4367474363896
 21
12.55831215728719
 31
0.0
 12
207.4545697594798
 22
11.36346687101735
 32
0.0
 13
207.4545697594798
 23
11.36346687101735
 33
0.0
  0
SOLID
  5
1A458
  8
寸法線
  6
CONTINUOUS
 62
     0
 10
207.4545697594798
 20
11.36346687101735
 30
0.0
 11
207.4367474363896
 21
12.55831215728719
 31
0.0
 12
207.4545697594798
 22
12.4887993164322
 32
0.0
 13
207.4545697594798
 23
12.4887993164322
 33
0.0
  0
SOLID
  5
1A459
  8
寸法線
  6
CONTINUOUS
 62
     0
 10
207.4545697594798
 20
11.36346687101735
 30
0.0
 11
207.4545697594798
 21
12.4887993164322
 31
0.0
 12
207.4703145411283
 22
11.43323669191146
 32
0.0
 13
207.4703145411283
 23
11.43323669191146
 33
0.0
  0
SOLID
  5
1A45A
  8
寸法線
  6
CONTINUOUS
 62
     0
 10
207.4703145411283
 20
11.43323669191146
 30
0.0
 11
207.4545697594798
 21
12.4887993164322
 31
0.0
 12
207.4703145411283
 22
12.41902949553809
 32
0.0
 13
207.4703145411283
 23
12.41902949553809
 33
0.0
  0
SOLID
  5
1A45B
  8
寸法線
  6
CONTINUOUS
 62
     0
 10
207.4703145411283
 20
11.43323669191146
 30
0.0
 11
207.4703145411283
 21
12.41902949553809
 31
0.0
 12
207.4839745904032
 22
11.50323162768099
 32
0.0
 13
207.4839745904032
 23
11.50323162768099
 33
0.0
  0
SOLID
  5
1A45C
  8
寸法線
  6
CONTINUOUS
 62
     0
 10
207.4839745904032
 20
11.50323162768099
 30
0.0
 11
207.4703145411283
 21
12.41902949553809
 31
0.0
 12
207.4839745904032
 22
12.34903455976856
 32
0.0
 13
207.4839745904032
 23
12.34903455976856
 33
0.0
  0
SOLID
  5
1A45D
  8
寸法線
  6
CONTINUOUS
 62
     0
 10
207.4839745904032
 20
11.50323162768099
 30
0.0
 11
207.4839745904032
 21
12.34903455976856
 31
0.0
 12
207.4955436685079
 22
11.5734197103481
 32
0.0
 13
207.4955436685079
 23
11.5734197103481
 33
0.0
  0
SOLID
  5
1A45E
  8
寸法線
  6
CONTINUOUS
 62
     0
 10
207.4955436685079
 20
11.5734197103481
 30
0.0
 11
207.4839745904032
 21
12.34903455976856
 31
0.0
 12
207.4955436685079
 22
12.27884647710145
 32
0.0
 13
207.4955436685079
 23
12.27884647710145
 33
0.0
  0
SOLID
  5
1A45F
  8
寸法線
  6
CONTINUOUS
 62
     0
 10
207.4955436685079
 20
11.5734197103481
 30
0.0
 11
207.4955436685079
 21
12.27884647710145
 31
0.0
 12
207.5050164916312
 22
11.64376888372122
 32
0.0
 13
207.5050164916312
 23
11.64376888372122
 33
0.0
  0
SOLID
  5
1A460
  8
寸法線
  6
CONTINUOUS
 62
     0
 10
207.5050164916312
 20
11.64376888372122
 30
0.0
 11
207.4955436685079
 21
12.27884647710145
 31
0.0
 12
207.5050164916312
 22
12.20849730372833
 32
0.0
 13
207.5050164916312
 23
12.20849730372833
 33
0.0
  0
SOLID
  5
1A461
  8
寸法線
  6
CONTINUOUS
 62
     0
 10
207.5050164916312
 20
11.64376888372122
 30
0.0
 11
207.5050164916312
 21
12.20849730372833
 31
0.0
 12
207.5123887333601
 22
11.71424701803567
 32
0.0
 13
207.5123887333601
 23
11.71424701803567
 33
0.0
  0
SOLID
  5
1A462
  8
寸法線
  6
CONTINUOUS
 62
     0
 10
207.5123887333601
 20
11.71424701803567
 30
0.0
 11
207.5050164916312
 21
12.20849730372833
 31
0.0
 12
207.5123887333601
 22
12.13801916941388
 32
0.0
 13
207.5123887333601
 23
12.13801916941388
 33
0.0
  0
SOLID
  5
1A463
  8
寸法線
  6
CONTINUOUS
 62
     0
 10
207.5123887333601
 20
11.71424701803567
 30
0.0
 11
207.5123887333601
 21
12.13801916941388
 31
0.0
 12
207.5176570266559
 22
11.78482192462793
 32
0.0
 13
207.5176570266559
 23
11.78482192462793
 33
0.0
  0
SOLID
  5
1A464
  8
寸法線
  6
CONTINUOUS
 62
     0
 10
207.5176570266559
 20
11.78482192462793
 30
0.0
 11
207.5123887333601
 21
12.13801916941388
 31
0.0
 12
207.5176570266559
 22
12.06744426282162
 32
0.0
 13
207.5176570266559
 23
12.06744426282162
 33
0.0
  0
SOLID
  5
1A465
  8
寸法線
  6
CONTINUOUS
 62
     0
 10
207.5176570266559
 20
11.78482192462793
 30
0.0
 11
207.5176570266559
 21
12.06744426282162
 31
0.0
 12
207.5208189653918
 22
11.85546137063682
 32
0.0
 13
207.5208189653918
 23
11.85546137063682
 33
0.0
  0
SOLID
  5
1A466
  8
寸法線
  6
CONTINUOUS
 62
     0
 10
207.5208189653918
 20
11.85546137063682
 30
0.0
 11
207.5176570266559
 21
12.06744426282162
 31
0.0
 12
207.5208189653918
 22
11.99680481681274
 32
0.0
 13
207.5208189653918
 23
11.99680481681274
 33
0.0
  0
SOLID
  5
1A467
  8
寸法線
  6
CONTINUOUS
 62
     0
 10
207.5208189653918
 20
11.85546137063682
 30
0.0
 11
207.5208189653918
 21
11.99680481681274
 31
0.0
 12
207.5218731054522
 22
11.92613309372478
 32
0.0
 13
207.5218731054522
 23
11.92613309372478
 33
0.0
  0
ENDBLK
  8
0
  0
BLOCK
  8
0
  2
*X14
 70
     1
 10
0.0
 20
0.0
 30
0.0
  0
TEXT
  5
1A489
  8
0
  6
CONTINUOUS
 10
211.8309228433986
 20
8.444277587584843
 30
0.0
 40
1.5
  1
OHJI RUBBER & CHEMICALS CO
  0
TEXT
  5
1A48A
  8
0
  6
CONTINUOUS
 10
259.3737799862557
 20
8.444277587584843
 30
0.0
 40
1.5
  1
.,
  0
TEXT
  5
1A48B
  8
0
  6
CONTINUOUS
 10
261.8023514148272
 20
8.444277587584843
 30
0.0
 40
1.5
  1
LTD
  0
ENDBLK
  8
0
  0
ENDSEC
  0
SECTION
  2
ENTITIES
  0
POLYLINE
  5
198D9
  8
0
 62
     0
 66
     1
 10
0.0
 20
0.0
 30
0.0
 70
     1
  0
VERTEX
  5
19FF3
  8
0
 62
     0
 10
31.0
 20
31.0
 30
0.0
 42
0.9999999999999999
  0
VERTEX
  5
19FF4
  8
0
 62
     0
 10
31.0
 20
30.0
 30
0.0
  0
VERTEX
  5
19FF5
  8
0
 62
     0
 10
104.0
 20
30.0
 30
0.0
 42
0.9999999999999999
  0
VERTEX
  5
19FF6
  8
0
 62
     0
 10
104.0
 20
31.0
 30
0.0
  0
VERTEX
  5
19FF7
  8
0
 62
     0
 10
104.0
 20
32.95
 30
0.0
 42
0.9999999999999999
  0
VERTEX
  5
19FF8
  8
0
 62
     0
 10
99.9
 20
32.95
 30
0.0
  0
VERTEX
  5
19FF9
  8
0
 62
     0
 10
99.89999999999999
 20
31.6
 30
0.0
 42
-0.9999999999999999
  0
VERTEX
  5
19FFA
  8
0
 62
     0
 10
98.7
 20
31.6
 30
0.0
  0
VERTEX
  5
19FFB
  8
0
 62
     0
 10
98.7
 20
32.95
 30
0.0
 42
0.9999999999999999
  0
VERTEX
  5
19FFC
  8
0
 62
     0
 10
94.6
 20
32.95
 30
0.0
  0
VERTEX
  5
19FFD
  8
0
 62
     0
 10
94.6
 20
31.6
 30
0.0
 42
-0.9999999999999999
  0
VERTEX
  5
19FFE
  8
0
 62
     0
 10
93.4
 20
31.6
 30
0.0
  0
VERTEX
  5
19FFF
  8
0
 62
     0
 10
93.39999999999999
 20
32.95
 30
0.0
 42
0.9999999999999999
  0
VERTEX
  5
1A000
  8
0
 62
     0
 10
89.30000000000001
 20
32.95
 30
0.0
  0
VERTEX
  5
1A001
  8
0
 62
     0
 10
89.29999999999998
 20
31.6
 30
0.0
 42
-0.9999999999999999
  0
VERTEX
  5
1A002
  8
0
 62
     0
 10
88.1
 20
31.6
 30
0.0
  0
VERTEX
  5
1A003
  8
0
 62
     0
 10
88.1
 20
32.95
 30
0.0
 42
0.9999999999999999
  0
VERTEX
  5
1A004
  8
0
 62
     0
 10
84.0
 20
32.95
 30
0.0
  0
VERTEX
  5
1A005
  8
0
 62
     0
 10
84.0
 20
31.6
 30
0.0
 42
-0.9999999999999999
  0
VERTEX
  5
1A006
  8
0
 62
     0
 10
82.80000000000001
 20
31.6
 30
0.0
  0
VERTEX
  5
1A007
  8
0
 62
     0
 10
82.8
 20
32.95
 30
0.0
 42
0.9999999999999999
  0
VERTEX
  5
1A008
  8
0
 62
     0
 10
78.7
 20
32.95
 30
0.0
  0
VERTEX
  5
1A009
  8
0
 62
     0
 10
78.69999999999999
 20
31.6
 30
0.0
 42
-0.9999999999999999
  0
VERTEX
  5
1A00A
  8
0
 62
     0
 10
77.5
 20
31.6
 30
0.0
  0
VERTEX
  5
1A00B
  8
0
 62
     0
 10
77.49999999999999
 20
32.95
 30
0.0
 42
0.9999999999999999
  0
VERTEX
  5
1A00C
  8
0
 62
     0
 10
73.4
 20
32.95
 30
0.0
  0
VERTEX
  5
1A00D
  8
0
 62
     0
 10
73.39999999999999
 20
31.6
 30
0.0
 42
-0.9999999999999999
  0
VERTEX
  5
1A00E
  8
0
 62
     0
 10
72.2
 20
31.6
 30
0.0
  0
VERTEX
  5
1A00F
  8
0
 62
     0
 10
72.2
 20
32.95
 30
0.0
 42
0.9999999999999999
  0
VERTEX
  5
1A010
  8
0
 62
     0
 10
68.10000000000001
 20
32.95
 30
0.0
  0
VERTEX
  5
1A011
  8
0
 62
     0
 10
68.1
 20
31.6
 30
0.0
 42
-0.9999999999999999
  0
VERTEX
  5
1A012
  8
0
 62
     0
 10
66.9
 20
31.6
 30
0.0
  0
VERTEX
  5
1A013
  8
0
 62
     0
 10
66.9
 20
32.95
 30
0.0
 42
0.9999999999999999
  0
VERTEX
  5
1A014
  8
0
 62
     0
 10
62.8
 20
32.95
 30
0.0
  0
VERTEX
  5
1A015
  8
0
 62
     0
 10
62.8
 20
31.6
 30
0.0
 42
-0.9999999999999999
  0
VERTEX
  5
1A016
  8
0
 62
     0
 10
61.6
 20
31.6
 30
0.0
  0
VERTEX
  5
1A017
  8
0
 62
     0
 10
61.6
 20
32.95
 30
0.0
 42
0.9999999999999999
  0
VERTEX
  5
1A018
  8
0
 62
     0
 10
57.50000000000001
 20
32.95
 30
0.0
  0
VERTEX
  5
1A019
  8
0
 62
     0
 10
57.5
 20
31.6
 30
0.0
 42
-0.9999999999999999
  0
VERTEX
  5
1A01A
  8
0
 62
     0
 10
56.3
 20
31.6
 30
0.0
  0
VERTEX
  5
1A01B
  8
0
 62
     0
 10
56.3
 20
32.95
 30
0.0
 42
0.9999999999999999
  0
VERTEX
  5
1A01C
  8
0
 62
     0
 10
52.2
 20
32.95
 30
0.0
  0
VERTEX
  5
1A01D
  8
0
 62
     0
 10
52.2
 20
31.6
 30
0.0
 42
-0.9999999999999999
  0
VERTEX
  5
1A01E
  8
0
 62
     0
 10
51.0
 20
31.6
 30
0.0
  0
VERTEX
  5
1A01F
  8
0
 62
     0
 10
51.0
 20
32.95
 30
0.0
 42
0.9999999999999999
  0
VERTEX
  5
1A020
  8
0
 62
     0
 10
46.90000000000001
 20
32.95
 30
0.0
  0
VERTEX
  5
1A021
  8
0
 62
     0
 10
46.9
 20
31.6
 30
0.0
 42
-0.9999999999999999
  0
VERTEX
  5
1A022
  8
0
 62
     0
 10
45.7
 20
31.6
 30
0.0
  0
VERTEX
  5
1A023
  8
0
 62
     0
 10
45.7
 20
32.95
 30
0.0
 42
0.9999999999999999
  0
VERTEX
  5
1A024
  8
0
 62
     0
 10
41.6
 20
32.95
 30
0.0
  0
VERTEX
  5
1A025
  8
0
 62
     0
 10
41.59999999999999
 20
31.6
 30
0.0
 42
-0.9999999999999999
  0
VERTEX
  5
1A026
  8
0
 62
     0
 10
40.4
 20
31.6
 30
0.0
  0
VERTEX
  5
1A027
  8
0
 62
     0
 10
40.4
 20
32.95
 30
0.0
 42
0.9999999999999999
  0
VERTEX
  5
1A028
  8
0
 62
     0
 10
36.3
 20
32.95
 30
0.0
  0
VERTEX
  5
1A029
  8
0
 62
     0
 10
36.3
 20
31.6
 30
0.0
 42
-0.9999999999999999
  0
VERTEX
  5
1A02A
  8
0
 62
     0
 10
35.1
 20
31.6
 30
0.0
  0
VERTEX
  5
1A02B
  8
0
 62
     0
 10
35.1
 20
32.95
 30
0.0
 42
0.9999999999999999
  0
VERTEX
  5
1A02C
  8
0
 62
     0
 10
31.0
 20
32.95
 30
0.0
  0
SEQEND
  5
1A498
  8
0
 62
     0
  0
LINE
  5
19AFB
  8
0
 62
     0
 10
31.5
 20
29.0
 30
0.0
 11
66.5
 21
29.0
 31
0.0
  0
LINE
  5
19AFC
  8
0
 62
     0
 10
103.5
 20
29.0
 30
0.0
 11
68.49999999999999
 21
29.0
 31
0.0
  0
DIMENSION
  5
19AFD
  8
寸法線
 62
     0
  2
*D4
 10
107.0699252643532
 20
31.0
 30
0.0
 11
110.1324252643532
 21
32.45625000000002
 31
0.0
 70
    32
 13
104.0
 23
30.0
 33
0.0
 14
99.3
 24
31.00000000000001
 34
0.0
 50
90.0
  0
LINE
  5
19B2B
  8
0
 62
     0
 10
103.5
 20
28.9
 30
0.0
 11
68.49999999999999
 21
28.9
 31
0.0
  0
LINE
  5
19B2C
  8
0
 62
     0
 10
31.5
 20
28.9
 30
0.0
 11
66.5
 21
28.9
 31
0.0
  0
DIMENSION
  5
19B2D
  8
寸法線
 62
     0
  2
*D5
 10
66.5
 20
24.81298864319768
 30
0.0
 11
49.0
 21
26.18798864319768
 31
0.0
 70
    32
 13
31.5
 23
28.9
 33
0.0
 14
66.5
 24
28.9
 34
0.0
  0
DIMENSION
  5
19B3A
  8
寸法線
 62
     0
  2
*D6
 10
103.5
 20
24.81298864319768
 30
0.0
 11
85.99999999999999
 21
26.18798864319768
 31
0.0
 70
    32
 13
68.49999999999999
 23
28.9
 33
0.0
 14
103.5
 24
28.9
 34
0.0
  0
DIMENSION
  5
19B47
  8
寸法線
 62
     0
  2
*D7
 10
28.15811061733075
 20
35.0
 30
0.0
 11
26.78311061733075
 21
32.50000000000001
 31
0.0
 70
    32
 13
31.5
 23
30.0
 33
0.0
 14
33.05
 24
35.0
 34
0.0
 50
90.0
  0
DIMENSION
  5
19B54
  8
寸法線
 62
     0
  2
*D8
 10
104.5
 20
37.67920215701389
 30
0.0
 11
67.5
 21
39.05420215701389
 31
0.0
 70
    32
 13
30.5
 23
30.5
 33
0.0
 14
104.5
 24
30.5
 34
0.0
  0
INSERT
  5
19B68
  8
寸法線
 62
     0
  2
*X9
 10
0.0
 20
0.0
 30
0.0
  0
INSERT
  5
19B73
  8
寸法線
 62
     0
  2
*X10
 10
0.0
 20
0.0
 30
0.0
  0
TEXT
  5
19B7B
  8
寸法線
  6
CONTINUOUS
 62
     0
 10
32.11525111326461
 20
48.63508889146215
 30
0.0
 40
1.5
  1
山数：14個
  0
INSERT
  5
19B7D
  8
寸法線
 62
     0
  2
*X11
 10
0.0
 20
0.0
 30
0.0
  0
POLYLINE
  5
19BA8
  8
0
 66
     1
 10
0.0
 20
0.0
 30
0.0
 70
     1
  0
VERTEX
  5
1A038
  8
0
 10
181.0
 20
31.0
 30
0.0
 42
0.9999999999999999
  0
VERTEX
  5
1A039
  8
0
 10
181.0
 20
30.0
 30
0.0
  0
VERTEX
  5
1A03A
  8
0
 10
254.0
 20
30.0
 30
0.0
 42
0.9999999999999999
  0
VERTEX
  5
1A03B
  8
0
 10
254.0
 20
31.0
 30
0.0
  0
VERTEX
  5
1A03C
  8
0
 10
254.0
 20
32.95
 30
0.0
 42
0.9999999999999999
  0
VERTEX
  5
1A03D
  8
0
 10
249.9
 20
32.95
 30
0.0
  0
VERTEX
  5
1A03E
  8
0
 10
249.9
 20
31.6
 30
0.0
 42
-0.9999999999999999
  0
VERTEX
  5
1A03F
  8
0
 10
248.7
 20
31.6
 30
0.0
  0
VERTEX
  5
1A040
  8
0
 10
248.7
 20
32.95
 30
0.0
 42
0.9999999999999999
  0
VERTEX
  5
1A041
  8
0
 10
244.6
 20
32.95
 30
0.0
  0
VERTEX
  5
1A042
  8
0
 10
244.6
 20
31.6
 30
0.0
 42
-0.9999999999999999
  0
VERTEX
  5
1A043
  8
0
 10
243.4
 20
31.6
 30
0.0
  0
VERTEX
  5
1A044
  8
0
 10
243.4
 20
32.95
 30
0.0
 42
0.9999999999999999
  0
VERTEX
  5
1A045
  8
0
 10
239.3
 20
32.95
 30
0.0
  0
VERTEX
  5
1A046
  8
0
 10
239.3
 20
31.6
 30
0.0
 42
-0.9999999999999999
  0
VERTEX
  5
1A047
  8
0
 10
238.1
 20
31.6
 30
0.0
  0
VERTEX
  5
1A048
  8
0
 10
238.1
 20
32.95
 30
0.0
 42
0.9999999999999999
  0
VERTEX
  5
1A049
  8
0
 10
234.0
 20
32.95
 30
0.0
  0
VERTEX
  5
1A04A
  8
0
 10
234.0
 20
31.6
 30
0.0
 42
-0.9999999999999999
  0
VERTEX
  5
1A04B
  8
0
 10
232.8
 20
31.6
 30
0.0
  0
VERTEX
  5
1A04C
  8
0
 10
232.8
 20
32.95
 30
0.0
 42
0.9999999999999999
  0
VERTEX
  5
1A04D
  8
0
 10
228.7
 20
32.95
 30
0.0
  0
VERTEX
  5
1A04E
  8
0
 10
228.7
 20
31.6
 30
0.0
 42
-0.9999999999999999
  0
VERTEX
  5
1A04F
  8
0
 10
227.5
 20
31.6
 30
0.0
  0
VERTEX
  5
1A050
  8
0
 10
227.5
 20
32.95
 30
0.0
 42
0.9999999999999999
  0
VERTEX
  5
1A051
  8
0
 10
223.4
 20
32.95
 30
0.0
  0
VERTEX
  5
1A052
  8
0
 10
223.4
 20
31.6
 30
0.0
 42
-0.9999999999999999
  0
VERTEX
  5
1A053
  8
0
 10
222.2
 20
31.6
 30
0.0
  0
VERTEX
  5
1A054
  8
0
 10
222.2
 20
32.95
 30
0.0
 42
0.9999999999999999
  0
VERTEX
  5
1A055
  8
0
 10
218.1
 20
32.95
 30
0.0
  0
VERTEX
  5
1A056
  8
0
 10
218.1
 20
31.6
 30
0.0
 42
-0.9999999999999999
  0
VERTEX
  5
1A057
  8
0
 10
216.9
 20
31.6
 30
0.0
  0
VERTEX
  5
1A058
  8
0
 10
216.9
 20
32.95
 30
0.0
 42
0.9999999999999999
  0
VERTEX
  5
1A059
  8
0
 10
212.8
 20
32.95
 30
0.0
  0
VERTEX
  5
1A05A
  8
0
 10
212.8
 20
31.6
 30
0.0
 42
-0.9999999999999999
  0
VERTEX
  5
1A05B
  8
0
 10
211.6
 20
31.6
 30
0.0
  0
VERTEX
  5
1A05C
  8
0
 10
211.6
 20
32.95
 30
0.0
 42
0.9999999999999999
  0
VERTEX
  5
1A05D
  8
0
 10
207.5
 20
32.95
 30
0.0
  0
VERTEX
  5
1A05E
  8
0
 10
207.5
 20
31.6
 30
0.0
 42
-0.9999999999999999
  0
VERTEX
  5
1A05F
  8
0
 10
206.3
 20
31.6
 30
0.0
  0
VERTEX
  5
1A060
  8
0
 10
206.3
 20
32.95
 30
0.0
 42
0.9999999999999999
  0
VERTEX
  5
1A061
  8
0
 10
202.2
 20
32.95
 30
0.0
  0
VERTEX
  5
1A062
  8
0
 10
202.2
 20
31.6
 30
0.0
 42
-0.9999999999999999
  0
VERTEX
  5
1A063
  8
0
 10
201.0
 20
31.6
 30
0.0
  0
VERTEX
  5
1A064
  8
0
 10
201.0
 20
32.95
 30
0.0
 42
0.9999999999999999
  0
VERTEX
  5
1A065
  8
0
 10
196.9
 20
32.95
 30
0.0
  0
VERTEX
  5
1A066
  8
0
 10
196.9
 20
31.6
 30
0.0
 42
-0.9999999999999999
  0
VERTEX
  5
1A067
  8
0
 10
195.7
 20
31.6
 30
0.0
  0
VERTEX
  5
1A068
  8
0
 10
195.7
 20
32.95
 30
0.0
 42
0.9999999999999999
  0
VERTEX
  5
1A069
  8
0
 10
191.6
 20
32.95
 30
0.0
  0
VERTEX
  5
1A06A
  8
0
 10
191.6
 20
31.6
 30
0.0
 42
-0.9999999999999999
  0
VERTEX
  5
1A06B
  8
0
 10
190.4
 20
31.6
 30
0.0
  0
VERTEX
  5
1A06C
  8
0
 10
190.4
 20
32.95
 30
0.0
 42
0.9999999999999999
  0
VERTEX
  5
1A06D
  8
0
 10
186.3
 20
32.95
 30
0.0
  0
VERTEX
  5
1A06E
  8
0
 10
186.3
 20
31.6
 30
0.0
 42
-0.9999999999999999
  0
VERTEX
  5
1A06F
  8
0
 10
185.1
 20
31.6
 30
0.0
  0
VERTEX
  5
1A070
  8
0
 10
185.1
 20
32.95
 30
0.0
 42
0.9999999999999999
  0
VERTEX
  5
1A071
  8
0
 10
181.0
 20
32.95
 30
0.0
  0
SEQEND
  5
1A499
  8
0
  0
LINE
  5
19BA9
  8
0
 10
181.5
 20
29.0
 30
0.0
 11
216.5
 21
29.0
 31
0.0
  0
LINE
  5
19BAA
  8
0
 10
253.5
 20
29.0
 30
0.0
 11
218.5
 21
29.0
 31
0.0
  0
LINE
  5
19BAC
  8
0
 10
253.5
 20
28.9
 30
0.0
 11
218.5
 21
28.9
 31
0.0
  0
LINE
  5
19BAD
  8
0
 10
181.5
 20
28.9
 30
0.0
 11
216.5
 21
28.9
 31
0.0
  0
ENDSEC
  0
EOF
